#TITLE:NEGIMANIAX;
#SUBTITLE:Dj Sharpnel;
#ARTIST:Dj Doll's Renaissance;
#TITLETRANSLIT:;
#SUBTITLETRANSLIT:;
#ARTISTTRANSLIT:;
#CREDIT:;
#BANNER:bn.png;
#BACKGROUND:bg.png;
#LYRICSPATH:negi.lrc;
#CDTITLE:illus10ns.png;
#MUSIC:NEGIMANIAX.mp3;
#OFFSET:1.040;
#SAMPLESTART:100.000;
#SAMPLELENGTH:12.000;
#SELECTABLE:YES;
#BPMS:0.000=193.840,388.000=96.920,452.000=193.840,708.000=96.920,724.000=193.840;
#STOPS:;
#BGCHANGES:;
// cache tags:
#FIRSTBEAT:4.000;
#LASTBEAT:856.000;
#SONGFILENAME:Songs/toune 2/NEGIMANIAX/NEGIMANIAX.sm;
#HASMUSIC:1;
#HASBANNER:1;
#MUSICLENGTH:295.444;
// end cache tags

//---------------dance-single - ----------------
#NOTES:
     dance-single:
     :
     Hard:
     12:
     1.000,1.000,1.000,0.850,0.741,1949.000,456.000,251.000,4.000,79.000:
0000
0000
0000
0000
,
0001
0010
0100
0000
1001
0000
1010
0000
0100
0001
0010
0000
1100
0000
0011
0000
,
1000
0010
0100
0000
1001
0000
0110
0000
1000
0001
1000
0000
0110
0000
0101
0000
,
1000
0010
0100
0000
0011
0000
1100
0000
0001
0100
0001
0000
1010
0000
1100
0000
,
0001
1000
0010
0000
0101
0000
0110
0000
1010
0000
0001
0100
0010
0000
1100
0000
,
0001
0010
0100
0000
1001
0000
1010
0000
0100
0001
1000
0000
0110
0000
0101
0000
,
1000
0100
0010
0000
0101
0000
1010
0000
0100
0001
0010
0000
1100
0000
0011
0000
,
1000
0100
1000
0000
0011
0000
0101
0000
1000
0010
0100
0000
1001
0000
0110
0000
,
2001
0000
0000
0000
0101
0000
0000
3000
0001
0010
0100
1000
0001
0100
0010
1000
,
0100
0010
0001
0000
1100
0000
0110
0000
1000
0001
0100
0000
0011
0000
1100
0000
,
0001
0100
0010
0000
1100
0000
0011
0000
1000
0001
1000
0000
0110
0000
0101
0000
,
0010
1000
0100
0000
1010
0000
1100
0000
0001
0010
0001
0000
1100
0000
1010
0000
,
0001
0100
0001
0000
1010
0000
0110
0000
0101
0000
1000
0100
0011
0000
1100
0000
,
0001
0100
0001
0000
1010
0000
1100
0000
0010
0001
0010
0000
0101
0000
0011
0000
,
1000
0100
0010
0000
1100
0000
1001
0000
0010
0100
0010
0000
1001
0000
1010
0000
,
0100
0001
0010
0000
1100
0000
0101
0000
1000
0010
0100
0000
0011
0000
0110
0000
,
2200
0000
0000
0000
0000
0000
3300
0000
0000
0000
1000
0100
0010
0000
1100
0000
,
0001
0010
0100
1000
0001
0000
1000
0000
0010
0100
0001
1000
0010
0000
0100
0000
,
0001
0010
0100
1000
0001
0000
0010
0000
0001
1000
0010
0100
0001
0000
0100
0000
,
0010
1000
0001
0100
0010
0000
1000
0000
0100
0010
0001
1000
0100
0000
0010
0000
,
0100
1000
0010
0100
0001
0000
1000
0000
0010
0100
0001
1000
0010
0000
1001
0000
,
0010
0100
0001
1000
0010
0000
0100
0000
0001
0010
0100
1000
0010
0000
0100
0000
,
0010
1000
0100
1000
0010
0000
0100
0000
0001
0010
0100
0010
0001
0000
1000
0000
,
0010
1000
0100
1000
0010
0000
0100
0000
0001
0100
0010
0100
0001
0000
0010
0000
,
0100
1000
0010
1000
0200
0000
0000
0000
0001
0000
0000
0000
1310
0000
0000
0000
,
1000
0100
0010
0000
0001
0010
0100
0000
1000
0100
1000
0000
0011
0000
1100
0000
,
0001
0100
0010
0000
1000
0010
0100
0000
0001
0100
0001
0000
1010
0000
1100
0000
,
0001
1000
0100
0000
0010
0001
0100
0000
0010
0100
0010
0000
1001
0000
1010
0000
,
0100
0001
0010
0000
0100
1000
0010
0000
0100
0001
0100
0000
1010
0000
0110
0000
,
0001
0010
0100
0000
1000
0100
0010
0000
0001
0010
0001
0000
1100
0000
0011
0000
,
0001
0100
0010
0000
1000
0010
0100
0000
0001
0100
0001
0000
1010
0000
1100
0000
,
0001
0100
0001
0000
1000
0100
0010
0000
0001
0100
0010
0000
1001
0000
0110
0000
,
2001
0000
0000
0100
0000
0000
0001
0000
0010
0000
0000
0100
0000
0000
3010
0000
,
0001
0000
0000
1000
0100
0000
0010
0000
0001
0000
0000
1000
0010
0000
0100
0000
,
0001
0000
0000
0010
0100
0000
1000
0000
0001
0000
0000
1000
0100
0000
1000
0000
,
0010
0000
0000
0100
0001
0000
0010
0000
0100
0000
0000
1000
0001
0000
0100
0000
,
0010
0000
0000
1000
0001
0000
0100
0000
0001
0000
0000
1000
0100
0000
0001
0010
,
0100
0000
0000
1000
0100
0000
0100
0000
1000
0000
0000
0001
0100
0000
0010
0000
,
1000
0000
0000
0100
0010
0000
0001
0000
0010
0000
0000
0001
0010
0000
0100
0000
,
1000
0000
0000
0001
0100
0000
0010
0000
1000
0000
0000
0100
0010
0000
1000
0000
,
0200
0000
0000
0000
0000
0000
0000
0000
0000
0001
0000
0000
1000
0000
0000
0000
0000
0000
0001
0000
0000
0000
0000
0000
0010
0000
0000
0000
0000
0000
0000
0000
0000
1000
0000
0300
0200
0000
0000
0000
0000
0000
0001
0000
0000
0300
0000
0000
,
0010
0000
0000
0100
1000
0000
0100
0000
0001
0000
0010
1000
0100
0000
0010
0000
,
0001
0000
0000
0100
0001
0000
1000
0000
0010
0000
0100
0001
0010
0000
0100
0000
,
1000
0000
0000
0001
0100
0000
0010
0000
1000
0000
0001
0100
0001
0000
1000
0000
,
0010
0000
0000
0100
0001
0000
0010
0000
0100
0000
1000
0010
0100
0000
0001
0000
,
0010
0000
0000
0100
1000
0000
0010
0000
0100
0000
0010
0100
0001
0000
1000
0000
,
0100
0000
0000
0001
0010
0000
0100
0000
1000
0000
0010
0100
0001
0000
1000
0000
,
0010
0000
0000
0100
0001
0000
1000
0000
0010
0000
0100
0001
0010
0000
0100
0000
,
1002
0000
0010
0100
0000
0100
0010
0103
,
1001
0000
0000
0100
0010
0000
0001
0000
0010
0000
0100
1000
0010
0100
0001
0010
,
0100
0000
0000
0001
0100
0000
0010
0000
1000
0000
0001
0100
0010
1000
0001
0100
,
0010
0000
0000
1000
0100
0000
0010
0000
0001
0000
1000
0100
0010
0100
1000
0010
,
0100
0000
0000
0001
0100
0000
0010
0000
1000
0000
0010
0001
1000
0100
1000
0010
,
0100
0000
0000
0001
0100
0000
0010
0000
0100
0000
0001
1000
0100
1000
0010
0100
,
0001
0000
0000
1000
0100
0000
0100
0000
0010
0000
1000
0001
0010
0001
0100
0010
,
0100
0000
0000
0001
0010
0000
0100
0000
0010
0000
0100
1000
0010
0100
0001
0010
,
0200
0302
2003
3020
,
1031
0000
0000
0001
0100
1000
0010
0001
0100
0000
0000
1000
0001
0100
0001
0100
,
1000
0000
0000
0001
1000
0010
1000
0100
0010
0000
0000
1000
0100
0010
1000
0001
,
0010
0000
0000
1000
0010
1000
0001
0100
1000
0000
0000
1000
0001
0100
0010
0001
,
0100
0000
0000
0001
1000
0010
0100
0001
1000
0000
0000
1000
0001
0100
0010
0001
,
1000
0000
0000
0001
1000
0010
0001
0100
0010
0000
0000
0001
1000
0100
0010
1000
,
0001
0000
0000
1000
0001
0010
0100
0001
0010
0000
0000
1000
0010
0100
1000
0001
,
0100
0000
0000
0001
1000
0001
0100
1000
0001
0000
0000
1000
0001
0010
0100
0010
,
2000
0000
3000
0000
,
1000
0100
0011
1000
0001
1100
0010
1000
,
0110
0001
1010
0100
1001
0101
1010
0110
,
0001
1000
0110
0001
0100
1010
0100
0001
,
1010
0001
1100
0010
0101
1010
0110
0101
,
1000
0100
1001
0100
0001
1010
0100
1000
,
0011
1000
0110
0001
1100
0011
0110
1010
,
0001
0100
1010
0100
0001
1100
0010
0001
,
1100
0010
0101
0010
1100
0110
0101
1001
,
0010
0100
1001
0010
0100
1010
0001
0100
,
1010
0001
1010
0100
0011
0110
1001
1100
,
0001
0100
1010
0100
0010
0101
0010
1000
,
0101
1000
0101
0010
1100
0110
1010
0101
,
1000
0001
0110
1000
0100
1010
0001
0010
,
1100
0001
1100
0001
1100
0110
0101
1001
,
0100
0010
1100
0001
0100
1010
0001
0100
,
1010
0001
1010
0100
0011
1001
1100
1010
,
0100
0010
0101
0010
1000
0101
0010
0100
,
1001
0010
1100
0001
1010
0101
0110
1001
,
0010
1000
0101
1000
0010
0101
0010
0001
,
1100
0001
1100
0001
0110
0101
0011
0110
,
1000
0001
1100
0010
0100
1001
0010
0001
,
1100
0010
1100
0001
1010
0101
0110
1001
,
0010
0100
1001
0010
0001
1100
0010
0001
,
0110
1000
0110
0001
1010
0101
0110
1001
,
0100
0010
0101
0010
0001
1100
0010
0100
,
0011
0010
0011
1000
0101
1010
0110
1001
,
0100
0010
1001
0100
0010
1100
0001
0010
,
0101
0010
0101
1000
0101
0110
1010
1001
,
0100
0010
0101
0010
0001
1100
0010
0001
,
1100
0010
0101
0010
1001
0110
1100
0011
,
1000
0100
0010
0001
0100
0010
1000
0001
0100
0010
1000
0100
0010
0001
0100
0010
,
2000
0000
3000
0000
0000
0001
0010
0100
,
1000
0000
0001
0000
0100
0000
0010
0100
0000
0001
1000
0010
0200
0000
0002
0000
,
2300
0023
3200
0032
2300
0023
3200
0032
,
2300
0023
3200
0032
2300
0203
3020
2300
,
0230
0000
3002
0000
0320
0000
2003
0000
0230
0000
3020
0000
0301
1000
0130
0010
,
0001
0000
1000
0000
0010
0000
0100
0010
0000
0001
0010
0100
2000
0000
0020
0000
,
3002
0230
2003
0320
3200
0032
0320
2003
,
0230
3020
2300
0032
3200
0023
2300
0032
,
3020
0000
0203
0000
0032
0000
2300
0000
0023
0000
3200
0000
0332
0010
0100
1000
,
0013
0000
0100
0000
0001
0000
0010
0001
0000
0001
0010
0100
2000
0000
0200
0000
,
3020
0302
0230
0023
0302
2030
0023
3200
,
2030
0302
3020
0203
0032
2300
0023
3200
,
0032
0000
2300
0000
0023
0000
3200
0000
0032
0000
0300
0000
0000
1003
0010
0100
,
1000
0000
0001
0000
0010
0000
0100
0001
0000
1000
0001
0100
0010
0000
0000
1000
,
0100
0000
0001
0000
0010
0000
0001
0010
0000
1000
0100
0020
0000
0000
0030
0100
,
1000
0000
0010
0100
0000
0002
0000
1003
0010
0200
0000
0300
0101
0000
1100
0000
,
0102
0000
0003
2000
0000
3000
0000
2002
0000
0000
0000
0000
0000
0010
3103
0010
,
2100
3010
0102
0103
2010
3001
0101
1020
,
0130
1100
0110
0101
2010
0001
0100
3011
,
1002
0013
1200
0301
2010
3001
1100
0012
,
1003
0110
0011
1010
0102
1000
0010
1103
,
2010
3001
2100
3001
0120
1030
0101
2001
,
3010
0120
1030
0102
0013
1200
1300
0110
,
0102
0103
1010
2100
3010
0102
1003
0210
,
0001
1000
0010
0301
1000
0011
0110
1100
,
1002
0103
2010
3001
2100
3010
1001
0021
,
0031
1100
0110
0011
2001
0010
0100
3011
,
2010
3001
1200
1300
0012
0103
1010
0120
,
1030
0011
1100
1002
0010
0100
0010
1103
,
0012
1003
0110
1200
0310
2001
3100
0011
,
1001
1200
0001
1000
0312
1003
0120
0031
,
2100
0010
3100
1020
0100
0001
1030
0102
,
1000
0100
1000
0010
1003
0110
0101
1010
,
0102
0013
2100
3001
0120
1030
0101
2010
,
3001
0110
1010
1001
2100
0001
3010
1100
,
0120
0031
2100
3001
0210
0310
1100
0012
,
0013
1100
0011
1001
0102
1000
0103
1010
,
0102
0103
2010
3010
0102
0013
1100
0120
,
1030
0102
0013
2100
3001
0120
0031
1100
,
0102
1003
0110
2100
3010
0201
0310
2001
,
0010
0100
0001
0010
0001
3110
1001
0110
,
2100
3010
0102
0103
2010
3010
0101
2100
,
3010
0101
1010
0110
1200
0001
0310
1100
,
0012
1003
0102
0103
0012
1003
0110
0012
,
1003
0101
0110
1010
1002
0100
0013
1100
,
2001
3100
0011
0120
0031
1200
1300
0011
,
0110
2100
0010
3001
2010
3001
1200
0310
,
2001
0100
3001
0120
1000
0001
0130
2002
,
0000
0000
0000
0000
0000
0000
0000
3003
,
1001
0000
0000
1000
0100
0000
1000
0000
0010
0000
0000
0100
0001
0000
0010
0000
,
0100
0000
0000
0100
1000
0000
0010
0000
0100
0000
0000
0100
0010
0000
0001
0000
,
1000
0000
0000
0100
0010
0000
1000
0000
0010
0000
0000
0100
0001
0000
0010
0000
,
0100
0000
0000
0100
1000
0000
0010
0000
0100
0000
0000
0001
0010
0000
0100
1000
,
0010
0000
0000
0100
0001
0000
0010
0000
1000
0000
0000
0100
0010
0000
1000
0000
,
0100
0000
0000
0010
0001
0000
1000
0000
0010
0000
0000
1000
0010
0000
0100
0000
,
0010
0000
0000
0100
1000
0000
0010
0000
0001
0000
0000
0001
1000
0000
0010
0000
,
2000
0000
0000
0001
3100
0000
0010
0000
0002
0000
0000
1000
0103
0000
0010
1000
,
0001
0000
0000
0100
0010
0000
1000
0100
0010
0000
0000
0001
0010
0000
0100
1000
,
0010
0000
0000
0010
0100
0000
1000
0001
0100
0000
0000
0010
1000
0000
0001
0100
,
0010
0000
0000
1000
0100
0000
0010
0100
1000
0000
0000
0001
0010
0000
0100
0010
,
0001
0000
0000
1000
0010
0000
0100
0001
0010
0000
0000
1000
0100
0000
0010
0001
,
1000
0000
0000
0001
0100
0000
0010
0100
0001
0000
0000
1000
0001
0000
1000
0010
,
0100
0000
0000
0001
0010
0000
0100
1000
0010
0000
0000
1000
0100
0000
0001
0010
,
0100
0000
0000
1000
0010
0000
0100
0001
1000
0000
0000
0001
0100
0000
0010
1000
,
0100
0000
0000
1000
0010
0000
0100
0001
0020
0000
0000
0000
1000
0000
0000
0000
,
0031
0000
0000
0000
0010
0000
0100
0000
1000
0000
0000
0010
0000
0000
0100
0000
,
1001
0000
0000
0100
1000
0010
0100
0001
0010
0000
0000
0001
1000
0010
0001
1000
,
0100
0000
0000
1000
0001
0100
0010
1000
0001
0000
0000
0001
1000
0100
0001
0010
,
1000
0000
0000
0001
1000
0010
0001
0100
0010
0000
0000
1000
0001
0010
0100
0001
,
1000
0000
0000
0001
1000
0100
0010
1000
0001
0000
0000
0001
0010
0100
0001
1000
,
0010
0000
0000
1000
0001
0100
0010
1000
0001
0000
0000
0001
1000
0010
0100
0001
,
1000
0000
0000
0100
0001
1000
0010
0100
0001
0000
0000
1000
0010
0100
0001
0100
,
1000
0000
0000
0001
0100
0010
1000
0100
0010
0000
0000
0001
0100
0010
1000
0001
,
0010
0000
0000
0001
0010
0100
0001
1000
0010
0000
0000
1000
0010
0100
1000
0001
,
0010
0000
0000
0001
0100
0010
1000
0100
0010
0000
0000
0001
1000
0010
0100
0001
,
0010
0000
0000
1000
0010
0100
0010
1000
0010
0000
0000
0001
0100
0010
0100
1000
,
0010
0000
0000
1000
0001
0010
1000
0010
0100
0000
0000
0001
0100
0010
0001
1000
,
0010
0000
0000
0100
0010
1000
0001
0100
0010
0000
0000
1000
0100
0010
0001
1000
,
0010
0000
0000
0001
0100
0010
1000
0001
0100
0000
0000
0010
1000
0100
0010
0001
,
1000
0000
0000
0001
0100
0010
1000
0001
0100
0000
0000
1000
0100
0010
0001
1000
,
0010
0000
1001
0000
1001
1000
0100
0010
,
0001
0000
1000
0000
0100
0000
1000
0100
0000
0001
0010
0100
2000
0000
0000
3001
,
0020
0030
0200
0300
2000
3000
0010
0100
0000
0001
1000
0002
0000
0000
0003
1000
,
0010
0000
0100
0001
0000
0100
0000
0001
0010
0200
0000
0300
2000
3000
0020
0030
,
0200
0000
0000
0000
0300
0000
0020
0000
0000
0000
0030
0000
0000
0000
2002
0000
3003
0000
0001
0100
0001
0000
0001
0100
0001
0000
1000
0100
1000
0100
1000
0100
,
0012
0013
2100
3001
2010
3100
0011
2100
,
3010
0101
0110
1010
0102
0010
0103
1010
,
0012
0103
1002
0013
2100
3010
0101
0120
,
0031
1100
0011
0101
1002
0010
1003
0110
,
0012
0103
2010
3001
1200
0301
1010
2100
,
3010
0201
0301
2010
3010
0102
0013
1100
,
1020
1030
0101
0120
0130
1002
0013
2001
,
0100
0010
0001
0010
3100
0011
0110
0101
,
2010
3001
0120
1030
0102
1003
0110
1002
,
0103
1010
0101
0110
2100
0010
3001
1100
,
1002
0013
2100
3100
0012
1003
0110
0012
,
0103
1010
0101
0120
0001
1000
0031
1100
,
0021
0130
1001
2100
3010
0102
1003
0110
,
1100
0201
1000
0301
2010
3001
0210
0310
,
2001
0010
3100
1002
0010
0100
0013
2001
,
0001
0010
0100
0010
3001
0110
1001
1100
,
2010
3010
0102
1003
0120
1030
0101
2010
,
3001
0110
1010
1100
0012
0100
0013
1100
,
0012
1003
0120
1030
0201
0310
1100
0102
,
1003
0110
1010
0101
2100
0001
3010
1100
,
0012
1003
0201
0310
1002
0013
1100
0012
,
0103
2010
3001
1200
0301
2010
3001
0110
,
2010
3001
0110
0102
0103
1020
0130
2001
,
0100
0001
0010
0001
0100
0010
0001
3010
,
1000
0100
1000
0010
0100
0001
0010
0100
1000
0010
0100
0001
1000
0010
0100
0001
,
0100
0010
1000
0100
1000
0010
0100
0010
1000
0001
0010
0100
0010
0001
1000
0100
,
0010
0100
1000
0001
0010
0100
1000
0001
0100
0001
1000
0100
1000
0010
0100
0010
,
1000
0100
1000
0001
0010
0001
1000
0100
0010
0001
1000
0010
0100
0001
1000
0010
,
0100
0010
1000
0001
0100
0010
0100
0001
1000
0010
0100
0001
0010
0100
1000
0100
,
1000
0010
0100
0001
0010
0001
0100
0010
0100
0001
1000
0100
1000
0010
0100
0001
,
0010
0100
1000
0100
0010
0100
1000
0001
0010
0100
0010
0001
1000
0100
0010
0001
,
2000
0000
0000
0000
,
3101
0000
0000
0000
,
MMMM
0000
0000
0000
;
