#TITLE:Badboy;
#SUBTITLE:;
#ARTIST:m1dy;
#TITLETRANSLIT:;
#SUBTITLETRANSLIT:;
#ARTISTTRANSLIT:;
#CREDIT:;
#BANNER:badboy-bn.png;
#BACKGROUND:badboy-bg.png;
#LYRICSPATH:;
#CDTITLE:cdtitle.png;
#MUSIC:11 Badboy.mp3;
#OFFSET:-1.880;
#SAMPLESTART:23.960;
#SAMPLELENGTH:11.980;
#SELECTABLE:YES;
#BPMS:0.000=199.960,10.000=399.920,69.000=199.960,98.000=399.920,106.000=199.960,166.000=99.980,168.000=199.960,212.000=99.980,214.000=199.960,225.500=99.980,226.000=199.960,287.000=399.920;
#STOPS:9.000=3.601
,69.000=0.450
,225.500=1.050
,285.500=0.900
,346.500=0.450
;
#BGCHANGES:;
// cache tags:
#FIRSTBEAT:9.000;
#LASTBEAT:346.500;
#SONGFILENAME:Songs/Fabulously Fresh Flock of Fantastic Files F5/(Bursurk Lurk) Badboy/Badboy.sm;
#HASMUSIC:1;
#HASBANNER:1;
#MUSICLENGTH:94.902;
// end cache tags

//---------------dance-single - ----------------
#NOTES:
     dance-single:
     :
     Hard:
     11:
     1.000,1.000,1.000,0.000,0.406,646.000,226.000,0.000,0.000,0.000:
0000
0000
0000
0000
,
0000
0000
0000
0000
,
0000
1001
1100
1100
,
0110
0110
0011
0011
,
0110
0110
1010
1010
,
0101
0000
0101
0000
0110
0000
0100
0001
,
0100
1010
0011
0011
,
0110
0110
1100
1100
,
0101
0101
1010
1010
,
0001
1000
0001
0100
0001
0000
0011
0000
,
1000
0001
1000
0010
1000
0000
0110
0000
,
1100
1100
0011
0011
,
1010
1010
0101
0101
,
0110
0110
1100
1100
,
0001
0010
0100
1000
0001
0100
0010
1000
,
0100
0000
0010
0000
0001
0000
0100
0000
0010
0000
1000
0100
0010
0000
0001
0000
,
0010
0100
1000
0001
1000
0010
1000
0100
,
0010
0000
0100
0000
0010
0000
0000
0000
1100
0000
0010
0000
0001
0000
1000
0100
,
0010
0000
0001
0000
1000
0000
0100
0000
0010
0000
0001
0000
1000
0000
0100
0010
,
0001
0000
1000
0000
0100
0000
0010
0000
0101
0000
1000
0000
0010
0000
0100
0001
,
1000
0000
0010
0000
0100
0000
0001
0000
1000
0000
0010
0000
0100
0000
0001
1000
,
0010
0000
0100
0000
0001
0000
1000
0000
0011
0000
0000
0000
0001
0100
0001
0000
,
1000
0010
1000
0000
0001
0010
0100
0000
1000
0100
0010
0000
0001
0010
0001
0000
,
1000
0100
1000
0000
0100
0010
0100
0000
1010
0000
0000
0000
0100
0010
0100
0000
,
1000
0100
1000
0000
0001
0010
0001
0000
0110
0000
0000
0000
0110
0000
0000
0000
,
0100
0001
0010
0100
1000
0100
0010
0100
,
1000
0000
0010
0000
0100
0000
0010
0000
1100
0000
0001
0000
0110
0000
0001
0010
,
0100
0000
0010
0000
0101
0000
1000
0000
0110
0000
0001
0000
1010
0000
0100
1000
,
0010
0000
0100
0000
0011
0000
1000
0000
0110
0000
0001
0000
1010
0000
0100
0010
,
0100
0000
0001
0000
0110
0000
1000
0000
0101
0000
0010
0000
0101
0000
1000
0100
,
0010
0000
1100
0000
0011
0000
1010
0000
0101
0000
0010
0000
1100
0000
0001
0100
,
0010
0000
1000
0000
0011
0000
1000
0000
0110
0000
1000
0000
0101
0000
1000
0010
,
0100
0000
1000
0000
0110
0000
0001
0000
1100
0000
0001
0000
0110
0000
1000
0100
,
0010
0000
1000
0000
0101
0000
0010
0000
1100
0000
0001
0000
0010
0100
1000
0000
,
0101
0000
0000
0101
0110
0000
1001
0000
0110
0000
0001
0000
1100
0000
0010
0100
,
0001
0000
1000
0000
0110
0000
0001
0000
0110
0000
1000
0000
0101
0000
1000
0001
,
0100
0000
0010
0000
1100
0000
0001
0000
0110
0000
1000
0000
0101
0000
0010
0100
,
1000
0000
0001
0000
0110
0000
1000
0000
0011
0000
1000
0000
0101
0000
0010
0100
,
1000
0000
0110
0000
1001
0000
0011
0000
0110
0000
1000
0000
0011
0000
0100
1000
,
0010
0000
0100
0000
1001
0000
0010
0000
1001
0000
0100
0000
1010
0000
0001
0010
,
0100
0000
0001
0000
1100
0000
0010
0000
0101
0000
1000
0000
0110
0000
0001
0100
,
0010
0000
0000
0000
1000
0000
0000
0000
0110
0000
0000
0000
0001
0000
0000
0000
1000
0000
0100
0000
0010
0000
0100
0010
1000
0000
0100
0000
0010
0000
0100
0000
,
1001
0000
0100
0000
0011
0000
0100
0001
1000
0000
0010
0000
0101
0000
1000
0000
,
0101
0000
0010
0000
1100
0000
0001
0010
0100
0000
1000
0000
0011
0000
0100
0000
,
0011
0000
1000
0000
0101
0000
0010
0100
1000
0000
0001
0000
1100
0000
0010
0000
,
0101
0000
1000
0000
0011
0000
0010
0100
1000
0000
0101
0000
0110
0000
1001
0000
,
1010
0000
0001
0000
0110
0000
1000
0010
0100
0000
0001
0000
1010
0000
0100
0000
,
1010
0000
0001
0000
1100
0000
0001
0010
0100
0000
0001
0000
1010
0000
0001
0000
,
0110
0000
1000
0000
0110
0000
0001
0100
0010
0000
1000
0000
0101
0000
1000
0000
,
0010
0000
0010
0000
0010
0100
0010
0000
1100
0000
0000
0110
0011
0000
0110
0000
,
1100
0000
0000
0000
0001
0100
0001
0000
1000
0010
1000
0000
0001
1000
0001
0000
,
0110
0000
0000
0000
0001
0010
0001
0000
1000
0100
1000
0000
0001
1000
0001
0000
,
0110
0000
0000
0000
0100
0001
0100
0000
1000
0001
1000
0000
0010
0001
0010
0000
,
0100
0000
0010
0000
0100
0000
0010
0100
0001
0000
0010
0000
0100
0000
0010
0000
1100
0000
0000
0000
0000
0000
0000
0000
0010
0000
0100
0000
1000
0000
0000
0000
,
0001
0010
0100
0000
1000
0001
0010
0000
0101
0000
0000
0000
0010
0100
1000
0000
,
0100
0010
0001
0000
0100
0010
1000
0000
0101
0000
0000
0000
1000
0100
0010
0000
,
0001
0010
0100
0000
0001
0100
0010
0000
1100
0000
0001
0000
0110
0000
1000
0000
,
0101
0010
0101
0010
1100
0001
0110
0001
,
1100
0010
0101
1000
0101
0010
1100
0001
,
1100
0000
0010
0000
0101
0000
1000
0000
0011
0000
1000
0000
0110
0000
0010
0100
,
1000
0011
0110
1010
0101
1000
0110
0001
,
1100
0010
0101
1000
0110
0001
1010
0001
,
1010
0100
0011
1000
0101
0010
1100
0001
,
1100
0000
0001
0000
0110
0000
1000
0000
0101
0000
0010
0000
0010
0100
0010
0000
,
1100
0000
0000
0011
0110
0000
1100
0000
0101
0000
0100
0000
1100
0000
1000
0000
,
1010
0010
0110
0100
1100
1000
1001
0001
,
0101
0100
1100
1000
1001
0001
0011
0010
,
0110
0000
0100
0000
0101
0000
0001
0000
0101
0000
0100
0000
0101
0000
1000
0100
,
1000
0110
0011
1100
0011
0000
1010
0000
,
0110
1010
0101
0011
,
1010
0000
0000
0000
0110
0000
0000
0000
1000
0100
1000
0000
1000
0010
1000
0000
,
1000
0001
1000
0000
0100
0001
0100
0000
0000
0000
0000
0000
1100
0000
0000
0000
,
1100
0110
0110
0011
,
0011
0101
0101
1010
,
1010
1100
1100
0101
,
0001
1000
0001
0000
0011
0000
1010
0000
,
1010
0101
0101
0011
,
0011
0110
0110
1100
,
1100
0000
0010
1000
0010
1000
0010
0000
,
0011
0000
0100
0001
0100
0001
0100
0000
,
0101
0110
0101
0011
,
0011
1100
1100
0110
,
0110
1001
1001
0110
,
0110
0000
0001
0010
0100
1000
0001
0100
,
0010
0000
1000
0000
0100
0000
0010
0000
0001
0000
1000
0000
0010
0000
0100
0010
,
0001
1000
0001
0100
0001
0010
0100
1000
,
0100
0010
0001
0100
0010
1000
0000
0000
;

//---------------dance-single - Copied from----------------
#NOTES:
     dance-single:
     Copied from:
     Challenge:
     15:
     1.000,1.000,1.000,0.000,1.000,804.000,371.000,0.000,0.000,0.000:
0000
0000
0000
0000
,
0000
0000
0000
0000
,
0000
0000
0000
0000
1001
0000
0000
0010
1100
0000
0000
0000
1100
0000
0000
0000
,
0110
0110
0011
0011
,
0110
0110
1010
1010
,
0101
0000
0101
0000
0110
0000
0110
0011
,
0110
1010
0011
0011
,
0110
0110
1100
1100
,
0101
0101
1010
1010
,
0011
1100
0011
1100
0011
0000
0011
0000
,
1010
0101
1010
0101
1010
0000
0110
0000
,
1100
1100
0011
0011
,
1010
1010
0101
0101
,
0110
0110
1100
1100
,
0011
1100
0011
1010
0011
1100
0011
1010
,
0011
0000
1100
0000
0011
0000
1010
0000
0011
0000
1100
0110
0011
0000
1010
0000
,
0011
1100
0011
1010
0011
1100
0011
1010
,
0011
0000
1100
0000
0011
0000
0000
0000
1100
0000
0010
0000
0001
0000
1000
0100
,
0010
0000
0001
0000
1000
0000
0100
0000
0010
0000
0001
0000
1000
0000
0100
0010
,
0001
0000
1000
0000
0100
0000
0010
0000
0101
0000
1000
0000
0010
0000
0100
0001
,
1000
0000
0010
0000
0100
0000
0001
0000
1000
0000
0010
0000
0100
0000
0001
1000
,
0010
0000
0100
0000
0001
0000
1000
0000
0011
0000
0000
0000
0001
0100
0001
0000
,
1000
0010
1000
0000
0001
0010
0100
0000
1000
0100
0010
0000
0001
0010
0001
0000
,
1000
0100
1000
0000
0100
0010
0100
0000
1010
0000
0000
0000
0100
0010
0100
0000
,
1000
0100
1000
0000
0001
0010
0001
0000
0110
0000
0000
0000
0110
0000
0000
0000
,
0100
0001
0010
0100
1000
0100
0010
0100
,
1000
0000
0010
0000
0100
0000
0010
0000
1100
0000
0001
0000
0110
1000
0001
0100
,
0110
1000
0010
0000
0101
0010
1000
0000
0110
1000
0001
0000
1010
0001
0100
1000
,
1010
0001
0100
0000
0011
0100
1000
0000
0110
1000
0001
0000
1010
0001
0100
0010
,
0110
1000
0001
0000
0110
0001
1000
0000
0101
1000
0010
0000
0101
0010
1000
0100
,
0110
0001
1100
0000
0011
0100
1010
0000
0101
1000
0010
0000
1100
0010
0001
0100
,
0110
0001
1000
0000
0011
0100
1000
0000
0110
0001
1000
0000
0101
0010
1000
0010
,
0110
0001
1000
0000
0110
1000
0001
0000
1100
0010
0001
0000
0110
0001
1000
0100
,
0110
0001
1000
0000
0101
1000
0010
0000
1100
0010
0001
0000
1100
0011
1100
0000
,
0101
1000
0010
0101
0110
1000
0101
0000
1010
0100
0001
0000
1100
0001
0010
0100
,
0101
0010
1000
0000
0110
1000
0001
0000
0110
0001
1000
0000
0101
0010
1000
0001
,
0101
1000
0010
0000
1100
0010
0001
0000
0110
0001
1000
0000
0101
1000
0010
0100
,
1100
0010
0001
0000
0110
0001
1000
0000
0011
0100
1000
0000
0101
1000
0011
1100
,
0011
1000
0110
0000
1001
0100
0011
0000
0110
0001
1000
0000
0011
1000
0100
1000
,
1010
0001
0100
0000
1001
0100
0010
0000
1001
0010
0100
0000
1010
0100
0001
0010
,
0110
1000
0001
0000
1100
0001
0010
0000
0101
0010
1000
0000
0110
1000
0001
0100
,
0110
0000
0001
0000
1000
0000
0000
0000
0110
0000
1000
0000
0001
0000
0000
0000
1000
0000
0100
0000
0010
0000
0100
0010
1000
0000
0100
0000
0010
0000
0100
0000
,
1001
0010
0100
0000
0011
1000
0100
0001
1001
0100
0010
0000
0101
0010
1000
0000
,
0101
1000
0010
0000
1100
0010
0001
0010
0110
0001
1000
0000
0011
1000
0100
0000
,
0011
0100
1000
0000
0101
1000
0010
0100
1100
0010
0001
0000
1100
0001
0010
0000
,
0101
0010
1000
0000
0011
1000
0010
0100
1100
0010
0101
0000
0110
0001
1010
0000
,
1010
0100
0001
0000
0110
0001
1000
0010
0110
1000
0001
0000
1010
0001
0100
0000
,
1010
0100
0001
0000
1100
0010
0001
0010
0110
1000
0001
0000
1010
0100
0001
0000
,
0110
0001
1000
0000
0110
1000
0001
0100
0110
0001
1000
0000
0101
0010
1000
0000
,
0110
1000
0110
0000
0110
0110
0110
0000
1100
0001
1000
0110
0011
1000
0110
0000
,
1100
0010
0100
0000
0011
0100
0001
0000
1100
0010
1000
0000
0101
1000
0001
0000
,
0110
0000
0000
0000
0101
0010
0001
0000
1010
0100
1000
0000
0101
1000
0001
0000
,
0110
0000
0000
0000
0110
0001
0100
0000
1010
0001
1000
0000
0110
0001
0010
0000
,
0100
0000
0010
0000
0100
0000
0010
0100
0001
0000
0010
0000
0100
0000
0010
0000
1100
0000
0000
0000
0000
0000
0000
0000
0011
0000
0100
0000
1000
0000
0000
0000
,
0101
0010
0100
0000
1010
0001
0010
0000
0101
0000
0000
0000
0011
0100
1000
0000
,
1100
0010
0001
0000
0101
0010
1000
0000
0101
0000
0000
0000
1001
0100
0010
0000
,
0101
0010
0100
0000
1001
0100
0010
0000
1100
0010
0001
0000
0110
0001
1000
0000
,
0101
1000
0010
0000
0101
1000
0010
0000
1100
0010
0001
0000
0110
1000
0001
0000
,
1100
0001
0010
0000
0101
0010
1000
0000
0101
1000
0010
0000
1100
0010
0001
0000
,
1100
0001
0010
0000
0101
0010
1000
0000
0011
0100
1000
0000
0110
0001
1010
0101
,
1010
0001
1000
0000
0110
0001
1010
0000
0101
0010
1000
0000
0110
1000
0001
0000
,
1100
0001
0010
0000
0101
0010
1000
0000
0110
1000
0001
0000
1010
0100
0001
0000
,
1010
0001
0100
0000
0011
0100
1000
0000
0101
1000
0010
0000
1100
0010
0001
0000
,
1100
0010
0001
0000
0110
0001
1000
0000
0110
1000
0110
0000
0110
0110
0110
0000
,
1100
0010
0100
0011
0110
0001
1100
0000
0101
0010
0100
0000
1100
0001
1000
0000
,
1010
0100
0010
0000
0110
0001
0100
0000
1100
0010
1000
0000
1001
0100
0001
0000
,
0101
0010
0100
0000
1100
0010
1000
0000
1001
0100
0001
0000
0011
1000
0010
0000
,
0110
1000
0100
0000
0101
0010
0001
0000
0101
0010
0100
0000
0101
0010
1001
0110
,
1001
0010
1100
0000
0011
0100
1010
0000
0011
0100
0001
0000
1010
0100
1000
0000
,
0110
0001
0100
0000
1010
0100
1000
0000
0101
0010
0100
0000
0011
0100
0001
0000
,
1010
0100
0001
0000
0110
0001
0010
0000
1001
0100
1000
0000
1001
0010
1000
0000
,
1001
0001
1000
0000
1001
0001
0100
0000
0000
0000
0000
0000
1100
0000
0000
0000
,
1100
0110
0110
0011
,
0011
0101
0101
1010
,
1010
1100
1100
0101
,
0011
0110
0011
0000
0011
0000
1010
0000
,
1010
0101
0101
0011
,
0011
0110
0110
1100
,
1100
0000
1010
0101
1010
0101
1010
0000
,
0011
0000
1100
0011
1100
0011
1100
0000
,
0101
0110
0101
0011
,
0011
1100
1100
0110
,
0110
1001
1001
0110
,
0110
0000
1010
0101
1010
0110
1010
0101
,
1010
0000
0011
0000
1010
0000
0101
0000
1010
0000
0110
0000
1010
0000
0101
0110
,
1010
0011
1010
0101
1010
0110
1010
0101
,
1010
0011
1010
0101
1010
0110
0000
0000
;
