#TITLE:Today in Class 5-3;
#SUBTITLE:(Kyou no 5 no 3);
#ARTIST:DJ Sharpnel;
#TITLETRANSLIT:;
#SUBTITLETRANSLIT:;
#ARTISTTRANSLIT:;
#CREDIT:;
#BANNER:today in class 5-3 bn.png;
#BACKGROUND:today in class 5-3 bg.png;
#LYRICSPATH:;
#CDTITLE:;
#MUSIC:Today in Class 5-3.ogg;
#OFFSET:-0.474;
#SAMPLESTART:223.365;
#SAMPLELENGTH:13.520;
#SELECTABLE:YES;
#DISPLAYBPM:142.000;
#BPMS:0.000=142.003,527.000=-142.003,535.000=142.003;
#STOPS:;
#BGCHANGES:;
// cache tags:
#FIRSTBEAT:10.000;
#LASTBEAT:776.250;
#SONGFILENAME:Songs/SHARPNELSTREAMZ v2/Today in Class 5-3/Today in Class 5-3.sm;
#HASMUSIC:1;
#HASBANNER:1;
#MUSICLENGTH:325.564;
// end cache tags

//---------------dance-single - 13 (CTalon)----------------
#NOTES:
     dance-single:
     13 (CTalon):
     Challenge:
     13:
     1.000,1.000,0.095,0.046,1.000,2236.000,31.000,15.000,80.000,0.000:
0000
0000
0000
0000
,
0000
0000
0000
0000
,
0000
0000
0000
0000
0000
0000
0000
0000
0000
0000
0000
0000
0000
0000
0000
0000
M000
0M00
00M0
000M
M000
0M00
00M0
000M
M000
0000
0000
0000
0000
0000
0000
0000
,
0001
0100
0001
1000
0100
0010
0001
0100
0001
1000
0100
0010
0001
0100
0001
1000
,
0001
0010
0100
0010
0001
0100
0010
1000
0001
0010
0001
0100
0010
0100
0001
0010
,
0001
0100
0001
1000
0100
0010
0001
0100
0001
1000
0100
0010
0001
0100
0001
1000
,
0001
0010
0100
0010
0001
0100
0010
1000
0001
0010
0001
0100
0010
0100
0001
0010
,
0001
0010
0001
1000
0010
0100
0001
0010
0001
1000
0010
0100
0001
0010
0001
1000
,
0001
0100
0010
0100
0001
0010
0100
1000
0001
0100
0001
0010
0100
0010
0001
0100
,
0001
0010
0001
1000
0010
0100
0001
0010
0001
1000
0010
0100
0001
0010
0001
1000
,
0001
0100
0010
0100
0001
0010
0100
1000
0002
0000
0003
0000
2002
0000
3003
0000
,
1000
0010
1000
0001
0010
0100
1000
0010
1000
0001
0010
0100
1000
0010
1000
0001
,
1000
0000
0100
0000
0010
0000
0100
0000
1000
0000
0010
0000
0100
0000
0001
0000
1000
0001
1000
0001
1000
0000
0010
0000
0100
0000
0010
0000
1000
0000
0100
0000
,
1000
0010
1000
0001
0010
0100
1000
0010
1000
0001
0010
0100
1000
0010
1000
0001
,
1000
0000
0100
0000
0010
0000
0100
0000
1000
0000
0010
0000
0100
0000
0001
0000
1000
0001
1000
0001
1000
0000
0010
0000
0100
0000
0010
0000
1000
0000
0100
0000
,
1000
0100
1000
0001
0100
0010
1000
0100
1000
0001
0100
0010
1000
0100
1000
0001
,
1000
0000
0010
0000
0100
0000
0010
0000
1000
0000
0100
0000
0010
0000
0001
0000
1000
0001
1000
0001
1000
0000
0100
0000
0010
0000
0100
0000
1000
0000
0010
0000
,
1000
0000
0100
0000
1000
0000
0001
0000
0100
0000
0010
0000
1000
0000
0100
0000
1000
0001
1000
0001
1000
0000
0010
0000
1000
0000
0100
0000
1000
0000
0001
0000
,
1000
0010
0100
0010
1000
0100
0010
0001
1000
0001
1000
0001
1000
0001
1000
0001
,
1000
0010
1000
0001
0010
0100
1000
0010
1000
0001
0010
0100
1000
0010
1000
0001
,
1000
0100
0010
0100
1000
0010
0100
0001
1000
0100
1000
0010
0100
0010
1000
0100
,
1000
0010
1000
0001
0010
0100
1000
0010
1000
0001
0010
0100
1000
0010
1000
0001
,
1000
0100
0010
0100
1000
0010
0100
0001
1000
0100
1000
0010
0100
0010
1000
0100
,
1000
0100
1000
0001
0100
0010
1000
0100
1000
0001
0100
0010
1000
0100
1000
0001
,
1000
0010
0100
0010
1000
0100
0010
0001
1000
0010
1000
0100
0010
0100
1000
0010
,
1000
0100
1000
0001
0100
0010
1000
0100
1000
0001
0100
0010
1000
0100
1000
0001
,
1000
0010
0100
0010
1000
0100
0010
0001
2000
0000
3000
0000
2002
0000
3003
0000
,
0001
0100
0001
1000
0100
0010
0001
0100
0001
1000
0100
0010
0001
0100
0001
1000
,
0001
0000
0010
0000
0100
0000
0010
0000
0001
0000
0100
0000
0010
0000
1000
0000
0001
1000
0001
1000
0001
0000
0100
0000
0010
0000
0100
0000
0001
0000
0010
0000
,
0001
0100
0001
1000
0100
0010
0001
0100
0001
1000
0100
0010
0001
0100
0001
1000
,
0001
0000
0010
0000
0100
0000
0010
0000
0001
0000
0100
0000
0010
0000
1000
0000
0001
1000
0001
1000
0001
0000
0100
0000
0010
0000
0100
0000
0001
0000
0010
0000
,
0001
0010
0001
1000
0010
0100
0001
0010
0001
1000
0010
0100
0001
0010
0001
1000
,
0001
0000
0100
0000
0010
0000
0100
0000
0001
0000
0010
0000
0100
0000
1000
0000
0001
1000
0001
1000
0001
0000
0010
0000
0100
0000
0010
0000
0001
0000
0100
0000
,
0001
0000
0010
0000
0001
0000
1000
0000
0010
0000
0100
0000
0001
0000
0010
0000
0001
1000
0001
1000
0001
0000
0100
0000
0001
0000
0010
0000
0001
0000
1000
0000
,
0001
0100
0010
0100
0001
0010
0100
1000
0M01
1000
0M01
1000
0M02
0000
0000
0000
,
1003
0000
0000
00M0
0100
0000
0000
0000
0010
0000
0000
0000
0001
0000
0000
0000
,
0010
0001
1000
0010
,
0100
0001
1000
0100
,
0010
0000
0001
0000
1000
0000
0010
0010
,
0100
0000
0001
1000
0001
0000
1000
0100
0000
0010
0001
1000
0000
0010
0100
0001
,
1000
0000
0010
0100
0001
0000
1000
0100
0000
0010
0001
0010
0000
0001
1000
0010
,
0100
0000
0001
1000
0100
0000
0010
0001
0000
0010
0001
1000
0000
0010
0100
0001
,
1000
0000
0000
1000
00M0
0000
10M0
0000
00M1
0100
0010
0000
M10M
0000
0001
0000
,
1000
0100
1000
0100
1000
0000
0000
0000
0001
0000
0000
0000
1000
0000
0000
0000
0010
0000
0000
0000
0000
0000
0000
0000
0100
0000
0000
0000
0000
0000
0000
0000
,
0001
0000
0010
0000
0100
0000
1000
0000
0001
0000
0000
0000
0100
0000
0000
0000
0001
1000
0001
1000
0001
0000
0100
0000
0010
0000
0100
0000
0001
0000
0000
0000
,
1000
0010
1000
0010
1000
0000
0000
0000
0100
0000
0000
0000
0010
0000
0000
0000
0001
0000
0000
0000
0000
0000
0000
0000
1000
0000
0000
0000
0000
0000
0000
0000
,
0010
0000
0100
0000
0001
0000
0100
0000
0001
0000
0000
0000
1000
0000
0000
0000
0100
1000
0100
1000
0100
0000
1000
0000
0001
0000
0100
0000
0010
0000
0000
0000
,
1000
0100
1000
0100
1000
0000
0000
0000
0001
0000
0000
0000
0100
0000
0000
0000
0010
0000
0000
0000
0000
0000
0000
0000
1000
0000
0000
0000
0000
0000
0000
0000
,
0100
0000
0010
0000
0001
0000
0100
0000
0001
0000
0000
0000
1000
0000
0000
0000
0010
0100
0010
0100
0010
0000
1000
0000
0001
0000
0100
0000
0001
0000
0000
0000
,
1000
0001
1000
0001
1000
0000
0000
0000
0100
0000
0000
0000
0010
0000
0000
0000
0001
0000
0000
0000
0000
0000
0000
0000
1000
0000
0000
0000
0000
0000
0000
0000
,
0010
0000
0100
0000
0001
0000
1000
0000
0001
0000
0000
0000
0010
0000
0000
0000
0001
1000
0001
1000
0001
0000
0100
0000
0010
0000
0100
0000
0001
0000
0000
0000
,
1000
0010
1000
0010
1000
0000
0000
0000
0001
0000
0000
0000
1000
0000
0000
0000
0100
0000
0000
0000
0000
0000
0000
0000
0010
0000
0000
0000
0000
0000
0000
0000
,
0001
0000
0100
0000
0010
0000
1000
0000
0001
0000
0000
0000
0010
0000
0000
0000
0001
1000
0001
1000
0001
0000
0010
0000
0100
0000
0010
0000
0001
0000
0000
0000
,
1000
0100
1000
0100
1000
0000
0000
0000
0010
0000
0000
0000
0100
0000
0000
0000
0001
0000
0000
0000
0000
0000
0000
0000
1000
0000
0000
0000
0000
0000
0000
0000
,
0100
0000
0010
0000
0001
0000
0010
0000
0001
0000
0000
0000
1000
0000
0000
0000
0010
1000
0010
1000
0010
0000
1000
0000
0001
0000
0010
0000
0100
0000
0000
0000
,
1000
0010
1000
0010
1000
0000
0000
0000
0001
0000
0000
0000
0010
0000
0000
0000
0100
0000
0000
0000
0000
0000
0000
0000
1000
0000
0000
0000
0000
0000
0000
0000
,
0010
0000
0100
0000
0001
0000
0010
0000
0001
0000
0000
0000
1000
0000
0000
0000
0100
0010
0100
0010
0100
0000
1000
0000
0001
0000
0010
0000
0001
0000
0000
0000
,
1000
0001
1000
0001
1000
0000
0000
0000
0010
0000
0000
0000
0100
0000
0000
0000
0001
0000
0000
0000
0000
0000
0000
0000
1000
0000
0000
0000
0000
0000
0000
0000
,
0100
0000
0010
0000
0001
0000
1000
0000
00M1
0000
0000
0000
01M0
0000
0000
0000
00M1
1000
0001
1000
0001
0000
0010
0000
M10M
0000
0010
0000
0001
0000
0000
0000
,
1000
0100
1000
0100
0010
0001
0010
0001
1000
0010
0100
0001
0000
0000
1000
0000
,
0001
0010
0100
1000
0001
0010
0100
1000
0000
0000
0001
0000
1000
0000
0010
0000
,
1000
0100
1000
0100
0010
0001
0010
0001
1000
0010
0100
0001
0000
0000
1000
0000
,
0001
0010
0100
1000
0001
0010
0100
1000
0000
0000
0001
0000
1000
0000
0010
0000
,
1000
0010
1000
0010
0100
0001
0100
0001
1000
0100
0010
0001
0000
0000
1000
0000
,
0001
0100
0010
1000
0001
0100
0010
1000
0000
0000
0001
0000
1000
0000
0100
0000
,
1000
0010
1000
0010
0100
0001
0100
0001
1000
0100
0010
0001
0000
0000
1000
0000
,
0001
0100
0010
1000
0001
0100
0010
1000
0000
0000
0001
0000
1000
0000
0100
0000
,
1000
0100
1000
0010
0100
0001
0010
0001
0100
0010
0100
0001
0000
0000
1000
0000
,
0001
0010
0100
1000
0010
0100
0010
1000
0000
0000
0010
0000
0100
0000
0001
0000
,
1000
0100
1000
0010
0100
0001
0010
0001
0100
0010
0100
0001
0000
0000
1000
0000
,
0001
0010
0100
1000
0010
0100
0010
1000
0000
0000
0010
0000
0100
0000
0001
0000
,
1000
0010
1000
0100
0010
0001
0100
0001
0010
0100
0010
0001
0000
0000
1000
0000
,
0001
0100
0010
1000
0100
0010
0100
1000
0000
0000
0100
0000
0010
0000
0001
0000
,
1000
0010
1000
0100
0010
0001
0100
0001
0010
0100
0010
0001
0000
0000
1000
0000
,
0001
0100
0010
1000
010M
0010
010M
1000
000M
0000
0100
0000
M01M
0000
0001
0000
,
1000
0100
1000
0001
0100
0010
0100
0001
1000
0100
0010
0001
0010
0100
1000
0000
,
0001
0100
0010
0100
0001
1000
0100
0010
0001
1000
0100
1000
0010
0000
0100
0000
,
0001
0010
0001
0010
0100
1000
0100
1000
0001
0100
0010
1000
0000
0000
0001
0000
,
1000
0100
0010
0001
1000
0100
0010
0001
0000
0000
1000
0000
0001
0000
0100
0000
,
0001
0010
0001
1000
0010
0100
0010
1000
0001
0010
0100
1000
0100
0010
0001
0000
,
1000
0010
0100
0010
1000
0001
0010
0100
1000
0001
0010
0001
0100
0000
0010
0000
,
1000
0100
1000
0100
0010
0001
0010
0001
1000
0010
0100
0001
0000
0000
1000
0000
,
0001
0010
0100
1000
0001
0010
0100
1000
0000
0000
0001
0000
1000
0000
0010
0000
,
1000
0001
0010
0100
1000
0010
0100
0010
1000
0100
0010
0100
0010
0001
1000
0000
,
0010
0100
0001
0100
0010
1000
0100
1000
0010
0100
0001
1000
0001
0000
0100
0000
,
0001
0010
0001
0100
0010
1000
0100
1000
0010
0100
0010
1000
0000
0000
0001
0000
,
1000
0100
0010
0001
0100
0010
0100
0001
0000
0000
0100
0000
0010
0000
1000
0000
,
0001
1000
0100
0010
0001
0100
0010
0100
0001
0010
0100
0010
0100
1000
0001
0000
,
0100
0010
1000
0010
0100
0001
0010
0001
0100
0010
1000
0001
1000
0000
0010
0000
,
1000
0100
1000
0010
0100
0001
0010
0001
0100
0010
0100
0001
0000
0000
1000
0000
,
0001
0010
0100
1000
0010
0100
0010
1000
0000
0000
0010
0000
0100
0000
0001
0000
,
1000
0000
1010
0100
0000
0000
0101
0000
,
0001
0000
0011
1000
0000
0100
0110
0010
,
0001
0000
1001
0000
0010
0000
0101
0001
,
0000
0000
1100
0000
0000
0001
0011
0010
,
0001
0000
1100
0000
0010
0000
1010
1000
,
0000
0000
1001
0000
0000
0100
0110
0010
,
0100
0000
1010
0000
1000
0000
0101
0001
,
0000
0000
1000
0000
0000
0000
0010
0100
0001
0000
0000
0000
1000
0001
1000
0001
,
0100
0000
1010
1000
0000
0000
1001
0000
,
0010
0000
1100
0001
0000
0010
0110
0100
,
1000
0000
1001
0000
0001
0000
0101
0100
,
0000
0000
1010
0000
0000
1000
1001
0001
,
0010
0000
1100
0000
0010
0000
1100
1000
,
0000
1001
0000
1010
,
0100
0000
0101
0001
1000
0010
1010
1000
,
0000
0000
0000
0000
0011
0000
0010
0000
0001
0000
0100
0000
0001
1000
0001
1000
,
0M10
0000
0100
0000
0001
1000
0001
0000
1000
0000
0010
0000
0100
0000
0001
1000
,
0M01
0000
0010
0000
0001
0010
0100
0000
0010
0000
0001
0000
1000
0000
0010
1000
,
0M01
0000
1000
0000
0100
0010
0001
0000
0010
0000
0100
0000
0010
0000
0001
1000
,
0M10
0000
0100
0000
0010
0000
1000
0000
0100
0000
0010
0000
0001
1000
0001
0000
,
1M00
0000
0001
0000
0010
0000
0100
0000
0010
0000
0001
0000
1000
0000
0000
0000
0000
0000
0010
0000
0000
0000
0000
0000
0000
0000
0000
0010
0000
0000
0000
0000
0000
0000
0000
0000
1000
0000
0000
0000
0000
0000
0001
0000
0000
0000
0000
0000
,
0001
0000
0000
0001
1000
0000
0001
0000
0000
0001
0000
1000
0100
0000
1000
0000
,
0001
0000
0100
0000
0001
0000
1000
0000
0010
0000
1000
0000
0001
0000
0000
0000
0000
0000
1000
0000
0000
0000
0000
0000
0000
0000
0000
1000
0000
0000
0000
0000
0000
0000
0000
0000
0001
0000
0000
0000
0000
0000
0100
0000
0000
0000
0000
0000
,
0010
0000
0000
0010
1000
0000
0010
0000
0000
0010
0000
1000
0001
0000
0010
0000
,
0001
0000
0010
0000
0100
0000
1000
0000
0100
0000
1000
0000
0001
0000
0000
0000
0000
0000
1000
0000
0000
0000
0000
0000
0000
0000
0000
1000
0000
0000
0000
0000
0000
0000
0000
0000
0010
0000
0000
0000
0000
0000
0100
0000
0000
0000
0000
0000
,
0001
0000
0000
0001
0010
0000
0001
0000
0000
0001
0000
0010
0100
0000
0010
0000
,
0100
0000
1000
0000
0001
0000
0100
0000
0001
0000
1000
0000
0100
0000
0000
0000
0000
0000
0010
0000
0000
0000
0000
0000
0000
0000
0000
0010
0000
0000
0000
0000
0000
0000
0000
0000
0100
0000
0000
0000
0000
0000
1000
0000
0000
0000
0000
0000
,
0100
0000
0000
0100
0010
0000
0100
0000
0000
0100
0000
0010
0001
0000
1000
0000
,
0001
0000
0000
0001
1000
0000
0001
0000
0001
0000
0000
0001
1000
0000
0001
0000
,
0100
0000
0000
0100
0010
0000
0100
0000
0100
0000
0000
0100
0010
0000
0100
0000
,
0010
0000
0000
0010
1000
0000
0010
0000
0010
0000
0000
0010
1000
0000
0010
0000
,
1000
0000
0000
1000
0001
0000
1000
0000
1000
0000
0000
1000
0001
0000
1000
0000
,
0002
0013
0200
0310
0002
1003
0020
0130
,
0002
0013
0002
0103
0020
1030
0200
1300
,
0001
0001
1000
1000
0100
0100
0010
0010
,
0100
0100
1000
1000
0001
0001
0100
0100
,
0010
1000
0001
1000
0100
0010
0001
1000
0010
0100
0010
1000
0001
0010
0100
0010
,
0001
1000
0100
1000
0001
0100
0001
0100
0010
1000
0001
0100
0001
1000
0100
1000
,
0004
0003
0040
0030
0400
0300
4000
3000
0040
0030
0400
0300
0004
0003
0040
0030
0004
0003
0400
0300
0040
0030
4000
3000
0400
0300
0040
0030
0400
0300
4000
3000
,
0001
0000
0000
0000
,
0000
0000
0M00
0M00
0M00
0000
M00M
0000
,
000M
00M0
0M00
M000
00M0
M000
0M00
00M0
000M
M000
00M0
0M00
00M0
M000
0M00
00M0
,
000M
M000
00M0
M000
0M00
00M0
000M
0M00
000M
M000
0M00
M000
00M0
0M00
00M0
M000
,
0000
0000
0000
0000
,
0000
0000
0000
M00M
,
0001
0010
0100
1000
0010
1000
0100
0010
0001
1000
0010
0100
0010
1000
0100
0010
,
0001
1000
0010
1000
0100
0010
0001
0100
0001
1000
0100
1000
0010
0100
0010
1000
,
0001
0010
0100
1000
0001
0010
0100
1000
0010
0100
0001
1000
0010
0100
0001
0010
,
0001
1000
0100
1000
0010
0100
0001
0010
0001
0010
0100
1000
0010
0100
0001
0010
,
0001
0010
0100
1000
0010
1000
0100
0010
0001
1000
0010
0100
0010
1000
0100
0010
,
0001
1000
0010
1000
0100
0010
0001
0100
0001
1000
0100
1000
0010
0100
0010
1000
,
0001
0010
0100
1000
0001
0010
0100
1000
0010
0100
0001
1000
0010
0100
0001
0010
,
0001
1000
0100
1000
0010
0100
0001
0010
0001
0010
0100
1000
0010
0100
0001
0010
,
0001
0100
0010
1000
0100
1000
0010
0100
0001
1000
0100
0010
0100
1000
0010
0100
,
0001
1000
0100
1000
0010
0100
0001
0010
0001
1000
0010
1000
0100
0010
0100
1000
,
0001
0100
0010
1000
0001
0100
0010
1000
0100
0010
0001
1000
0100
0010
0001
0100
,
0001
1000
0010
1000
0100
0010
0001
0100
0001
0100
0010
1000
0100
0010
0001
0100
,
0001
0100
0010
1000
0100
1000
0010
0100
0001
1000
0100
0010
0100
1000
0010
0100
,
0001
1000
0100
1000
0010
0100
0001
0010
0001
1000
0010
1000
0100
0010
0100
1000
,
0001
0100
0010
1000
0001
0100
0010
1000
0100
0010
0001
1000
0100
0010
0001
0100
,
0001
0010
0100
1000
0010
0100
0010
1000
0100
0010
0001
0100
0010
1000
0100
0010
,
0001
0000
1000
0010
0100
0001
0100
0001
0000
1000
0000
0100
0000
0010
0001
0000
,
1000
1000
1000
1000
,
1000
0100
0010
0001
0100
0001
0010
0100
1000
0100
0010
0001
0100
0001
0010
0100
,
1000
0010
0100
0001
0010
0001
0100
0010
1000
0010
0100
0001
0010
0001
0100
0010
,
1000
0100
0010
0001
0100
0010
0100
0001
0010
0100
1000
0010
0100
0010
1000
0100
,
1000
0010
0100
0001
0010
0100
0010
0001
0100
0010
1000
0100
0010
0100
1000
0010
,
1000
0100
0010
0001
0100
0001
0010
0100
1000
0100
0010
0001
0100
0001
0010
0100
,
1000
0010
0100
0001
0010
0001
0100
0010
1000
0010
0100
0001
0010
0001
0100
0010
,
1000
0100
0010
0001
0100
0010
0100
0001
0010
0100
1000
0010
0100
0010
1000
0100
,
1000
0010
0100
0001
0010
0100
0010
0001
0100
0010
1000
0100
0010
0100
1000
0010
,
1000
0100
1000
0010
0100
0001
0010
0001
1000
0100
1000
0010
0100
0001
0010
0001
,
1000
0010
1000
0100
0010
0001
0100
0001
1000
0010
1000
0100
0010
0001
0100
0001
,
1000
0100
1000
0010
0100
0010
1000
0100
0010
0001
0100
0010
0100
0001
0010
0100
,
1000
0010
1000
0100
0010
0100
1000
0010
0100
0001
0010
0100
0010
0001
0100
0010
,
1000
0100
1000
0010
0100
0001
0010
0001
1000
0100
1000
0010
0100
0001
0010
0001
,
1000
0010
1000
0100
0010
0001
0100
0001
1000
0010
1000
0100
0010
0001
0100
0001
,
1000
0100
1000
0010
0100
0010
1000
0100
0010
0001
0100
0010
0100
0001
0010
0100
,
1000
1000
100M
100M
100M
1000
10MM
1000
,
0001
0010
0001
0010
0100
1000
0100
1000
0001
0100
0010
1000
0000
0000
0001
0000
,
1000
0100
0010
0001
1000
0100
0010
0001
0000
0000
1000
0000
0001
0000
0100
0000
,
0001
0010
0001
0010
0100
1000
0100
1000
0001
0100
0010
1000
0000
0000
0001
0000
,
1000
0100
0010
0001
1000
0100
0010
0001
0000
0000
1000
0000
0001
0000
0100
0000
,
0001
0100
0001
0100
0010
1000
0010
1000
0001
0010
0100
1000
0000
0000
0001
0000
,
1000
0010
0100
0001
1000
0010
0100
0001
0000
0000
1000
0000
0001
0000
0010
0000
,
0001
0100
0001
0100
0010
1000
0010
1000
0001
0010
0100
1000
0000
0000
0001
0000
,
1000
0010
0100
0001
1000
0010
0100
0001
0000
0000
1000
0000
0001
0000
0010
0000
,
0001
0010
0001
0100
0010
1000
0100
1000
0010
0100
0010
1000
0000
0000
0001
0000
,
1000
0100
0010
0001
0100
0010
0100
0001
0000
0000
0100
0000
0010
0000
1000
0000
,
0001
0010
0001
0100
0010
1000
0100
1000
0010
0100
0010
1000
0000
0000
0001
0000
,
1000
0100
0010
0001
0100
0010
0100
0001
0000
0000
0100
0000
0010
0000
1000
0000
,
0001
0100
0001
0010
0100
1000
0010
1000
0100
0010
0100
1000
0000
0000
0001
0000
,
1000
0010
0100
0001
0010
0100
0010
0001
0000
0000
0010
0000
0100
0000
1000
0000
,
0001
0100
0001
0010
0100
1000
0010
1000
0100
0010
0100
1000
0000
0000
0001
0000
,
1000
0010
0100
0001
0010
0100
0010
0001
0000
0000
0010
0000
010M
0000
1000
0000
,
0001
0000
0100
0000
0010
0000
1000
0000
0100
0000
0010
0001
0000
0000
1000
0000
,
0010
0000
0100
0000
0001
0000
1000
0100
0000
0000
1000
0000
0010
0000
0000
0000
,
1000
0000
0001
0000
0100
0000
0001
0000
1000
0000
0100
0010
0000
0000
0100
0000
,
1000
0000
0001
0000
0100
0000
0001
0010
0000
0000
0001
0000
0100
0000
0000
0000
,
0010
0000
1000
0000
0100
0000
0010
0000
0001
0000
1000
0001
0000
0000
0100
0000
,
0010
0000
1000
0000
0001
0000
1000
0010
0000
0000
0100
0000
0001
0000
0000
0000
,
1000
0000
0100
0000
0010
0000
0001
0000
1000
0000
0001
0100
0000
0000
0010
0000
,
1000
0000
0100
0000
0010
0000
0100
1000
0000
0000
0001
0000
0100
0000
0010
M000
,
0000
000M
0000
0000
0000
0000
0000
0000
0000
0000
0000
0000
0000
0000
0000
0000
;
