#TITLE:Funky sonic World;
#SUBTITLE:;
#ARTIST:Des-ROW feat.SHIGE;
#TITLETRANSLIT:;
#SUBTITLETRANSLIT:;
#ARTISTTRANSLIT:;
#CREDIT:;
#BANNER:Funky sonic World.png;
#BACKGROUND:Funky sonic World-bg.png;
#LYRICSPATH:;
#CDTITLE:/CDTITLES/GUITAR FREAKS & DRUMMANIA.PNG;
#MUSIC:Funky sonic World.mp3;
#OFFSET:-2.493;
#SAMPLESTART:38.400;
#SAMPLELENGTH:10.500;
#SELECTABLE:YES;
#BPMS:0.000=199.999,80.000=99.999,92.000=199.999,220.000=99.999,232.000=199.999;
#STOPS:;
#BGCHANGES:;
// cache tags:
#FIRSTBEAT:8.000;
#LASTBEAT:322.000;
#SONGFILENAME:Songs/other/Funky sonic World/Funky sonic World.sm;
#HASMUSIC:1;
#HASBANNER:1;
#MUSICLENGTH:105.857;
// end cache tags

//---------------dance-single - ----------------
#NOTES:
     dance-single:
     :
     Hard:
     9:
     0.776,0.722,0.208,0.085,0.019,544.000,22.000,9.000,0.000,0.000:
0000
0000
0000
0000
,
0000
0000
0000
0000
,
0000
0000
0000
0000
,
0000
0000
0000
0000
,
1000
0100
1000
0100
0001
0100
0001
0100
,
0010
1000
0001
0100
0010
1000
0100
0001
,
0010
0100
0010
0100
1000
0100
0001
0100
,
1000
0100
0010
0100
1000
0001
0010
0100
,
0010
1001
0100
1001
,
1000
1100
0001
0101
,
0010
0100
0010
0000
0100
0010
0100
0000
,
1000
0100
0001
0100
1000
0100
0001
0000
,
1000
0001
0100
0001
1000
0001
0100
0001
,
0010
0100
1000
0100
0010
0001
0010
0100
,
0010
0100
1000
0100
0001
0010
0100
1000
,
0010
0100
1000
0001
0010
0010
0100
0100
,
1001
1000
0010
0100
0001
0010
0100
1000
,
0100
0001
0100
1000
0010
0001
0010
0100
,
1000
0100
0001
1000
0010
0100
0001
0010
,
0100
1000
0001
0001
1000
1000
0010
0010
,
1001
0000
0000
0000
0010
0000
0000
0000
0100
0000
0000
0000
0001
0000
0000
0001
,
1000
0000
0000
0000
0010
0000
0000
0000
0110
0000
0000
0000
0100
0000
0000
0100
,
1000
0001
1001
1000
,
1000
0100
1000
0100
0001
0100
0001
0100
,
1000
0010
0100
0001
0010
0100
1000
0010
,
0100
0010
0100
0001
0100
1000
0100
0010
,
0002
0103
2000
3100
,
0010
0100
0010
0001
0010
0100
0010
1000
,
0100
0001
0100
1000
0010
0001
0010
0100
,
1000
0100
0010
0100
1000
0100
0001
0100
,
0010
1000
0001
0100
0010
0010
0100
0100
,
1000
0001
0010
0001
0100
1000
0100
0010
,
0100
0001
0010
0001
0100
1000
0100
0001
,
0010
0100
0010
0001
1000
0100
0010
0100
,
1000
0001
0010
0100
1000
0000
1001
0000
,
0010
0001
0010
0001
1000
0100
1000
0100
,
0010
0100
1000
0001
0100
1000
0010
0100
,
0010
0001
0100
1000
0100
0010
0100
0010
,
0001
0010
0001
0100
1000
0010
0100
0001
,
1001
0100
1000
0001
0100
0001
1000
0010
,
0110
0001
0100
1000
0100
0001
0010
0100
,
0110
0000
0110
0220
0000
0000
0000
0000
,
0000
0000
0000
0330
0000
0000
0000
0000
,
1000
1000
0100
0100
0001
0001
0100
0100
,
1000
0010
0001
0100
1000
0100
0001
0100
,
0010
0010
1000
1000
0001
0001
0100
0100
,
0010
0100
0010
0100
0010
0100
0010
0000
,
1000
0001
0010
0001
0100
1000
0100
0010
,
0100
0001
0100
0010
1000
0010
0100
0001
,
0100
1000
0010
0100
0010
0001
0010
0001
,
0100
1000
0100
0010
0100
0010
0001
0100
,
1000
0010
0100
0010
0001
0100
1000
0100
,
0010
0001
0010
0100
0010
0100
1000
0001
,
0100
0010
0001
0010
0100
1000
0010
0100
,
0001
0010
0001
0100
1000
0100
0010
0100
,
0010
0000
0000
0000
1001
0000
0000
0000
0100
0000
1000
0000
0100
0000
0000
0001
,
0100
0000
0000
0000
0010
0000
1000
0000
0001
0000
0100
0000
0010
0000
0000
0010
,
0100
0000
1000
0100
0001
0100
0010
1000
,
0001
0100
0001
0100
1000
0100
1000
0100
,
0001
0010
0100
1000
0001
1000
2000
0000
,
3001
0010
0001
0100
1000
0010
1000
0100
,
0010
0100
0010
0001
0010
0100
0010
1000
,
0100
1000
0100
0001
0100
0010
0001
0010
,
0100
1000
0001
0100
0001
0010
0100
1000
,
0100
0010
0100
1000
0001
0010
0100
0010
,
0001
0100
1000
0100
0001
0010
1000
0010
,
0001
0100
0010
0001
0010
1000
0100
0010
,
0100
0010
0100
1000
0100
0010
0100
0010
,
1001
0100
1000
0100
0001
0010
0001
0010
,
0100
0010
1000
0100
0001
0100
0010
1000
,
0001
0100
0010
0001
0010
0001
1000
0100
,
0001
0100
0001
0100
1000
0010
1000
0100
,
0001
0100
1000
0100
0001
0010
1000
0010
,
0100
0010
0100
0001
0100
1000
0100
0010
,
1001
0000
1001
2002
0000
0000
0000
0000
,
0000
0000
0000
3003
0000
0000
0000
0000
,
1000
1000
0100
0100
0001
0001
0100
0100
,
0010
0100
0010
0100
1000
0001
1000
0001
,
1000
0100
1000
0100
0001
0100
0001
0100
,
1001
1001
2002
0000
,
0000
0000
3003
0000
;

//---------------dance-single - ----------------
#NOTES:
     dance-single:
     :
     Easy:
     4:
     0.382,0.570,0.179,0.151,0.005,248.000,19.000,16.000,0.000,0.000:
0000
0000
0000
0000
,
0000
0000
0000
0000
,
0010
0000
0010
0000
,
0100
0000
0100
0000
,
1001
0000
1000
0000
,
0001
0000
0001
0000
,
0010
0000
0010
0000
,
0100
0100
0100
0100
,
1000
0000
0001
0000
,
0010
0000
0100
0000
,
1000
0000
0010
0000
,
0100
0000
2002
3003
,
1000
0100
1000
0100
,
0001
0100
0001
0100
,
1000
0001
1000
0001
,
0010
0100
0010
0100
,
1000
0000
1000
0000
,
0001
0000
0001
0000
,
0010
0100
0010
0100
,
1000
0001
1000
0001
,
1000
0010
0100
0001
,
1000
0010
0100
0001
,
1000
0100
0010
0001
,
1000
1000
1000
1000
,
0001
0001
0001
0001
,
0010
0010
0010
0010
,
0100
0100
0200
0300
,
2000
0000
0000
3000
,
0000
0001
0001
0001
,
1000
1000
0100
1000
,
0100
0001
0001
0001
,
0100
0001
0100
0010
,
0100
1000
1000
1000
,
0100
1000
0100
0001
,
0100
0000
2002
3003
,
0020
0000
0000
0030
,
0000
0100
0100
0100
,
1000
0100
1000
0100
,
0001
0010
0010
0010
,
0100
0110
1000
0001
,
1001
0010
0100
1000
,
0100
0001
0001
1000
,
0010
0010
0100
0100
,
1000
1001
0001
1001
,
0010
0110
0100
0110
,
1001
1001
1001
1001
,
0020
0000
0000
0030
,
1000
0000
0100
0000
,
0010
0000
0001
0000
,
0001
0000
0010
0000
,
0100
0000
1000
0000
,
1000
0000
0001
0000
,
0100
0000
0010
0000
,
1000
0000
0100
0000
,
0001
0000
0100
0000
,
1000
1000
0001
0001
,
0010
0000
0000
0000
0010
0000
0000
0000
0100
0000
0000
0000
0100
0000
0000
0100
,
0000
1000
0100
0001
,
2000
0100
0100
3100
,
0002
0100
0103
0000
,
2000
0000
0000
3000
,
0000
0010
0100
1000
,
1000
0100
0010
0100
,
0001
0100
0010
0100
,
1000
0001
0100
0010
,
0001
0100
1000
0100
,
0010
1000
0001
0100
,
0010
0000
2002
3003
,
0200
0000
0000
0300
,
0000
0010
0010
0100
,
1000
0100
0001
0100
,
1000
0010
0010
0100
,
0110
0001
0001
1000
,
1001
0010
0010
0100
,
0010
0100
1000
0100
,
0001
0100
1000
0100
,
0010
0010
0010
0010
,
0100
0100
0100
0100
,
1000
1000
1000
1000
,
1001
1001
2002
0000
,
0000
0000
3003
0000
;

//---------------dance-single - ----------------
#NOTES:
     dance-single:
     :
     Medium:
     8:
     0.601,0.684,0.340,0.094,0.009,399.000,36.000,10.000,0.000,0.000:
0000
0000
0000
0000
,
0000
0000
0000
0000
,
0010
0100
0010
0100
,
1000
0100
0001
0100
,
0010
0001
0010
0001
,
1000
0100
1000
0100
,
0001
1000
0001
1000
,
0010
0100
0020
0030
,
1000
1000
1000
0000
0001
0000
0001
0000
,
0010
0010
0010
0000
0100
0000
0100
0000
,
1000
0100
0100
0000
0001
0100
0100
0000
,
0010
0100
0100
0000
2002
0000
3003
0000
,
1000
0100
1000
0000
0100
0000
0100
0000
,
0001
1000
0001
0000
0100
0000
0100
0000
,
1000
0100
0001
0000
0001
0100
1000
0000
,
0010
0100
0010
0000
1000
0000
1001
0000
,
0001
0100
0001
0000
0001
0000
0001
0000
,
1000
0100
1000
0000
1000
0000
1000
0000
,
0010
0100
0010
0000
1000
0000
1000
0000
,
1000
0100
0001
0000
0001
0100
1000
0000
,
0010
0100
1000
0100
,
0001
0100
0010
0100
,
1000
1001
1001
1001
,
1001
1001
1001
1001
,
0110
0110
0110
0110
,
1001
1001
0110
0110
,
1001
0110
2002
3003
,
1000
0100
1000
0100
1000
0000
1000
0000
,
0001
0100
0001
0100
0001
0000
0001
0000
,
0100
0010
0100
0010
0100
0000
0100
0000
,
1000
0100
0010
0001
0010
0100
1000
0001
,
1000
0100
1000
0100
1000
0000
1000
0000
,
0010
0100
0010
0100
0010
0000
0010
0000
,
0100
0001
0100
0001
0100
0000
0100
0000
,
1000
0001
1000
0000
1001
0000
1001
0000
,
0001
0100
0001
0100
0001
0000
0001
0000
,
1000
0010
1000
0010
1000
0000
1000
0000
,
0100
0010
0100
0010
1000
0000
1000
0000
,
0100
0010
0100
0010
0001
0000
0001
0000
,
1000
1100
1000
1100
,
0001
0101
0001
0101
,
0010
0110
0010
0110
,
0100
0110
0220
0330
,
1000
1000
0000
0000
0001
0001
0000
0000
,
0010
0010
0000
0000
0100
0100
0000
0000
,
1000
0001
1000
0001
1000
0001
1000
0001
,
0020
0000
0000
0030
,
1000
0010
0100
0000
0100
0000
0100
0000
,
0001
0010
0100
0000
0100
0000
0100
0000
,
1000
0001
0100
0000
0100
0000
0100
0000
,
0001
0101
0001
0101
,
1000
0100
0001
0000
0001
0000
0001
0000
,
0001
0100
1000
0000
1000
0000
1000
0000
,
0010
0100
0010
0000
0100
0000
0100
0000
,
1000
0001
1000
0001
,
1000
0000
0000
0000
0010
0000
0000
0000
0100
0000
0000
0000
0001
0000
0000
0001
,
1000
0000
0000
0000
0100
0000
0000
0000
0010
0000
0000
0000
0100
0000
0000
0100
,
0010
0000
1000
0000
0001
1000
0001
0000
,
1000
0100
1000
0000
0001
0100
0001
0000
,
0010
0100
0010
0000
0100
0010
0100
0000
,
1000
0100
1000
0100
1000
0100
1000
0000
,
0001
0100
0001
0100
0001
0100
0001
0000
,
0010
0100
0010
0100
0010
0100
0010
0000
,
0100
0010
0100
0010
0100
0010
0100
0000
,
1000
0001
1000
0000
0010
0100
0010
0000
,
0100
0001
0100
0000
0100
1000
0100
0000
,
1000
0001
1000
0000
0100
0010
0100
0000
,
0010
0100
0010
0000
1000
0000
1001
0000
,
1000
0100
1000
0100
1000
0001
1000
0000
,
0001
0100
0001
0100
0001
1000
0001
0000
,
0010
0100
0010
0100
0010
0001
0010
0000
,
0010
0100
0010
0100
0010
1000
0010
0000
,
1000
0000
0100
0000
1000
0100
0001
0000
,
0001
0000
0100
0000
0001
0100
1000
0000
,
1000
0000
0010
0000
0100
0001
1000
0000
,
0001
0000
0010
0000
0100
1000
0001
0000
,
1000
1000
0000
0000
0001
0001
0000
0000
,
0010
0010
0000
0000
0100
0100
0000
0000
,
1000
0001
1000
0001
1000
0001
1000
0000
,
1001
1001
2002
0000
,
0000
0000
3003
0000
;
