#TITLE:Gravitronic;
#SUBTITLE:;
#ARTIST:Is-m / muramasa;
#TITLETRANSLIT:;
#SUBTITLETRANSLIT:;
#ARTISTTRANSLIT:;
#CREDIT:;
#BANNER:;
#BACKGROUND:;
#LYRICSPATH:;
#CDTITLE:monst3rjoe - cdtitle.png;
#MUSIC:gravitronic.ogg;
#OFFSET:0.874;
#SAMPLESTART:66.065;
#SAMPLELENGTH:13.000;
#SELECTABLE:YES;
#BPMS:0.000=162.000,68.000=81.000,70.000=162.000,246.000=81.000,247.000=162.000,263.000=81.000,267.500=162.000;
#STOPS:;
#BGCHANGES:;
// cache tags:
#FIRSTBEAT:4.750;
#LASTBEAT:264.333;
#SONGFILENAME:Songs/SSSC Pack 2/Gravitronic - [Monst3rjoe]/gravitronic.sm;
#HASMUSIC:1;
#HASBANNER:0;
#MUSICLENGTH:101.225;
// end cache tags

//---------------dance-single - Monst3rjoe----------------
#NOTES:
     dance-single:
     Monst3rjoe:
     Challenge:
     12:
     1.000,1.000,0.099,0.188,1.000,762.000,10.000,19.000,85.000,0.000:

0000
0000
0000
0000
,
4004
0000
0000
3MM3
0000
0000
0000
0000
0000
0000
0000
0000
0000
0000
0000
0000
,
0000
0000
0000
0000
0001
0010
0000
0100
1000
0001
0010
0000
0100
1000
0001
0010
,
0001
0100
0000
0010
1000
0000
0001
0000
0010
0100
0010
0100
1000
0000
1000
0000
,
0010
0100
0010
0000
1000
0001
0000
0010
0100
1000
0100
0010
0000
0100
0010
0001
,
1000
0000
0000
0000
0000
0000
0000
0000
0010
0100
0001
0000
0100
0001
0000
0001
,
1000
0000
0000
0000
0100
0010
0000
0001
1000
0001
1000
0001
0100
0010
0100
0010
,
0100
0010
0M00
0100
0000
0M00
0100
0000
0010
1000
0001
0010
0001
0000
0001
0000
,
1100
0000
0000
0000
0000
0000
0001
0000
0000
0000
0000
0000
0011
0000
0000
0000
0000
0000
1000
0000
0000
0000
0000
0000
0001
0000
0000
0100
0000
0000
0010
0000
0000
0100
0000
0000
0001
0000
0100
0000
0001
0000
0100
0000
0001
0000
0100
0000
,
0004
0000
0000
0000
0000
0000
0000
0000
0000
0000
0000
0000
0000
0000
0000
0000
0003
0000
0000
0000
0000
0000
0000
0000
1000
0000
0000
0100
0000
0000
1000
0000
0000
0000
0000
0000
0001
0000
0000
0010
0000
0000
0001
0000
0000
0000
0000
0000
,
1000
0100
0010
0001
0200
030M
2000
3000
0100
0001
1000
0000
1000
0010
0100
0001
,
1000
0100
1000
0001
0020
003M
2000
3000
0010
0001
0100
0000
0100
0010
1000
0000
,
0001
0010
0100
1000
0002
M003
0002
0003
1000
0010
0100
0000
0001
0010
0100
0010
,
0400
1000
0300
0000
4M00
0010
3000
0000
M004
0010
0003
0000
040M
0010
0300
0000
,
0M04
0000
0010
0000
0000
0000
0100
0003
0020
0000
0M3M
0000
0020
0000
0030
0000
0100
0000
0001
0000
0100
0000
0000
0000
0010
0000
1000
0000
0100
0000
1000
0000
,
0010
0100
0001
0100
0010
0100
0001
0000
1000
0100
0010
0000
0100
0010
0001
0000
,
0010
0000
0000
0100
0000
0000
1000
0000
0000
0001
0000
0000
2000
0000
0000
300M
0000
0000
2000
0000
0000
3000
0000
0000
0010
0000
0000
0100
0000
0000
0001
0000
0000
1000
0000
0000
0001
0000
1000
0000
0001
0000
1000
0000
0001
0000
1000
0000
,
0004
0000
0000
0000
0000
0000
0000
0000
0000
0000
0000
0000
00M0
0000
0000
0000
0000
0000
0000
0000
0000
0000
0000
0000
0M00
0000
0000
0000
0000
0000
0000
0000
0000
0000
0000
0000
M000
0000
0000
0000
0000
0000
0000
0000
0000
0000
0000
0000
0M00
0000
0000
0000
0000
0000
0000
0000
0000
0000
0000
0000
00M0
0000
0000
0000
0000
0000
0000
0000
0000
0000
0000
0000
0M00
0000
0000
0000
0000
0000
0000
0000
0003
0000
0000
0000
0000
0000
0000
0000
0000
0000
1000
0000
0000
0000
0000
0000
0100
0000
0000
0000
0000
0000
0000
0000
0000
0000
0000
0000
0000
0000
0000
0000
0000
0000
0000
0000
0000
0000
0000
0000
0010
0000
0000
0000
0000
0000
0000
0000
0000
0000
0000
0000
0000
0000
0000
0000
0000
0000
0000
0000
0000
0000
0000
0000
0001
0000
0000
0000
0000
0000
0000
0000
0000
0000
0000
0000
0000
0000
0000
0000
0000
0000
0000
0000
0000
0000
0000
0000
1000
0000
0000
0000
0000
0000
0000
0000
0000
0000
0000
0000
0000
0000
0000
0000
0000
0000
0000
0000
0000
0000
0000
0000
,
0010
0000
0000
M2MM
0000
0300
0010
0000
0100
0000
0001
0000
0010
0000
0100
0000
,
1000
0000
0000
MM2M
0000
0000
0130
0000
0001
0000
1000
0000
0010
0000
0100
0000
,
0001
0000
0000
MM2M
0000
0000
0130
0000
1000
0000
0010
0000
0100
0000
0001
0000
,
0010
0000
0000
01M0
0000
0100
0000
1000
0001
0000
0100
0010
0000
0010
0000
1000
,
0000
1000
0000
0100
0001
0000
0100
0010
0001
0000
0100
0010
0000
0010
0000
1000
,
0000
1000
0000
0100
0001
0000
0100
0010
0001
0000
0100
0010
0000
0010
0000
1000
,
0000
1000
0000
0100
0001
0000
0100
0010
0001
0000
0100
0010
0000
0010
0000
1000
,
0000
0000
0000
1000
0000
0000
0000
0000
0000
0001
0000
0000
0010
0000
0000
0001
0000
0000
1000
0000
0100
0000
1000
0000
0100
0000
0000
0000
0000
0000
0010
0000
0000
0001
0000
0000
0010
0000
0000
0100
0000
0000
0010
0000
0000
0001
0000
0000
,
1000
0000
0000
0000
0000
0000
0010
0000
0000
0100
0000
0000
0010
0000
0000
1000
0000
0000
0001
0000
0100
0000
0001
0000
0100
0000
0000
0000
0000
0000
0001
0000
0000
0100
0000
0000
0010
0000
0000
0000
0000
0000
0010
0000
0000
0100
0000
0000
,
0001
0000
0000
1000
0000
0000
0001
0000
0000
0010
0000
0000
0001
0000
0010
0000
0001
0000
0010
0000
0001
0000
0010
0000
0001
0000
0000
0000
0000
0000
1000
0000
0000
0100
0000
0000
0010
0000
0000
0100
0000
0000
1000
0000
0000
0001
0000
0000
,
0100
0000
0000
0000
0000
0000
0001
0000
0000
0100
0000
0000
0001
0000
0000
1000
0000
0000
0010
0000
0100
0000
0010
0000
0100
0000
0000
0001
0000
0000
1000
0000
0000
0010
0000
0000
0000
0000
0000
0100
0000
0000
0000
0000
0000
0100
0000
0000
,
0001
0000
0000
0010
0000
0000
0000
0000
0000
0100
0000
0000
1000
0000
0100
0000
1000
0000
0100
0000
1000
0000
0100
0000
0040
0000
0000
0000
0000
0000
0000
0000
0000
0000
0000
0000
0000
0000
0000
0030
0000
0000
0000
0000
0000
0000
0000
0000
,
0000
0000
0000
MMM2
0000
0000
1003
0000
0010
0000
0100
0000
0001
0000
0010
0000
,
0100
0000
0000
MM2M
0000
0000
0130
0000
1000
0000
0010
0000
0100
0000
0001
0000
,
1000
0000
0000
MMM2
0000
0000
0013
0000
0100
0000
1000
0000
0010
0000
1000
0000
,
0010
0000
0000
M2MM
0000
0000
0310
0000
4010
0000
0000
0000
3000
0000
0000
0001
,
0100
0001
0100
0000
0010
0000
0110
0000
0000
0100
0001
0000
0010
0000
0000
0100
,
1000
0100
1000
0000
0010
0000
1010
0000
1000
0010
0100
0000
0001
0000
0000
0010
,
0100
1000
0001
0000
0100
0000
1001
0000
0000
1000
0100
0000
0011
0000
0000
M001
,
0100
001M
M100
001M
M100
001M
M100
001M
4000
0000
3000
0100
0010
0000
0010
0000
,
0001
0100
0001
0100
0010
1000
0010
100M
0100
0010
0100
0010
0001
1000
0001
1000
,
0100
0010
0100
0010
0001
1000
0001
1000
0100
0010
0100
0010
0001
1000
0001
1000
,
0100
0010
0100
0010
0001
1000
0001
1000
0100
0010
0M00
0010
0001
0100
000M
0100
,
0010
1000
0010
0100
0000
0100
0001
0000
0400
0001
0000
0301
1000
0010
1000
0010
,
0100
0001
0100
0001
1000
0010
1000
0010
0100
0001
0100
0001
1000
0010
1000
0010
,
0100
0001
0100
0001
M010
0M01
10M0
0001
1000
0100
1000
0100
0010
0001
0010
0001
,
1000
0100
1000
0100
0010
0001
0010
0001
1000
0100
1000
0100
0010
0001
0010
0001
,
1000
0010
0100
0001
10M0
0100
1000
0001
0100
0100
0010
1000
0001
0100
0010
1000
,
0001
0001
1000
0100
0010
0001
0010
0100
1000
1000
0010
0100
0001
1000
0100
1000
,
0001
0001
0010
0001
1000
0100
1000
0001
0010
0010
0100
1000
0001
0010
0100
1000
,
0001
0001
0100
0010
1000
0010
0100
0001
1000
1000
0100
0010
0100
1000
0100
0010
,
0001
0001
0010
0100
0010
0001
0010
0100
4000
3000
M010
0100
0010
0100
0001
1000
,
0001
0001
0010
0100
1000
0001
0010
0001
1000
0001
0100
0001
1000
0010
0100
0001
,
10M0
0001
1000
0100
001M
0100
1000
0001
0100
0010
100M
0100
1000
0010
M100
0001
,
1000
0010
0100
0001
1000
0100
M010
0001
1000
0100
10M0
0001
0010
M10M
0010
0001
,
1M00
001M
M100
0001
10M0
0100
1000
0001
0400
0300
0M10
1000
0001
0100
0010
1000
,
0001
0001
0010
0100
1000
0001
0010
0001
1000
1000
0010
0100
0001
1000
0100
0010
,
0001
0001
1000
0010
0100
0001
1000
0001
0100
0100
0001
1000
0001
0100
0010
0100
,
0001
0001
1000
0100
1000
0001
0010
0100
1000
1000
0001
0100
0010
1000
0010
0100
,
0001
0001
0010
0100
0010
0001
0010
0100
0040
0001
0030
0000
00M4
0100
0003
0000
,
400M
0000
0100
0000
3000
0000
0000
0000
M040
0000
0100
0000
0030
0000
0000
0000
40M0
0000
0100
0000
0000
0000
0010
3000
0200
0000
M3M0
0000
0200
0000
0300
0000
,
0001
0001
0100
0010
1000
0010
0100
0001
1000
1000
0010
0100
0001
1000
0010
0100
,
0001
0001
0100
0010
1000
0010
0100
0001
1000
1000
0010
0100
0001
0100
0010
1000
,
0001
0010
0100
1000
0001
1000
0001
1000
0001
0000
M0M0
0000
0400
0000
0000
0000
,
0310
0000
0100
0000
0001
0010
0001
0010
0100
1000
0100
1000
0010
0100
0001
0000
,
0100
0000
0100
0000
0010
1000
0010
0100
0001
0100
0001
1000
0010
0100
0001
0000
,
1000
0000
1000
0000
0100
0010
0100
0010
0001
1000
0001
1000
0100
0010
0001
0000
,
0100
0000
0000
0000
0000
0000
0100
0000
0000
0010
0000
0000
1000
0000
0000
0010
0000
0000
0000
0000
0000
1000
0000
0000
0010
0000
0000
1000
0000
0000
0001
0000
1000
0000
0004
0000
4000
0000
0000
0000
0000
0000
3MM3
0000
0000
0000
0000
0000
,
M00M
0MM0
0000
0000
0000
0000
0000
0000
0000
0000
0000
0000
;
