#TITLE:B4U;
#SUBTITLE:(B4 Za Beat Mix);
#ARTIST:Naoki;
#TITLETRANSLIT:;
#SUBTITLETRANSLIT:;
#ARTISTTRANSLIT:;
#CREDIT:;
#BANNER:b4ub4za.png;
#BACKGROUND:b4ub4zabg.png;
#LYRICSPATH:;
#CDTITLE:Slig logo.png;
#MUSIC:b4ub4za.mp3;
#OFFSET:1.340;
#SAMPLESTART:33.506;
#SAMPLELENGTH:9.772;
#SELECTABLE:YES;
#BPMS:0.000=172.000;
#STOPS:;
#BGCHANGES:;
// cache tags:
#FIRSTBEAT:4.000;
#LASTBEAT:276.000;
#SONGFILENAME:Songs/IzzySM Keyboard Mega Pack/B4U (B4 Za Beat Mix)/b4ub4za.sm;
#HASMUSIC:1;
#HASBANNER:1;
#MUSICLENGTH:95.119;
// end cache tags

//---------------dance-single - ----------------
#NOTES:
     dance-single:
     :
     Hard:
     10:
     1.000,1.000,0.820,0.421,1.000,570.000,78.000,40.000,0.000,0.000:
0000
0000
0000
0000
,
1000
0000
0010
0000
0100
0000
1001
1001
,
1000
0000
0010
0000
0100
0000
1001
1001
,
0010
0000
0100
0000
0001
0000
1100
1100
,
0010
0000
0100
0000
0001
0000
1100
1100
,
0100
0000
1000
0000
0001
0000
0110
0110
,
0100
0000
1000
0000
0001
0000
0110
0110
,
0001
0000
0100
0000
0010
0000
1010
1010
,
0001
0000
0100
0000
0010
0000
1010
1010
,
0101
0000
0110
0000
1100
0000
0011
1100
,
0011
0110
1100
1010
0110
0011
0101
0011
,
1000
0001
1000
0001
0000
0001
1000
0001
1000
0000
1000
0010
1000
0010
0100
0001
,
0010
0100
1000
0010
0000
0100
0001
0010
1000
0001
0100
0010
1000
0001
0001
0100
,
0010
0100
0001
0010
0000
0010
0100
0001
1000
0000
1000
0010
1000
0001
0100
0010
,
0100
0001
0100
0010
0000
0010
1000
0010
0001
0000
0100
0010
1000
0100
0001
0010
,
1000
0001
0001
1000
0000
0001
1000
1000
0001
0000
0010
0100
0001
1000
0100
0100
,
0001
0010
0001
0010
0000
0010
0100
0010
0100
0000
0100
1000
0010
0100
0001
0001
,
0001
0100
0010
0010
0000
0010
0010
0100
0001
0000
0001
1000
0010
0100
0001
0010
,
0010
1000
0001
0010
0000
0010
0001
1000
0010
0000
0010
0100
0001
1000
0010
0100
,
2000
0000
3020
0000
0130
0000
0100
0000
0001
0000
0000
1001
0000
0000
0000
0000
,
1000
0100
1000
0100
2000
0000
3020
0000
0130
0000
0100
0000
1001
0000
0000
0000
,
0100
0000
0000
1010
0000
0000
0001
0000
0100
0000
0010
0000
0010
0000
1001
0000
,
0100
0000
0000
0000
0100
0000
0000
0000
0100
0010
0100
0010
0100
0000
0100
0000
,
0100
0000
0000
0100
0000
0000
0000
0000
0001
0000
1000
0000
0000
1000
0000
0000
,
0010
0100
0010
0001
0010
0000
0100
0000
0010
0000
0010
0000
0000
0010
0000
0000
,
1000
0001
0100
0100
0020
0230
0301
1000
,
2000
3020
0230
0302
,
1003
0010
0000
0100
0000
0001
0000
0001
0000
1000
0000
0010
0100
0000
0100
0000
,
1001
0000
0110
0000
1001
0000
0110
0110
,
1000
0001
0000
0001
0000
0100
0000
0100
0000
0010
0000
1000
0010
0000
0100
0000
,
1010
0000
0110
0000
0011
0000
0101
0101
,
1000
0010
0000
0010
0000
0010
0000
0100
0000
0100
0000
0100
0100
0000
0001
0000
,
0110
0000
1100
0000
0110
0000
0011
0011
,
0010
0100
0000
0100
0000
0001
0000
1000
0000
0110
0000
0011
1000
0000
0100
0000
,
1010
1010
0101
0101
,
0010
0010
1000
1000
0001
0001
0110
0110
,
2002
0000
0000
3003
,
1000
0100
0010
0001
0000
0001
0100
0010
1000
0000
0010
0100
0010
0100
0010
0001
,
0010
0100
0010
1000
0000
1000
0001
0100
0010
0000
1000
0100
0010
0001
0100
0010
,
1000
0100
1000
0010
0000
0010
1000
0100
1000
0000
0001
0100
0010
1000
0001
0100
,
0010
0100
0010
0000
0000
0010
0000
0000
0010
0000
1000
0001
1000
0000
0010
0000
,
1000
0000
0100
0000
0001
0000
0001
0000
1000
0100
0001
0000
0010
0000
0010
0000
,
0100
0010
0100
0000
1000
0000
0001
0100
0010
0000
1001
0000
0100
0000
1001
0000
,
0020
0000
0230
0000
,
0301
0000
1000
0000
0010
0100
0010
0000
0001
0000
1000
0000
0100
0010
0100
0000
,
1000
0010
1000
0000
0010
0100
0010
0000
0100
0001
0100
0000
0001
0010
0001
0000
,
0100
0010
0100
0010
0100
0010
0100
0010
0100
0010
0100
0010
0100
0010
0100
0010
,
0100
1000
0000
0001
0000
0100
0000
0110
0000
0010
0000
0001
1000
0000
0110
0000
,
0002
0000
0000
0000
0203
0000
0000
0000
0320
0000
0000
0000
2030
3000
2000
3000
,
0001
0100
0000
0100
0000
0010
0000
1000
0000
0001
0000
0110
1000
0000
0110
0000
,
0002
0000
0000
0000
0023
0000
0000
0000
0230
0000
0000
0000
2300
3000
2000
3000
,
0001
0010
0000
0010
0000
0010
0000
0100
0000
0100
0000
1000
1000
0000
1000
0000
,
2000
0000
0000
0000
3200
0000
0000
0000
0302
0000
0000
0000
0023
0030
0020
0030
,
1000
1000
0000
1000
0000
1000
0000
0001
0000
0001
0000
0001
0001
0000
0110
0000
,
1000
0001
1000
0000
0001
0100
0001
0000
0100
0010
0100
0010
0100
0010
0100
0010
,
0100
1000
0001
0010
0100
0000
0100
0000
0110
0000
0110
0000
0011
0000
0011
0000
,
1001
1001
1010
1010
2002
0000
0000
3003
,
0200
0000
0300
0000
0200
0000
0300
0000
0200
0000
0300
0000
0020
0030
0020
0030
,
2002
0000
0000
3003
,
0100
0010
0100
0010
0000
1000
0010
1000
0010
0000
0001
0100
0010
1000
0100
0001
,
0010
0100
0001
0001
0000
0001
0001
0100
0010
0000
0010
1000
0001
0100
0010
0100
,
0001
1000
0010
1000
0000
0001
0100
0010
0001
0000
1000
0010
0100
0010
0001
0100
,
1000
0010
0100
0001
0000
0001
0100
0010
1000
0000
1000
0001
0100
0100
0010
0010
,
1001
1000
0000
0001
0000
0001
0000
0001
,
0000
1000
0000
0001
0000
0001
0000
0001
,
0000
0100
0000
0010
0000
0010
0000
0010
,
0000
0100
0000
0010
0000
0010
0000
0010
,
1000
0001
1000
0100
1000
0000
0010
0000
1000
0000
1000
0000
1000
0000
1000
0000
,
0001
0001
0110
0110
2002
0000
0000
0000
,
3003
0000
0000
0000
;
