#TITLE:Toxic Seahorse;
#SUBTITLE:Mega Man X3;
#ARTIST:Capcom;
#TITLETRANSLIT:;
#SUBTITLETRANSLIT:;
#ARTISTTRANSLIT:;
#CREDIT:;
#BANNER:banner.png;
#BACKGROUND:bg.png;
#LYRICSPATH:;
#CDTITLE:;
#MUSIC:Toxic Seahorse.ogg;
#OFFSET:-0.420;
#SAMPLESTART:28.514;
#SAMPLELENGTH:15.700;
#SELECTABLE:YES;
#BPMS:0.000=170.900;
#STOPS:;
#BGCHANGES:;
// cache tags:
#FIRSTBEAT:16.000;
#LASTBEAT:280.000;
#SONGFILENAME:Songs/in the groove2/Toxic Seahorse [neothe0ne]/Toxic Seahorse.sm;
#HASMUSIC:1;
#HASBANNER:1;
#MUSICLENGTH:100.641;
// end cache tags

//---------------dance-single - neothe0ne----------------
#NOTES:
     dance-single:
     neothe0ne:
     Hard:
     9:
     0.596,0.869,0.149,0.288,0.268,376.000,15.000,29.000,0.000,0.000:
0000
0000
0000
0000
,
0000
0000
0000
0000
,
0000
0000
0000
0000
,
0000
0000
0000
0000
,
1001
0000
0000
0000
1000
0000
0001
1000
,
0000
0100
0010
0000
0001
1000
0000
0001
,
1000
0010
0000
0010
0000
0100
0000
0010
,
1000
0100
0000
0010
0000
0001
0000
1000
,
0000
0000
0100
0000
0010
0000
0001
1000
,
0000
0000
0001
0000
0000
1000
0000
0000
0100
0000
0000
0010
0000
0000
0001
0000
,
0100
0010
1000
0000
0001
0000
1000
0010
,
0000
0000
0100
0000
0001
0000
0000
0000
1000
0000
0000
0100
0000
0000
0010
0000
,
0001
0010
0000
0001
0000
1000
0000
0010
,
0000
0100
0010
0000
1000
0002
0000
0003
,
0010
0100
0000
1000
0000
0001
0000
0100
,
0100
0010
0000
1000
0000
0001
0000
0010
,
0100
1000
0001
0000
0100
0001
0100
0000
0001
0100
0001
0000
0010
0100
1000
0100
,
2000
0001
0001
0000
0001
3200
0000
0000
,
0320
0000
0000
2030
0000
0000
3100
0020
,
0000
0000
0000
0000
0000
0000
0030
0000
0001
0000
0000
1000
0000
0000
0010
0000
,
1010
0000
0010
1000
0000
0001
0000
1000
,
0000
0001
0100
0010
1000
1000
0000
0000
,
0210
0000
0301
1000
0000
0100
0000
0010
,
0000
0000
0001
0000
1000
0000
0000
0000
1000
0000
0000
0001
0000
0000
1000
0000
,
0100
0010
0001
0000
1000
0001
1000
0000
0010
0100
0001
0000
1000
0001
1000
0000
,
0010
0100
0001
0000
0010
0100
1000
0000
0001
1000
0010
0000
0100
0010
1000
0000
,
0100
0010
0001
1000
0001
0100
0010
1000
0001
0000
0000
0100
0000
0000
1000
0000
,
0001
0000
0000
0100
0000
0000
0010
0000
0001
0000
0000
1000
0000
0000
0100
0000
,
0110
0010
0001
0000
1000
1000
0000
0001
,
0000
0000
1000
0000
0001
0000
0000
0000
0101
0000
0000
0010
0000
0000
1000
0000
,
1100
0000
0000
0100
0000
0000
0010
0000
0000
0000
0000
0000
0001
0000
0000
1000
0000
0000
0000
0000
0010
0100
0000
0000
,
0000
1010
1000
0001
0101
0100
0000
0010
,
1001
1000
0000
0001
0000
0100
0000
0010
,
0000
1000
0100
0000
0010
0002
0000
0003
,
1000
0001
0000
0100
0000
0010
0000
0100
,
0000
0001
0100
0000
0010
2000
0000
3000
,
1100
0000
0000
0000
0010
0000
0001
2000
,
0000
3001
0200
0000
0310
2000
0000
3100
,
0010
0001
0000
1000
0000
0001
0000
0100
,
0001
1000
0000
0100
0000
0010
0000
0200
,
0000
1300
0100
0000
0010
0000
0001
2000
,
0000
0000
0020
0000
3000
0000
0130
0000
0001
0000
0000
0010
0000
0000
0100
0000
,
1000
0001
1000
0000
0100
0000
0010
0001
,
0000
0000
1000
0000
0001
0000
0000
0000
0100
0000
0000
0010
0000
0000
1000
0000
,
0100
0010
0000
0001
0000
1000
0000
0010
,
0000
0100
0001
0000
0010
0200
0000
0300
,
1000
0001
0000
0100
0000
0010
0000
1000
,
0000
0100
0000
0010
0000
0001
0000
0100
,
0010
1000
0010
0000
0100
0010
0100
0000
0001
0100
0001
0000
0010
0100
1000
0001
,
0200
0010
0010
0300
1000
0002
0000
0000
,
0203
0000
0000
0320
0000
0000
1030
0200
,
0000
0000
0000
0000
0300
0000
0000
0000
0011
0000
0000
0001
0000
0000
1000
0000
,
1010
0010
1000
0100
0000
0010
0000
0001
,
0000
0100
0010
1000
0001
0002
0000
0003
,
1100
0100
0010
0002
0000
0203
0000
0320
,
0000
0000
1000
0000
1000
0000
0030
0000
0100
0000
0000
0010
0000
0000
0001
0000
,
0010
0001
0010
0000
0001
0010
0100
0000
1000
0100
1000
0000
0010
1000
0001
0000
,
1000
0001
1000
0000
0001
0010
0100
0000
1000
0001
0100
0000
0001
0100
0010
0000
,
1000
0100
0010
0001
1000
0001
0010
0100
1000
0000
0000
0001
0000
0000
1000
0000
,
0100
0000
0000
0010
0000
0000
0001
0000
0010
0000
0000
0100
0000
0000
1000
0000
,
0001
0100
0010
0000
1000
0001
0000
0100
,
0000
0000
0010
0000
1000
0000
0000
0000
0100
0000
0000
0010
0000
0000
0001
0000
,
0100
0000
0000
0010
0000
0000
1000
0000
0000
0000
0000
0000
0001
0000
0000
1000
0000
0000
0000
0000
1000
0010
0000
0000
,
0000
0000
0000
0100
0000
0000
0001
0000
0000
1000
0000
0000
0001
0000
1000
0100
0000
0000
0000
0000
0000
0100
0000
0000
,
1100
1000
0000
0100
0000
0010
0000
0100
,
0000
1000
0010
0000
0100
0002
0000
0003
,
0100
0010
0000
1000
0000
0001
0000
0010
,
0000
0100
1000
0000
0010
0200
0000
0300
,
2002
0000
0000
0000
,
0000
0000
0000
0000
,
3003
0000
0000
0000
;
