#TITLE:In Your Face;
#SUBTITLE:By Nicholas T. Mihaila;
#ARTIST:Children of Bodom;
#TITLETRANSLIT:;
#SUBTITLETRANSLIT:;
#ARTISTTRANSLIT:;
#CREDIT:;
#BANNER:IYF - BN.jpg;
#BACKGROUND:IYF - BG.jpg;
#LYRICSPATH:;
#CDTITLE:cdtitle.gif;
#MUSIC:Children Of Bodom - In Your Face.mp3;
#OFFSET:-0.040;
#SAMPLESTART:100.000;
#SAMPLELENGTH:12.000;
#SELECTABLE:YES;
#BPMS:0.000=115.000,350.000=112.500,352.000=115.000,383.750=90.000,384.000=115.000,413.500=127.500,414.000=115.000,448.000=117.000,462.000=115.000;
#STOPS:;
#BGCHANGES:;
// cache tags:
#FIRSTBEAT:0.000;
#LASTBEAT:483.250;
#SONGFILENAME:Songs/toune 5/COB - In Your Face/Children Of Bodom - In Your Face.sm;
#HASMUSIC:1;
#HASBANNER:1;
#MUSICLENGTH:252.779;
// end cache tags

//---------------dance-single - ----------------
#NOTES:
     dance-single:
     :
     Challenge:
     11:
     1.000,1.000,0.985,0.732,1.000,1594.000,249.000,185.000,0.000,43.000:
1000
0100
0010
0001
0000
0100
0010
0001
0010
0100
1000
0000
0100
1000
0000
0000
,
1000
0100
0010
0001
0000
0100
0000
0001
0000
0100
0010
0001
0010
0001
0000
0000
,
1000
0100
0010
0001
0000
0100
0010
0001
0010
0100
1000
0000
0100
1000
0000
0000
,
1000
0100
0010
0001
0000
0100
0000
0001
0000
0100
0010
0001
0010
0001
0000
0000
,
1000
0100
0010
0001
0110
0100
0010
0001
0010
0100
1000
0000
0110
1000
0000
0000
,
1000
0100
0010
0001
0110
0100
0000
0001
0000
0100
0010
0001
0110
0001
0000
0000
,
1000
0100
0010
0001
0110
0100
0010
0001
0010
0100
1000
0000
0110
1000
0000
0000
,
1100
0110
1010
0011
0000
0110
0000
0011
0000
0110
0011
1100
0011
1100
0000
0000
,
1000
0100
0010
0001
0000
0100
0010
0001
0010
0100
1000
0000
0110
1000
0000
0000
,
1000
0100
0010
0001
0110
0100
0000
0001
0000
0100
0010
0001
0110
0001
0000
0000
,
1000
0100
0010
0001
0110
0100
0010
0001
0010
0100
1000
0000
0110
1000
0000
0000
,
1000
0100
0010
0001
0000
0100
0000
0001
0000
0100
0010
0001
0010
0001
0000
0000
,
1000
0001
0100
0010
0110
0001
1000
0100
0010
0001
0100
0010
0110
0001
1000
0100
,
0010
0001
0100
0010
0110
0001
1000
0100
0010
0001
1000
0100
0110
0001
1000
0100
,
0010
0001
0100
0010
0110
0001
1000
0100
0010
0001
0100
0010
0110
0001
1000
0100
,
1100
0110
1010
0011
0100
0110
1000
0011
0010
0110
0011
1100
0011
1100
1010
0101
,
2010
0000
0001
0000
0010
0000
0100
0000
0010
0000
0001
0000
0020
0030
0200
0300
3012
0000
0100
0000
1000
0000
0100
0000
0010
0000
0100
0000
2000
3000
0200
0300
,
2013
0000
0001
0000
0010
0000
0100
0000
0010
0000
0001
0000
0200
0300
0020
0030
3201
0000
0010
0000
1000
0000
0010
0000
0001
0000
0010
0000
2000
3000
0020
0030
,
2310
0000
0001
0000
0010
0000
0100
0000
0010
0000
0001
0000
0020
0030
0200
0300
3012
0000
0100
0000
1000
0000
0100
0000
0010
0000
0100
0000
2000
3000
0200
0300
,
2013
0000
0001
0000
0010
0000
0100
0000
0010
0000
0001
0000
0200
0300
0020
0030
3000
0000
0000
0000
0001
0000
0010
0000
0100
0000
1000
0000
0001
0000
0010
0000
,
1000
0000
0100
0000
1001
0000
0010
0000
1000
0000
0100
0000
1001
0001
0010
0000
,
1000
0000
0100
0000
1001
0000
0010
0000
1000
0100
0010
0100
1001
0010
0100
0001
,
1000
0000
0100
0000
1001
0000
0010
0000
1000
0000
0100
0000
1001
0001
0010
0000
,
1000
0000
0000
0100
0000
0000
1001
0000
0000
0010
0000
0000
1000
0000
0000
0001
0000
0000
1000
0001
1000
0001
1000
0001
,
1000
0000
0100
0000
1001
0000
0010
0000
1010
0000
0100
0000
1001
0001
0010
0000
,
1010
0000
0100
0000
1001
0000
0010
0000
1010
0100
0010
0100
1001
0010
0100
0001
,
1010
0000
1100
0000
1001
0000
0011
0000
1010
0000
1100
0000
1001
0001
0011
0000
,
1010
1100
1001
0011
2000
0000
0000
0000
,
3002
0013
0100
0010
0100
0000
1000
0100
0020
0030
1000
0100
0020
0130
1000
0100
,
0002
0013
0100
0010
0100
0000
1000
0100
0010
0002
1003
0100
0010
0002
0203
0320
,
0032
0013
0100
0010
0100
0000
1000
0100
0020
0030
1000
0100
0020
0130
1000
0100
,
2000
3010
0100
0010
0100
0000
1000
0100
0001
0010
1000
0100
0001
0010
1000
0010
,
0002
0013
0100
0010
0100
0000
1000
0100
0020
0030
1000
0100
0020
0130
1000
0100
,
0002
0013
0100
0010
0100
0000
1000
0100
0010
0202
0000
0303
2002
0000
3003
2200
,
3302
0013
0100
0010
0100
0000
1000
0100
0020
0030
1000
0100
0020
0130
1000
0100
,
2000
0000
3010
0000
0100
0000
0010
0000
0100
0000
0000
0000
1000
0000
0100
0000
0001
0000
1000
0100
0010
0000
1000
0100
0010
0000
0001
0000
0100
0000
1000
0000
,
0010
1000
0000
1000
0010
1000
0000
0001
0010
0100
1000
0000
1000
0100
0000
0001
,
0010
0100
1000
0000
1000
0100
0000
0001
0010
0100
0010
0000
0010
0100
0000
1000
,
0010
1000
0000
1000
0010
1000
0000
0001
0010
0100
1000
0000
1000
0100
0000
0001
,
0010
0000
0100
0000
1000
0000
0000
0000
1000
0000
0100
0000
0000
0000
0000
0000
0000
0000
0000
0000
0000
0000
0000
0000
2020
0000
0000
0000
3030
0000
2200
3300
,
0010
1000
0000
1000
0010
1000
0000
0001
0010
0100
1000
0000
1000
0100
0000
0001
,
0010
0100
1000
0000
1000
0100
0000
0001
0010
0100
0010
0000
0010
0100
0000
1000
,
0010
1000
0000
1000
0010
1000
0000
0001
0010
0100
1000
0000
1000
0100
0000
0001
,
0010
0100
1000
0000
1000
0100
0000
0011
1100
0011
1100
0200
0000
0311
1100
0011
,
1000
0000
0100
0000
1001
0000
0010
0000
1000
0000
0100
0000
1001
0001
0010
0000
,
1000
0000
0100
0000
1001
0000
0010
0000
1000
0100
0010
0100
1001
0010
0100
0001
,
1000
0000
0100
0000
1001
0000
0010
0000
1000
0000
0100
0000
1001
0001
0010
0000
,
1000
0000
0000
0100
0000
0000
1001
0000
0000
0010
0000
0000
1000
0000
0000
0001
0000
0000
1000
0001
1000
0001
1000
0001
,
1000
0000
0100
0000
1001
0000
0010
0000
1010
0000
0100
0000
1001
0001
0010
0000
,
1010
0000
0100
0000
1001
0000
0010
0000
1010
0100
0010
0100
1001
0010
0100
0001
,
1010
0000
1100
0000
1001
0000
0011
0000
1010
0000
1100
0000
1001
0001
0011
0000
,
1010
0000
0000
0000
1100
0000
0000
0000
1001
0000
0000
0000
0011
0000
0000
0000
1000
0100
0010
0001
1000
0100
0010
0001
0110
0000
0000
0000
0000
0000
0000
0000
,
0002
0013
0100
0010
0100
0000
1000
0100
0020
0030
1000
0100
0020
0130
1000
0100
,
0002
0013
0100
0010
0100
0000
1000
0100
0010
0002
1003
0100
0010
0002
0203
0320
,
0032
0013
0100
0010
0100
0000
1000
0100
0020
0030
1000
0100
0020
0130
1000
0100
,
2000
3010
0100
0010
0100
0000
1000
0100
0001
0010
1000
0100
0001
0010
1000
0010
,
0002
0013
0100
0010
0100
0000
1000
0100
0020
0030
1000
0100
0020
0130
1000
0100
,
0002
0013
0100
0010
0100
0000
1000
0100
0010
0202
0000
0303
2002
0000
3003
2200
,
3302
0013
0100
0010
0100
0000
1000
0100
0020
0030
1000
0100
0020
0130
1000
0100
,
2000
3010
0100
0010
0100
0000
1000
0100
0001
0010
1000
0100
0001
0010
1000
0010
,
1000
0100
0010
0001
0110
0100
0010
0001
0010
0100
1000
0000
0110
1000
0000
0000
,
1000
0100
0010
0001
0110
0100
0000
0001
0000
0100
0010
0001
0110
0001
0000
0000
,
1000
0100
0010
0001
0110
0100
0010
0001
0010
0100
1000
0000
0110
1000
0000
0000
,
1010
0100
0010
0001
0000
0100
1100
0001
0000
0100
0010
0001
0101
0101
0000
0000
,
2010
0000
0001
0000
0010
0000
0100
0000
0010
0000
0001
0000
0020
0030
0200
0300
3012
0000
0100
0000
1000
0000
0100
0000
0010
0000
0100
0000
2000
3000
0200
0300
,
2013
0000
0001
0000
0010
0000
0100
0000
0010
0000
0001
0000
0200
0300
0020
0030
3201
0000
0010
0000
1000
0000
0010
0000
0001
0000
0010
0000
2000
3000
0020
0030
,
2310
0000
0001
0000
0010
0000
0100
0000
0010
0000
0001
0000
0020
0030
0200
0300
3012
0000
0100
0000
1000
0000
0100
0000
0010
0000
0100
0000
2000
3000
0200
0300
,
2013
0000
0001
0000
0010
0000
0100
0000
0010
0000
0001
0000
0200
0300
0020
0030
3201
0000
0010
0000
1000
0000
0010
0000
0001
0000
0010
0000
2000
3000
0020
0030
,
2310
0000
0001
0010
0000
0000
0010
0100
3012
0000
1000
0010
0000
0000
1000
0100
,
2013
0000
0001
0010
0000
0000
0100
0010
3201
0000
0010
0001
0010
1000
0010
0001
,
2310
0000
0001
0010
0000
0000
0010
0100
3012
0000
1000
0010
0000
0000
1000
0100
,
2013
0000
0001
0010
0000
0000
0100
0010
3201
0000
0010
0001
0010
1000
0010
0001
,
0311
0000
0022
0000
1033
0100
0010
0001
1000
0100
0010
0100
1000
0001
0010
0100
,
0011
0000
0022
0000
0033
0000
0200
0300
0000
0002
0003
0000
0020
0030
0000
0000
,
1000
0100
0010
0001
0010
0100
1000
0010
0100
0001
0100
0010
1000
0100
0010
0001
0010
0100
1000
0010
0100
0001
0100
0010
,
1000
0100
0010
0001
1000
0010
0100
0001
1000
0100
0010
0001
1000
0010
0100
0001
1000
0100
0010
0001
1000
0010
0100
0001
,
2000
0000
0000
0000
0000
0000
0000
0000
0000
0000
0000
0000
0000
0000
0000
0000
0000
0000
0000
0000
0000
0000
0000
0000
0000
0000
0000
0000
0000
0000
0000
0000
0000
0000
0000
0000
0000
0000
0000
0000
0000
0000
0000
0000
0000
0000
0000
0000
0000
0000
0000
0000
0000
0000
0000
0000
0000
0000
0000
0000
0000
0000
0000
0000
0000
0000
0000
0000
0000
0000
0000
0000
0000
0000
0000
0000
0000
0000
0000
0000
0000
0000
0000
0000
3000
0000
0000
0000
0000
0000
0000
0000
0000
0000
0000
0000
0010
0000
0000
0000
0000
0000
0000
0000
0000
0000
0000
0000
0000
0000
0000
0000
0000
0000
0000
0000
0100
0000
0000
0000
0000
0000
0000
0000
0000
0000
0000
0000
0000
1000
0000
0000
0000
0000
0000
0000
0000
0000
0000
0000
0000
0000
0000
0000
0002
0000
0000
0000
0000
0000
0000
0000
0000
0000
0000
0000
0000
0000
0000
0000
0000
0000
0000
0000
0000
0000
0000
0000
0003
0000
0000
0000
0000
0000
0000
0000
0002
0000
0000
0000
0000
0000
0000
0000
0000
0000
0000
0000
0000
0000
0000
0000
,
0000
0000
0000
0000
0000
0000
0000
0000
0003
0000
0000
0000
0000
0000
0000
0000
0002
0000
0000
0000
0000
0000
0000
0000
0000
0000
0000
0000
0000
0000
0000
0000
0000
0000
0000
0000
0000
0000
0000
0000
0003
0000
0000
0000
0000
0000
0000
0000
0002
0000
0000
0000
0000
0000
0000
0000
0000
0000
0000
0000
0000
0000
0000
0000
0203
0000
0000
0000
0000
0000
0000
0000
0000
0000
0000
0000
0000
0000
0000
0000
0000
0000
0000
0000
0000
0000
0000
0000
0300
0000
0000
0000
0000
1000
0000
0000
0000
0000
0000
0000
0000
0000
0000
0000
0000
0000
0000
0000
0000
0000
0000
0000
0020
0000
0000
0000
0000
0000
0000
0000
0000
0000
0000
0000
0000
0000
0000
0000
0000
0000
0000
0000
0000
0000
0000
0000
0000
0000
0000
0000
0000
0000
0000
0000
0000
0000
0000
0000
0000
0000
0000
0000
0000
0000
0000
0000
0000
0000
0000
0000
0000
0000
0000
0000
0000
0000
0000
0000
0030
0000
0000
0000
0000
0000
0000
0000
0000
0000
0000
0000
0000
0000
0000
0000
0000
0000
0000
0000
0000
0000
0000
0000
,
1000
0100
0010
0001
1000
0010
0100
0001
1000
0100
0010
0100
0001
1000
0100
0010
0001
0100
0010
1000
0001
0010
0100
1000
,
0001
0000
0000
0002
0000
0000
0003
0000
0000
0100
0000
0000
0002
0000
0000
0003
0000
0000
0010
0000
0000
0020
0000
0000
0030
0000
0000
1000
0000
0000
2000
0000
0000
3000
0000
0000
0001
0000
0010
0000
0100
0000
1000
0000
0100
0000
0010
0000
,
0002
0000
0000
0000
0000
0000
1000
0000
0100
0003
0010
0000
1000
0000
0010
0000
0100
0000
1000
0000
0100
0000
0010
0000
,
2000
0000
0000
0000
0000
0000
0000
0000
0000
0000
3000
0000
0001
0000
0000
0010
0000
0000
0100
0000
0000
1000
0000
0000
0010
0000
0000
0100
0000
0000
1000
0000
0000
0010
0000
0000
0100
0000
0000
1000
0000
0000
0010
0000
0000
0000
0000
0000
,
1000
0000
0100
0000
0010
0000
0001
0000
1000
0000
0100
0000
0010
0000
0000
0100
0000
0000
0001
0000
0000
0010
0000
0000
0100
0000
0000
1000
0000
0000
0010
0000
0000
0100
0000
0000
0001
0000
0000
0010
0000
0000
0100
0000
0000
1000
0000
0000
,
0002
0000
0000
0000
0000
0003
1000
0100
1000
0100
0010
1000
0001
0010
0100
0001
0010
0100
0010
0100
1000
0100
0010
0001
,
1000
0100
0010
0001
0010
0100
1000
0100
0010
0001
0010
0100
1000
0010
0100
0001
0100
0010
1000
0010
0001
0100
0001
0010
,
2000
0000
0000
0000
0000
0000
0000
0000
0000
0000
0000
0000
0000
0000
3000
0000
0000
0000
0010
0000
0100
0000
0001
0000
0010
0000
0000
0100
0000
0000
1000
0000
0000
0100
0000
0000
0001
0000
0000
0010
0000
0000
0100
0000
0000
1000
0000
0000
,
0001
0010
0100
2000
0000
3000
0001
0010
0100
1000
0010
0100
1000
0100
0010
0100
,
0001
0000
0000
0000
0000
0000
0000
0000
0010
0000
0000
0000
0000
0000
0000
0000
0100
0000
0000
0000
0000
0000
0000
0000
1000
0000
0000
0000
0000
0000
0000
0000
0001
0000
0000
0000
0000
0000
0000
0000
0010
0000
0000
0000
0000
0000
0000
0000
0100
0000
0000
0000
0000
0000
0000
0000
1000
0000
0000
0000
0000
0000
0000
0000
0001
0000
0000
0000
0000
0000
0000
0000
0010
0000
0000
0000
0000
0000
0000
0000
0100
0000
0000
0000
0000
0000
0000
0000
1000
0000
0000
0000
0000
0000
0000
0000
0012
0000
0000
0000
0000
0000
0000
0000
0000
0000
0000
0000
1000
0000
0000
0000
0000
0000
0000
0000
0000
0000
0000
0000
0010
0000
0000
0000
0000
0000
0000
0000
0000
0000
0000
0000
1000
0000
0000
0000
0000
0000
0000
0000
0000
0000
0000
0000
0000
0000
0000
0000
0000
0000
0000
0000
0000
0000
0000
0000
0000
0000
0000
0010
0000
0000
0000
0000
0000
0000
0000
0000
0000
0000
0000
1000
0000
0000
0000
0000
0003
0000
0000
0000
0000
0000
0000
0010
0000
0000
0000
0000
0000
0000
0000
0000
,
1000
0100
0010
0001
0010
0100
0000
0000
1010
0001
0110
0001
1001
0001
1000
0001
,
1010
0100
0110
0001
1001
0100
0000
0100
1010
0001
0110
0001
0011
0110
1100
0000
,
1000
0100
0010
0001
0010
0100
0000
0000
1010
0001
0110
0001
1001
0001
1000
0001
,
1010
0000
0100
0000
0110
0000
0001
0000
1001
0000
0100
0000
0000
0000
0100
0000
1010
0001
1000
0001
1000
0001
1000
0001
2020
0000
0000
0000
3030
0000
2200
3300
,
1000
0100
0010
0001
0010
0100
0000
0000
1010
0001
0110
0001
1001
0001
1000
0001
,
1010
0100
0110
0001
1001
0100
0000
0100
1010
0001
0110
0001
0011
0110
1100
0000
,
1000
0100
0010
0001
0010
0100
0000
0000
1010
0001
0110
0001
1001
0001
1000
0001
,
1010
0100
0110
0001
1001
0100
0000
0011
1100
0011
1100
0200
0000
0311
1100
0011
,
1000
0000
0000
0000
0000
0000
0100
0000
0000
0000
0000
0000
0001
0000
0000
0000
0000
0000
0010
0000
0000
0000
0000
0000
1000
0001
0000
0000
0000
0000
0100
0000
0000
0000
0000
0000
0001
0000
0000
0001
0000
0000
0010
0000
0000
0000
0000
0000
,
1000
0000
0000
0100
0000
0000
0001
0000
0000
0010
0000
0000
1000
0100
0010
0001
0010
0100
1000
0010
0100
0001
0100
0010
,
1000
0000
0000
0000
0000
0000
0100
0000
0000
0000
0000
0000
0001
0000
0000
0000
0000
0000
0010
0000
0000
0000
0000
0000
1000
0001
0000
0000
0000
0000
0100
0000
0000
0000
0000
0000
0001
0000
0000
0001
0000
0000
0010
0000
0000
0000
0000
0000
,
1000
0000
0000
0100
0000
0000
0001
0000
0000
0010
0000
0000
1000
0000
0000
0001
0000
0000
1000
0001
1000
0001
1000
0001
,
1000
0000
0100
0000
1001
0000
0010
0000
1000
0000
0100
0000
1001
0001
0010
0000
,
1000
0000
0100
0000
1001
0000
0010
0000
1000
0100
0010
0100
1001
0010
0100
0001
,
1010
0000
0100
0000
1001
0000
0010
0000
1010
0000
0100
0000
1001
0001
0010
0000
,
1010
0000
0000
0100
0000
0000
1001
0000
0000
0010
0000
0000
2000
3200
0320
2030
3200
0320
2030
3200
0320
2030
3200
0320
,
1030
0100
0010
0001
0110
0100
0010
0001
0010
0100
1000
0000
0110
1000
0000
0000
,
1000
0100
0010
0001
0110
0100
0000
0001
0000
0100
0010
0001
0110
0001
0000
0000
,
2000
3100
0010
0001
0110
0100
0010
0001
0010
0100
1000
0000
0110
1000
0000
0000
,
1000
0100
0010
0101
0000
0100
0000
0001
0000
0100
0010
0001
0010
0001
0000
0000
,
1000
0001
0100
0010
0110
0001
1000
0100
0010
0001
0100
0010
0110
0001
1000
0100
,
0010
0001
0100
0010
0110
0001
1000
0100
0010
0001
1000
0100
0110
0001
1000
0100
,
0010
0001
0100
0010
0110
0001
1000
0100
0010
0001
0100
0010
0110
0001
1000
0100
,
0010
0001
0011
1100
0100
1100
0001
0001
1100
0001
0001
0001
1100
1100
0001
0001
,
2010
0000
0001
0000
0010
0000
0100
0000
0010
0000
0001
0000
0020
0030
0200
0300
3012
0000
0100
0000
1000
0000
0100
0000
0010
0000
0100
0000
2000
3000
0200
0300
,
2013
0000
0001
0000
0010
0000
0100
0000
0010
0000
0001
0000
0200
0300
0020
0030
3201
0000
0010
0000
1000
0000
0010
0000
0001
0000
0010
0000
2000
3000
0020
0030
,
2310
0000
0001
0000
0010
0000
0100
0000
0010
0000
0001
0000
0020
0030
0200
0300
3012
0000
0100
0000
1000
0000
0100
0000
0010
0000
0100
0000
2000
3000
0200
0300
,
2013
0000
0001
0000
0010
0000
0100
0000
0010
0000
0001
0000
0200
0300
0020
0030
3201
0000
0010
0000
1000
0000
0010
0000
0001
0000
0010
0000
2000
3000
0020
0030
,
2310
0000
0001
0010
0000
0000
0010
0100
3012
0000
1000
0010
0000
0000
1000
0100
,
2013
0000
0001
0010
0000
0000
0100
0010
3201
0000
0010
0001
0010
1000
0010
0001
,
2310
0000
0001
0010
0000
0000
0010
0100
3012
0000
1000
0010
0000
0000
1000
0100
,
2013
0000
0001
0010
0000
0000
0100
0010
3201
0000
0010
0001
0010
1000
0010
0001
,
1310
0110
0011
1001
0000
0110
1100
0101
0011
1001
1010
0110
0101
0101
0000
0000
;
