#TITLE:The Disappearance of Hatsune Miku;
#SUBTITLE:-DEAD END-;
#ARTIST:cosMo@bousouP feat. Hatsune Miku;
#TITLETRANSLIT:;
#SUBTITLETRANSLIT:;
#ARTISTTRANSLIT:;
#CREDIT:owenviau1;
#BANNER:../owenviau1 Simfiles 6 (Science X Owen).png;
#BACKGROUND:BG.PNG;
#LYRICSPATH:;
#CDTITLE:;
#MUSIC:The Disappearance of Hatsune Miku -DEAD END- - cosMo@bousouP feat. Hatsune Miku.mp3;
#OFFSET:-0.043;
#SAMPLESTART:119.981;
#SAMPLELENGTH:29.999;
#SELECTABLE:NO;
#DISPLAYBPM:240.240;
#BPMS:0.000=149.349,64.000=240.240,1074.000=480.480,1107.000=960.961;
#STOPS:;
#BGCHANGES:;
// cache tags:
#FIRSTBEAT:64.000;
#LASTBEAT:1075.000;
#SONGFILENAME:Songs/owenviau1 Simfiles 6/The Disappearance of Hatsune Miku -DEAD END- - [owenviau1] v1.0.3/The Disappearance of Hatsune Miku.sm;
#HASMUSIC:1;
#HASBANNER:1;
#MUSICLENGTH:285.768;
// end cache tags

//---------------dance-single - 17 (owenviau1)----------------
#NOTES:
     dance-single:
     17 (owenviau1):
     Hard:
     17:
     1.000,1.000,0.007,0.042,1.000,2687.000,2.000,12.000,4.000,0.000:
0000
0000
0000
0000
,
0000
0000
0000
0000
,
0000
0000
0000
0000
,
0000
0000
0000
0000
,
0000
0000
0000
0000
,
0000
0000
0000
0000
,
0000
0000
0000
0000
,
0000
0000
0000
0000
,
0000
0000
0000
0000
,
0000
0000
0000
0000
,
0000
0000
0000
0000
,
0000
0000
0000
0000
,
0000
0000
0000
0000
,
0000
0000
0000
0000
,
0000
0000
0000
0000
,
0000
0000
0000
0000
,
1000
0100
0010
0001
0100
0010
1000
0001
0010
0001
1000
0100
1000
0001
0100
0010
,
1000
0001
0010
0001
0100
0010
0100
0001
1000
0100
1000
0010
0100
0010
1000
0001
,
0100
0001
1000
0100
0010
0001
1000
0010
0100
0010
1000
0001
0010
0100
1000
0100
,
0010
0001
1000
0100
1000
0010
0100
0001
0100
0010
1000
0100
1000
0001
0100
0010
,
1000
0001
0010
0001
1000
0100
1000
0010
0100
0010
1000
0001
0100
0001
1000
0010
,
0100
0010
1000
0001
0010
0001
0100
0010
1000
0100
0010
0001
1000
0100
1000
0001
,
0100
0010
1000
0010
0100
0001
1000
0100
1000
0001
0100
0001
1000
0010
0100
0010
,
1000
0001
0010
0001
0100
0010
0100
0001
1000
0001
0100
0010
1000
0100
0010
0001
,
1000
0100
1000
0001
0100
0010
1000
0010
0100
0001
0010
0001
1000
0010
1000
0001
,
0100
0001
1000
0010
0100
0001
0010
0001
1000
0100
1000
0001
0100
0010
1000
0001
,
0010
0001
1000
0100
0010
0001
0100
0010
1000
0010
0100
0001
0010
0001
1000
0100
,
0010
0001
0100
0010
1000
0100
0010
0001
0100
0010
1000
0001
0010
0001
1000
0100
,
1000
0001
0100
0010
1000
0001
0010
0001
0100
0010
0100
0001
1000
0100
1000
0010
,
0100
0010
1000
0001
0100
0001
1000
0100
0010
0001
1000
0010
0100
0010
1000
0001
,
0010
0100
1000
0100
0010
0001
1000
0100
1000
0010
0100
0001
0100
0010
1000
0100
,
1000
0001
0100
0010
1000
0001
0010
0001
1000
0100
1000
0010
0100
0010
1000
0001
,
0100
0010
1000
0001
0010
0001
1000
0100
,
0010
0001
1000
0100
1000
0010
0100
0010
,
1000
0001
0100
0001
1000
0010
0100
0001
,
1000
0000
0100
0000
0010
0000
0001
0000
0100
0000
0010
0000
1000
0100
0010
0001
,
1000
0010
0100
0001
1000
0001
0100
0010
,
1000
0001
0010
0001
1000
0100
0010
0001
,
1000
0100
1000
0001
0100
0010
1000
0010
,
0100
0000
0001
0000
1000
0000
0100
0000
0010
0000
0001
0000
1000
0010
1000
0001
,
0100
0010
1000
0100
0010
0001
1000
0100
,
1000
0000
0001
0000
0010
0000
0001
0000
0100
0000
0010
0000
1000
0001
0100
0001
,
1000
0010
0100
0001
1000
0100
0010
0001
,
1000
0100
1000
0001
0100
0010
1000
0001
,
1000
0100
0010
0001
1000
0100
1000
0001
0100
0010
1000
0010
0100
0001
1000
0100
,
1000
0001
0100
0001
1000
0010
0100
0010
1000
0001
0010
0001
0100
0010
0100
0001
,
1000
0001
0100
0010
1000
0100
0010
0001
1000
0100
1000
0001
0100
0010
1000
0010
,
0100
0001
0010
0001
1000
0010
1000
0001
0100
0001
1000
0010
0100
0001
0010
0001
,
1000
0010
0100
0001
1000
0100
1000
0001
,
0100
0010
1000
0001
0010
0001
1000
0100
,
0010
0001
1000
0010
0100
0010
1000
0001
,
0100
0010
0100
0001
1000
0001
0100
0010
,
1000
0100
0010
0001
1000
0100
1000
0001
,
0010
0001
0100
0010
1000
0100
0010
0001
,
1000
0001
0010
0100
1000
0001
0010
0001
,
1000
0100
0010
0001
0100
0010
1000
0001
,
0100
0001
1000
0010
0100
0010
1000
0001
,
0010
0001
1000
0100
0010
0001
0100
0010
,
1000
0010
0100
0001
1000
0100
1000
0001
,
0100
0010
1000
0001
0010
0001
1000
0100
,
0010
0001
1000
0010
0100
0010
1000
0001
,
0100
0010
0100
0001
1000
0001
0100
0010
,
1000
0100
0010
0001
1000
0100
1000
0001
,
0010
0001
0100
0010
1000
0100
0010
0001
,
1000
0001
0010
0100
1000
0001
0010
0001
,
1000
0100
0010
0001
0100
0010
1000
0001
,
0100
0001
1000
0010
0100
0010
1000
0001
,
0010
0001
1000
0100
0010
0001
0100
0010
,
1000
0010
0100
0001
1000
0100
1000
0001
,
0100
0010
1000
0001
0010
0001
1000
0100
,
0010
0001
1000
0010
0100
0010
1000
0001
,
0100
0010
0100
0001
1000
0001
0100
0010
,
1000
0100
0010
0001
1000
0100
1000
0001
,
0010
0001
0100
0010
1000
0100
0010
0001
,
1000
0001
0010
0100
1000
0001
0010
0001
,
1000
0100
0010
0001
0100
0010
1000
0001
,
0100
0001
1000
0010
0100
0010
1000
0001
,
0010
0001
1000
0100
0010
0001
0100
0010
,
1000
0001
0100
0001
1000
0010
0100
0001
,
0010
0001
1000
0100
0010
0001
0100
0010
,
1000
0000
0001
0100
0010
1000
0001
0010
,
0001
1000
0100
0010
0001
0100
0010
1000
,
0010
0100
0001
1000
0001
0100
0010
1000
,
0001
0010
0001
1000
0100
0010
0001
1000
,
0100
1000
0001
0010
0001
0100
0010
1000
,
0010
0100
0001
1000
0001
0100
0001
1000
,
0010
0100
0001
1000
0100
0010
0001
1000
,
0100
1000
0001
0100
0001
1000
0010
0100
,
0010
1000
0001
0100
0001
1000
0100
1000
,
0001
0010
0001
1000
0010
1000
0100
0010
,
0001
0010
0100
1000
0001
0010
0001
1000
,
0100
1000
0001
0100
0001
1000
0010
0100
,
0001
1000
0100
1000
0001
0100
0001
1000
,
0010
0100
0001
1000
0100
0010
0001
0100
,
1000
0000
0001
0000
0100
0000
0001
0000
1000
0100
0010
0001
0010
0100
1000
0100
,
0010
0001
0010
0100
2000
0000
3200
0000
0320
0000
0032
0000
0203
0000
0310
0000
,
1000
0001
0100
0001
1000
0010
1000
0100
,
0010
0001
1000
0100
1000
0010
0100
0010
,
1000
0001
0100
0001
1000
0010
0100
0001
,
1000
0000
0100
0000
0010
0000
0001
0000
0100
0000
0010
0000
1000
0100
0010
0001
,
1000
0010
0100
0001
1000
0001
0100
0010
,
1000
0001
0010
0001
1000
0100
0010
0001
,
1000
0100
1000
0001
0100
0010
1000
0010
,
0100
0001
1000
0100
0010
0001
1000
0010
,
1000
0100
0010
0001
1000
0010
0100
0001
0010
0001
1000
0100
,
1000
0001
0100
0001
1000
0010
0100
0001
1000
0100
0010
0001
,
1000
0100
1000
0001
0010
0001
1000
0100
0010
0001
1000
0100
,
1000
0001
0100
0010
1000
0100
0010
0001
0100
0001
1000
0010
,
0100
0001
0100
0010
1000
0100
0010
0001
1000
0100
1000
0001
,
0010
0001
1000
0100
0010
0001
1000
0100
1000
0001
0100
0001
,
1000
0010
1000
0001
0100
0010
1000
0001
0010
0001
1000
0100
,
0010
0001
1000
0100
1000
0001
0100
0001
1000
0010
0100
0001
,
0010
0001
1000
0010
0100
0010
1000
0001
0010
0001
0100
0010
1000
0100
0010
0001
,
1000
0100
1000
0001
0100
0010
1000
0010
0100
0001
1000
0100
1000
0001
0100
0001
,
1000
0010
0100
0010
1000
0001
0010
0001
0100
0010
0100
0001
1000
0001
0100
0010
,
1000
0100
0010
0001
1000
0100
1000
0001
0100
0010
1000
0010
0100
0001
0010
0001
,
1000
0010
1000
0001
0100
0001
1000
0010
0100
0001
0010
0001
1000
0100
1000
0001
,
0100
0010
1000
0001
0010
0001
1000
0100
0010
0001
0100
0010
1000
0010
0100
0001
,
0010
0001
1000
0100
0010
0001
0100
0010
1000
0001
0100
0010
0100
0001
1000
0100
,
0010
0001
1000
0100
1000
0001
0100
0010
1000
0001
0010
0001
0100
0010
0100
0001
,
1000
0100
1000
0010
0100
0010
1000
0001
0100
0001
1000
0100
0010
0001
1000
0010
,
0100
0010
1000
0001
0010
0100
1000
0100
0010
0001
1000
0100
1000
0010
0100
0001
,
0100
0010
1000
0100
1000
0001
0100
0010
1000
0001
0010
0001
1000
0100
1000
0010
,
0100
0010
1000
0001
0100
0001
1000
0010
0100
0010
1000
0001
0010
0001
0100
0010
,
1000
0100
0010
0001
1000
0100
1000
0001
0100
0010
1000
0010
0100
0001
1000
0100
,
1000
0001
0100
0001
1000
0010
0100
0010
1000
0001
0010
0001
0100
0010
0100
0001
,
1000
0001
0100
0010
1000
0100
0010
0001
1000
0100
1000
0001
0100
0010
1000
0010
,
0100
0001
0010
0001
1000
0010
1000
0001
0100
0001
1000
0010
0100
0001
0010
0001
,
1000
0040
0130
0001
1000
0100
1000
0010
,
0100
0001
0010
0001
1000
0100
0010
0001
,
1000
0100
1000
0001
0100
0010
1000
0010
,
0100
0001
1000
0100
0010
0001
0100
0010
,
0100
0001
1000
0001
0100
0010
1000
0001
,
0010
0001
1000
0100
0010
0001
0100
0010
,
1000
0010
0100
0001
1000
0001
0100
0010
,
1000
0001
0010
0001
1000
0100
0010
0001
,
0100
0010
1000
0001
0010
0001
1000
0100
,
0010
0001
1000
0100
1000
0010
0100
0010
,
1000
0001
0100
0001
1000
0010
0100
0001
,
1000
0000
0100
0000
0010
0000
0001
0000
0100
0000
0010
0000
1000
0100
0010
0001
,
1000
0010
0100
0001
1000
0001
0100
0010
,
1000
0001
0010
0001
1000
0100
0010
0001
,
1000
0100
1000
0001
0100
0010
1000
0010
,
0100
0000
0001
0000
1000
0000
0100
0000
0010
0000
0001
0000
1000
0010
1000
0001
,
0100
0010
1000
0100
0010
0001
1000
0100
,
1000
0000
0001
0000
0010
0000
0001
0000
0100
0000
0010
0000
1000
0001
0100
0001
,
1000
0010
0100
0001
1000
0100
0010
0001
,
1000
0100
1000
0001
0100
0010
1000
0001
,
1000
0100
0010
0001
1000
0100
0010
0100
,
1000
0001
0100
0001
1000
0010
0100
0001
,
1000
0100
1000
0001
0010
0001
1000
0100
,
0010
0000
0001
0000
0100
0000
0010
0000
1000
0000
0001
0000
0100
0001
0010
0001
,
1000
0010
0100
0001
1000
0100
1000
0001
,
0100
0010
1000
0001
0010
0001
1000
0100
,
0010
0001
1000
0010
0100
0010
1000
0001
,
0100
0010
0100
0001
1000
0001
0100
0010
,
1000
0100
0010
0001
1000
0100
1000
0001
,
0010
0001
0100
0010
1000
0100
0010
0001
,
1000
0001
0010
0100
1000
0001
0010
0001
,
1000
0100
0010
0001
0100
0010
1000
0001
,
0100
0001
1000
0010
0100
0010
1000
0001
,
0010
0001
1000
0100
0010
0001
0100
0010
,
1000
0010
0100
0001
1000
0100
1000
0001
,
0100
0010
1000
0001
0010
0001
1000
0100
,
0010
0001
1000
0010
0100
0010
1000
0001
,
0100
0010
0100
0001
1000
0001
0100
0010
,
1000
0100
0010
0001
1000
0100
1000
0001
,
0010
0001
0100
0010
1000
0100
0010
0001
,
1000
0001
0010
0100
1000
0001
0010
0001
,
1000
0100
0010
0001
0100
0010
1000
0001
,
0100
0001
1000
0010
0100
0010
1000
0001
,
0010
0001
1000
0100
0010
0001
0100
0010
,
1000
0010
0100
0001
1000
0100
1000
0001
,
0100
0010
1000
0001
0010
0001
1000
0100
,
0010
0001
1000
0010
0100
0010
1000
0001
,
0100
0010
0100
0001
1000
0001
0100
0010
,
1000
0100
0010
0001
1000
0100
1000
0001
,
0010
0001
0100
0010
1000
0100
0010
0001
,
1000
0001
0010
0100
1000
0001
0010
0001
,
1000
0100
0010
0001
0100
0010
1000
0001
,
0100
0001
1000
0010
0100
0010
1000
0001
,
0010
0001
1000
0100
0010
0001
0100
0010
,
1000
0001
0100
0001
1000
0010
0100
0001
,
0010
0001
1000
0100
0010
0001
0100
0010
,
1000
0000
0001
0100
0010
1000
0001
0010
,
0001
1000
0100
0010
0001
0100
0010
1000
,
0010
0100
0001
1000
0001
0100
0010
1000
,
0001
0010
0001
1000
0100
0010
0001
1000
,
0100
1000
0001
0010
0001
0100
0010
1000
,
0010
0100
0001
1000
0001
0100
0001
1000
,
0010
0100
0001
1000
0100
0010
0001
1000
,
0100
1000
0001
0100
0001
1000
0010
0100
,
0010
1000
0001
0100
0001
1000
0100
1000
,
0001
0010
0001
1000
0010
1000
0100
0010
,
0001
0010
0100
1000
0001
0010
0001
1000
,
0100
1000
0001
0100
0001
1000
0010
0100
,
0001
1000
0100
1000
0001
0100
0001
1000
,
0010
0100
0001
1000
0100
0010
0001
0100
,
1000
0000
0001
0000
0100
0000
0001
0000
1000
0100
0010
0001
0010
0100
1000
0100
,
0010
0001
0010
0100
2000
0000
3200
0000
0320
0000
0032
0000
0203
0000
0310
0000
,
1000
0001
0100
0001
1000
0010
1000
0100
,
0010
0001
1000
0100
1000
0010
0100
0010
,
1000
0001
0100
0001
1000
0010
0100
0001
,
1000
0000
0100
0000
0010
0000
0001
0000
0100
0000
0010
0000
1000
0100
0010
0001
,
1000
0010
0100
0001
1000
0001
0100
0010
,
1000
0001
0010
0001
1000
0100
0010
0001
,
1000
0100
1000
0001
0100
0010
1000
0010
,
0100
0001
1000
0100
0010
0001
1000
0010
,
1000
0100
0010
0001
1000
0010
0100
0001
0010
0001
1000
0100
,
1000
0001
0100
0001
1000
0010
0100
0001
1000
0100
0010
0001
,
1000
0100
1000
0001
0010
0001
1000
0100
0010
0001
1000
0100
,
1000
0001
0100
0010
1000
0100
0010
0001
0100
0001
1000
0010
,
0100
0001
0100
0010
1000
0100
0010
0001
1000
0100
1000
0001
,
0010
0001
1000
0100
0010
0001
1000
0100
1000
0001
0100
0001
,
1000
0010
1000
0001
0100
0010
1000
0001
0010
0001
1000
0100
,
0010
0001
1000
0100
1000
0001
0100
0001
1000
0010
0100
0001
,
0010
0001
1000
0010
0100
0010
1000
0001
0010
0001
0100
0010
1000
0100
0010
0001
,
1000
0100
1000
0001
0100
0010
1000
0010
0100
0001
1000
0100
1000
0001
0100
0001
,
1000
0010
0100
0010
1000
0001
0010
0001
0100
0010
0100
0001
1000
0001
0100
0010
,
1000
0100
0010
0001
1000
0100
1000
0001
0100
0010
1000
0010
0100
0001
0010
0001
,
1000
0010
1000
0001
0100
0001
1000
0010
0100
0001
0010
0001
1000
0100
1000
0001
,
0100
0010
1000
0001
0010
0001
1000
0100
0010
0001
0100
0010
1000
0010
0100
0001
,
0010
0001
1000
0100
0010
0001
0100
0010
1000
0001
0100
0010
0100
0001
1000
0100
,
0010
0001
1000
0100
1000
0001
0100
0010
1000
0001
0010
0001
0100
0010
0100
0001
,
1000
0100
1000
0010
0100
0010
1000
0001
0100
0001
1000
0100
0010
0001
1000
0010
,
0100
0010
1000
0001
0010
0100
1000
0100
0010
0001
1000
0100
1000
0010
0100
0001
,
0100
0010
1000
0100
1000
0001
0100
0010
1000
0001
0010
0001
1000
0100
1000
0010
,
0100
0010
1000
0001
0100
0001
1000
0010
0100
0010
1000
0001
0010
0001
0100
0010
,
1000
0100
0010
0001
1000
0100
1000
0001
0100
0010
1000
0010
0100
0001
1000
0100
,
1000
0001
0100
0001
1000
0010
0100
0010
1000
0001
0010
0001
0100
0010
0100
0001
,
1000
0001
0100
0010
1000
0100
0010
0001
1000
0100
1000
0001
0100
0010
1000
0010
,
0100
0001
0010
0001
1000
0010
1000
0001
0100
0001
1000
0010
0100
0001
0010
0001
,
1000
0100
1000
0001
0100
0010
1000
0010
0100
0001
0010
0001
1000
0010
1000
0001
,
0100
0001
1000
0010
0100
0001
0010
0001
1000
0100
1000
0001
0100
0010
1000
0001
,
0010
0001
1000
0100
0010
0001
0100
0010
1000
0010
0100
0001
0010
0001
1000
0100
,
0010
0001
0100
0010
1000
0100
0010
0001
0100
0010
1000
0001
0010
0001
1000
0100
,
1000
0001
0100
0010
1000
0001
0010
0001
0100
0010
0100
0001
1000
0100
1000
0010
,
0100
0010
1000
0001
0100
0001
1000
0100
0010
0001
1000
0010
0100
0010
1000
0001
,
0010
0100
1000
0100
0010
0001
1000
0100
1000
0010
0100
0001
0100
0010
1000
0100
,
1000
0001
0100
0010
1000
0001
0010
0001
1000
0100
1000
0010
0100
0010
1000
0001
,
0100
0001
1000
0010
0100
0010
1000
0001
0010
0001
0100
0010
1000
0100
0010
0001
,
1000
0100
1000
0001
0100
0010
1000
0010
0100
0001
1000
0100
1000
0001
0100
0001
,
1000
0010
0100
0010
1000
0001
0010
0001
0100
0010
0100
0001
1000
0001
0100
0010
,
1000
0100
0010
0001
1000
0100
1000
0001
0100
0010
1000
0010
0100
0001
0010
0001
,
1000
0010
1000
0001
0100
0001
1000
0010
0100
0001
0010
0001
1000
0100
1000
0001
,
0100
0010
1000
0001
0010
0001
1000
0100
0010
0001
0100
0010
1000
0010
0100
0001
,
0010
0001
1000
0100
0010
0001
0100
0010
1000
0001
0100
0010
0100
0001
1000
0100
,
0010
0001
1000
0100
1000
0001
0100
0010
1000
0001
0010
0001
0100
0010
0100
0001
,
1000
0100
0010
0001
1000
0010
1000
0001
,
0010
0100
1000
0001
0100
0001
1000
0010
,
0100
0001
1000
0100
1000
0001
0100
0001
,
1000
0010
0100
0010
1000
0001
0010
0001
,
1000
0100
0010
0001
1000
0100
1000
0010
,
0100
0001
0100
0010
1000
0100
1000
0001
,
0010
0001
1000
0100
0010
0001
0100
0001
,
1000
0010
0100
0001
1000
0100
0010
0001
,
1000
0100
1000
0001
0100
0010
1000
0001
0010
0001
1000
0100
0010
0001
0100
0010
,
1000
0010
0100
0001
0010
0001
1000
0100
0010
0001
0100
0010
1000
0100
0010
0001
,
0100
0010
1000
0001
0010
0001
1000
0100
1000
0001
0100
0010
1000
0001
0010
0001
,
0100
0010
0100
0001
1000
0100
1000
0010
0100
0010
1000
0001
0100
0001
1000
0100
,
0010
0001
1000
0010
0100
0010
1000
0001
0100
0001
0010
0100
1000
0100
0010
0001
,
0100
0010
0100
0001
1000
0100
0010
0001
0100
0010
0100
0001
1000
0001
0100
0010
,
1000
0100
0010
0001
1000
0100
1000
0001
0100
0010
1000
0010
0100
0001
0010
0001
,
1000
0010
1000
0001
0100
0001
1000
0010
0100
0001
0010
0001
1000
0100
1000
0001
,
0100
0010
1000
0000
2002
0000
0000
0000
0000
0000
0000
0000
0000
0000
0000
0000
,
0000
0000
0000
0000
,
0000
0000
0000
0000
,
0000
0000
0000
0000
,
3003
0000
0000
MMMM
,
0000
0000
0000
0000
,
0000
0000
0000
0000
,
0000
0000
0000
0000
,
0000
0000
0000
0000
,
0000
0000
0000
0000
,
0000
0000
0000
0000
,
0000
0000
0000
0000
,
0000
0000
0000
0000
,
0000
0000
0000
0000
,
0000
0000
0000
0000
,
0000
0000
0000
0000
,
0000
0000
0000
0000
,
0000
0000
0000
0000
,
0000
0000
0000
0000
,
0000
0000
0000
0000
,
0000
0000
0000
0000
,
0000
0000
0000
0000
,
0000
0000
0000
0000
,
0000
0000
0000
0000
,
0000
0000
0000
0000
,
0000
0000
0000
0000
,
0000
0000
0000
0000
,
0000
0000
0000
0000
;

//---------------dance-single - 24 (owenviau1)----------------
#NOTES:
     dance-single:
     24 (owenviau1):
     Challenge:
     24:
     1.000,1.000,0.007,0.045,1.000,3895.000,2.000,13.000,4.000,0.000:
0000
0000
0000
0000
,
0000
0000
0000
0000
,
0000
0000
0000
0000
,
0000
0000
0000
0000
,
0000
0000
0000
0000
,
0000
0000
0000
0000
,
0000
0000
0000
0000
,
0000
0000
0000
0000
,
0000
0000
0000
0000
,
0000
0000
0000
0000
,
0000
0000
0000
0000
,
0000
0000
0000
0000
,
0000
0000
0000
0000
,
0000
0000
0000
0000
,
0000
0000
0000
0000
,
0000
0000
0000
0000
,
1000
0100
0010
0001
0100
0010
1000
0001
0010
0001
1000
0100
1000
0001
0100
0010
,
1000
0001
0010
0001
0100
0010
0100
0001
1000
0100
1000
0010
0100
0010
1000
0001
,
0100
0001
1000
0100
0010
0001
1000
0010
0100
0010
1000
0001
0010
0100
1000
0100
,
0010
0001
1000
0100
1000
0010
0100
0001
0100
0010
1000
0100
1000
0001
0100
0010
,
1000
0001
0010
0001
1000
0100
1000
0010
0100
0010
1000
0001
0100
0001
1000
0010
,
0100
0010
1000
0001
0010
0001
0100
0010
1000
0100
0010
0001
1000
0100
1000
0001
,
0100
0010
1000
0010
0100
0001
1000
0100
1000
0001
0100
0001
1000
0010
0100
0010
,
1000
0001
0010
0001
0100
0010
0100
0001
1000
0001
0100
0010
1000
0100
0010
0001
,
1000
0100
1000
0001
0100
0010
1000
0010
0100
0001
0010
0001
1000
0010
1000
0001
,
0100
0001
1000
0010
0100
0001
0010
0001
1000
0100
1000
0001
0100
0010
1000
0001
,
0010
0001
1000
0100
0010
0001
0100
0010
1000
0010
0100
0001
0010
0001
1000
0100
,
0010
0001
0100
0010
1000
0100
0010
0001
0100
0010
1000
0001
0010
0001
1000
0100
,
1000
0001
0100
0010
1000
0001
0010
0001
0100
0010
0100
0001
1000
0100
1000
0010
,
0100
0010
1000
0001
0100
0001
1000
0100
0010
0001
1000
0010
0100
0010
1000
0001
,
0010
0100
1000
0100
0010
0001
1000
0100
1000
0010
0100
0001
0100
0010
1000
0100
,
1000
0001
0100
0010
1000
0001
0010
0001
1000
0100
1000
0010
0100
0010
1000
0001
,
0100
0001
1000
0010
0100
0010
1000
0001
0010
0001
0100
0010
1000
0100
0010
0001
,
1000
0100
1000
0001
0100
0010
1000
0010
0100
0001
1000
0100
1000
0001
0100
0001
,
1000
0010
0100
0010
1000
0001
0010
0001
0100
0010
0100
0001
1000
0001
0100
0010
,
1000
0100
0010
0001
1000
0100
1000
0001
0100
0010
1000
0010
0100
0001
0010
0001
,
1000
0010
1000
0001
0100
0001
1000
0010
0100
0001
0010
0001
1000
0100
1000
0001
,
0100
0010
1000
0001
0010
0001
1000
0100
0010
0001
0100
0010
1000
0010
0100
0001
,
0010
0001
1000
0100
0010
0001
0100
0010
1000
0100
0010
0001
0100
0010
1000
0001
,
0010
0001
1000
0100
1000
0001
0100
0010
1000
0001
0010
0001
0100
0010
0100
0001
,
1000
0100
1000
0010
0100
0010
1000
0001
0100
0001
1000
0100
0010
0001
1000
0010
,
0100
0010
1000
0001
0010
0100
1000
0100
0010
0001
1000
0100
1000
0010
0100
0001
,
0100
0010
1000
0100
1000
0001
0100
0010
1000
0001
0010
0001
1000
0100
1000
0010
,
0100
0010
1000
0001
0100
0001
1000
0010
0100
0010
1000
0001
0010
0001
0100
0010
,
1000
0100
0010
0001
1000
0100
1000
0001
0100
0010
1000
0010
0100
0001
1000
0100
,
1000
0001
0100
0001
1000
0010
0100
0010
1000
0001
0010
0001
0100
0010
0100
0001
,
1000
0001
0100
0010
1000
0100
0010
0001
1000
0100
1000
0001
0100
0010
1000
0010
,
0100
0001
0010
0001
1000
0010
1000
0001
0100
0001
1000
0010
0100
0001
0010
0001
,
1000
0100
1000
0001
0100
0010
1000
0001
0010
0001
1000
0100
0010
0001
0100
0010
,
1000
0010
0100
0001
0010
0001
1000
0100
0010
0001
0100
0010
1000
0100
0010
0001
,
0100
0010
1000
0001
0010
0001
1000
0100
1000
0001
0100
0010
1000
0001
0010
0001
,
0100
0010
0100
0001
1000
0100
1000
0010
0100
0010
1000
0001
0100
0001
1000
0100
,
0010
0001
1000
0010
0100
0010
1000
0001
0010
0100
1000
0100
0010
0001
1000
0100
,
1000
0010
0100
0001
0100
0010
1000
0100
1000
0001
0100
0010
1000
0001
0010
0001
,
1000
0100
1000
0010
0100
0010
1000
0001
0100
0001
1000
0010
0100
0010
1000
0001
,
0010
0001
0100
0010
1000
0100
0010
0001
1000
0100
1000
0001
0100
0010
1000
0010
,
0100
0001
1000
0100
1000
0001
0100
0001
1000
0010
0100
0010
1000
0001
0010
0001
,
0100
0010
0100
0001
1000
0001
0100
0010
1000
0100
0010
0001
1000
0100
1000
0001
,
0100
0010
1000
0010
0100
0001
0010
0001
1000
0010
1000
0001
0100
0001
1000
0010
,
0100
0001
0010
0001
1000
0100
1000
0001
0100
0010
1000
0001
0010
0001
1000
0100
,
0010
0001
0100
0010
1000
0010
0100
0001
0010
0001
1000
0100
0010
0001
0100
0010
,
1000
0100
0010
0001
0100
0010
1000
0001
0010
0001
1000
0100
1000
0001
0100
0010
,
1000
0001
0010
0001
0100
0010
0100
0001
1000
0100
1000
0010
0100
0010
1000
0001
,
0100
0001
1000
0100
0010
0001
1000
0010
0100
0010
1000
0001
0010
0100
1000
0100
,
0010
0001
1000
0100
1000
0010
0100
0001
0100
0010
1000
0100
1000
0001
0100
0010
,
1000
0001
0010
0001
1000
0100
1000
0010
0100
0010
1000
0001
0100
0001
1000
0010
,
0100
0010
1000
0001
0010
0001
0100
0010
1000
0100
0010
0001
1000
0100
1000
0001
,
0100
0010
1000
0010
0100
0001
1000
0100
1000
0001
0100
0001
1000
0010
0100
0010
,
1000
0001
0010
0001
0100
0010
0100
0001
1000
0001
0100
0010
1000
0100
0010
0001
,
1000
0100
1000
0001
0100
0010
1000
0010
0100
0001
0010
0001
1000
0010
1000
0001
,
0100
0001
1000
0010
0100
0001
0010
0001
1000
0100
1000
0001
0100
0010
1000
0001
,
0010
0001
1000
0100
0010
0001
0100
0010
1000
0010
0100
0001
0010
0001
1000
0100
,
0010
0001
0100
0010
1000
0100
0010
0001
0100
0010
1000
0001
0010
0001
1000
0100
,
1000
0001
0100
0010
1000
0001
0010
0001
0100
0010
0100
0001
1000
0100
1000
0010
,
0100
0010
1000
0001
0100
0001
1000
0100
0010
0001
1000
0010
0100
0010
1000
0001
,
0010
0100
1000
0100
0010
0001
1000
0100
1000
0010
0100
0001
0100
0010
1000
0100
,
1000
0001
0100
0010
1000
0001
0010
0001
1000
0100
1000
0010
0100
0010
1000
0001
,
0100
0001
1000
0010
0100
0010
1000
0001
0010
0001
0100
0010
1000
0100
0010
0001
,
1000
0100
1000
0001
0100
0010
1000
0010
0100
0001
1000
0100
1000
0001
0100
0001
,
1000
0010
0100
0010
1000
0001
0010
0001
0100
0010
0100
0001
1000
0001
0100
0010
,
1000
0100
0010
0001
1000
0100
1000
0001
0100
0010
1000
0010
0100
0001
0010
0001
,
1000
0010
1000
0001
0100
0001
1000
0010
0100
0001
0010
0001
1000
0100
1000
0001
,
0100
0010
1000
0001
0010
0001
1000
0100
0010
0001
0100
0010
1000
0010
0100
0001
,
0010
0001
1000
0100
0010
0001
0100
0010
1000
0100
0010
0001
0100
0010
1000
0001
,
0010
0001
1000
0100
1000
0001
0100
0010
1000
0001
0010
0001
0100
0010
0100
0001
,
1000
0100
1000
0010
0100
0010
1000
0001
0100
0001
1000
0100
0010
0001
1000
0010
,
0100
0010
1000
0001
0010
0100
1000
0100
0010
0001
1000
0100
1000
0010
0100
0001
,
0100
0010
1000
0100
1000
0001
0100
0010
1000
0001
0010
0001
1000
0100
1000
0010
,
0100
0010
1000
0001
0100
0001
1000
0010
0100
0010
1000
0001
0010
0001
0100
0010
,
1000
0100
0010
0001
1000
0100
1000
0001
0100
0010
1000
0010
0100
0001
1000
0100
,
1000
0001
0100
0001
1000
0010
0100
0010
1000
0001
0010
0001
0100
0010
0100
0001
,
1000
0001
0100
0010
1000
0100
0010
0001
1000
0100
1000
0001
0100
0010
1000
0010
,
0100
0001
0010
0001
1000
0010
1000
0001
0100
0001
1000
0010
0100
0001
0010
0001
,
1000
0100
1000
0001
0100
0010
1000
0001
0010
0001
1000
0100
0010
0001
0100
0010
,
1000
0010
0100
0001
0010
0001
1000
0010
1000
0100
0010
0001
0010
0100
1000
0100
,
0010
0001
0010
0100
2000
0000
3200
0000
0320
0000
0032
0000
0203
0000
0310
0000
,
1000
0001
0100
0010
0100
0001
1000
0100
0010
0001
1000
0100
1000
0001
0100
0010
,
1000
0001
0010
0001
0100
0010
0100
0001
1000
0100
1000
0010
0100
0010
1000
0001
,
0100
0001
1000
0100
0010
0001
1000
0010
0100
0010
1000
0001
0010
0100
1000
0100
,
0010
0001
1000
0100
1000
0010
0100
0001
0100
0010
1000
0100
1000
0001
0100
0010
,
1000
0001
0010
0001
1000
0100
1000
0010
0100
0010
1000
0001
0100
0001
1000
0010
,
0100
0010
1000
0001
0010
0001
0100
0010
1000
0100
0010
0001
1000
0100
1000
0001
,
0100
0010
1000
0010
0100
0001
1000
0100
1000
0001
0100
0001
1000
0010
0100
0010
,
1000
0001
0010
0001
0100
0010
0100
0001
1000
0001
0100
0010
1000
0100
0010
0001
,
1000
0100
1000
0001
0100
0010
1000
0010
0100
0001
0010
0001
1000
0010
1000
0001
,
0100
0001
1000
0010
0100
0001
0010
0001
1000
0100
1000
0001
0100
0010
1000
0001
,
0010
0001
1000
0100
0010
0001
0100
0010
1000
0010
0100
0001
0010
0001
1000
0100
,
0010
0001
0100
0010
1000
0100
0010
0001
0100
0010
1000
0001
0010
0001
1000
0100
,
1000
0001
0100
0010
1000
0001
0010
0001
0100
0010
0100
0001
1000
0100
1000
0010
,
0100
0010
1000
0001
0100
0001
1000
0100
0010
0001
1000
0010
0100
0010
1000
0001
,
0010
0100
1000
0100
0010
0001
1000
0100
1000
0010
0100
0001
0100
0010
1000
0100
,
1000
0001
0100
0010
1000
0001
0010
0001
1000
0100
1000
0010
0100
0010
1000
0001
,
0100
0001
1000
0010
0100
0010
1000
0001
0010
0001
0100
0010
1000
0100
0010
0001
,
1000
0100
1000
0001
0100
0010
1000
0010
0100
0001
1000
0100
1000
0001
0100
0001
,
1000
0010
0100
0010
1000
0001
0010
0001
0100
0010
0100
0001
1000
0001
0100
0010
,
1000
0100
0010
0001
1000
0100
1000
0001
0100
0010
1000
0010
0100
0001
0010
0001
,
1000
0010
1000
0001
0100
0001
1000
0010
0100
0001
0010
0001
1000
0100
1000
0001
,
0100
0010
1000
0001
0010
0001
1000
0100
0010
0001
0100
0010
1000
0010
0100
0001
,
0010
0001
1000
0100
0010
0001
0100
0010
1000
0001
0100
0010
0100
0001
1000
0100
,
0010
0001
1000
0100
1000
0001
0100
0010
1000
0001
0010
0001
0100
0010
0100
0001
,
1000
0100
1000
0010
0100
0010
1000
0001
0100
0001
1000
0100
0010
0001
1000
0010
,
0100
0010
1000
0001
0010
0100
1000
0100
0010
0001
1000
0100
1000
0010
0100
0001
,
0100
0010
1000
0100
1000
0001
0100
0010
1000
0001
0010
0001
1000
0100
1000
0010
,
0100
0010
1000
0001
0100
0001
1000
0010
0100
0010
1000
0001
0010
0001
0100
0010
,
1000
0100
0010
0001
1000
0100
1000
0001
0100
0010
1000
0010
0100
0001
1000
0100
,
1000
0001
0100
0001
1000
0010
0100
0010
1000
0001
0010
0001
0100
0010
0100
0001
,
1000
0001
0100
0010
1000
0100
0010
0001
1000
0100
1000
0001
0100
0010
1000
0010
,
0100
0001
0010
0001
1000
0010
1000
0001
0100
0001
1000
0010
0100
0001
0010
0001
,
1000
0040
0130
0001
1000
0100
1000
0010
,
0100
0001
0010
0001
1000
0100
0010
0001
,
1000
0100
1000
0001
0100
0010
1000
0010
,
0100
0001
1000
0100
0010
0001
0100
0010
,
0100
0001
1000
0001
0100
0010
1000
0001
,
0010
0001
1000
0100
0010
0001
0100
0010
,
1000
0010
0100
0001
1000
0001
0100
0010
,
1000
0001
0010
0001
1000
0100
0010
0001
,
1000
0001
0010
0100
1000
0100
0010
0001
0100
0010
0100
0001
1000
0100
0010
0001
,
0100
0010
0100
0001
1000
0001
0100
0010
1000
0100
0010
0001
1000
0100
1000
0001
,
0100
0010
1000
0010
0100
0001
0010
0001
1000
0010
1000
0001
0100
0001
1000
0010
,
0100
0001
0010
0001
1000
0100
1000
0001
0100
0010
1000
0001
0010
0001
1000
0100
,
0010
0001
0100
0010
1000
0010
0100
0001
0010
0001
1000
0100
0010
0001
0100
0010
,
1000
0001
0100
0010
0100
0001
1000
0100
0010
0001
1000
0100
1000
0001
0100
0010
,
1000
0001
0010
0001
0100
0010
0100
0001
1000
0100
1000
0010
0100
0010
1000
0001
,
0100
0001
1000
0100
0010
0001
1000
0010
0100
0010
1000
0001
0010
0100
1000
0100
,
0010
0001
1000
0100
1000
0010
0100
0001
0100
0010
1000
0100
1000
0001
0100
0010
,
1000
0001
0010
0001
1000
0100
1000
0010
0100
0010
1000
0001
0100
0001
1000
0010
,
0100
0010
1000
0001
0010
0001
0100
0010
1000
0100
0010
0001
1000
0100
1000
0001
,
0100
0010
1000
0010
0100
0001
1000
0100
1000
0001
0100
0001
1000
0010
0100
0010
,
1000
0001
0010
0001
0100
0010
0100
0001
1000
0001
0100
0010
1000
0100
0010
0001
,
1000
0100
1000
0001
0100
0010
1000
0010
0100
0001
0010
0001
1000
0010
1000
0001
,
0100
0001
1000
0010
0100
0001
0010
0001
1000
0100
1000
0001
0100
0010
1000
0001
,
0010
0001
1000
0100
0010
0001
0100
0010
1000
0010
0100
0001
0010
0001
1000
0100
,
0010
0001
0100
0010
1000
0100
0010
0001
0100
0010
1000
0001
0010
0001
1000
0100
,
1000
0001
0100
0010
1000
0001
0010
0001
0100
0010
0100
0001
1000
0100
1000
0010
,
0100
0010
1000
0001
0100
0001
1000
0100
0010
0001
1000
0010
0100
0010
1000
0001
,
0010
0100
1000
0100
0010
0001
1000
0100
1000
0010
0100
0001
0100
0010
1000
0100
,
1000
0001
0100
0010
1000
0001
0010
0001
1000
0100
1000
0010
0100
0010
1000
0001
,
0100
0001
1000
0010
0100
0010
1000
0001
0010
0001
0100
0010
1000
0100
0010
0001
,
1000
0100
1000
0001
0100
0010
1000
0010
0100
0001
1000
0100
1000
0001
0100
0001
,
1000
0010
0100
0010
1000
0001
0010
0001
0100
0010
0100
0001
1000
0001
0100
0010
,
1000
0100
0010
0001
1000
0100
1000
0001
0100
0010
1000
0010
0100
0001
0010
0001
,
1000
0010
1000
0001
0100
0001
1000
0010
0100
0001
0010
0001
1000
0100
1000
0001
,
0100
0010
1000
0001
0010
0001
1000
0100
0010
0001
0100
0010
1000
0010
0100
0001
,
0010
0001
1000
0100
0010
0001
0100
0010
1000
0001
0100
0010
0100
0001
1000
0100
,
0010
0001
1000
0100
1000
0001
0100
0010
1000
0001
0010
0001
0100
0010
0100
0001
,
1000
0100
1000
0010
0100
0010
1000
0001
0100
0001
1000
0100
0010
0001
1000
0010
,
0100
0010
1000
0001
0010
0100
1000
0100
0010
0001
1000
0100
1000
0010
0100
0001
,
0100
0010
1000
0100
1000
0001
0100
0010
1000
0001
0010
0001
1000
0100
1000
0010
,
0100
0010
1000
0001
0100
0001
1000
0010
0100
0010
1000
0001
0010
0001
0100
0010
,
1000
0100
0010
0001
1000
0100
1000
0001
0100
0010
1000
0010
0100
0001
1000
0100
,
1000
0001
0100
0001
1000
0010
0100
0010
1000
0001
0010
0001
0100
0010
0100
0001
,
1000
0001
0100
0010
1000
0100
0010
0001
1000
0100
1000
0001
0100
0010
1000
0010
,
0100
0001
0010
0001
1000
0010
1000
0001
0100
0001
1000
0010
0100
0001
0010
0001
,
1000
0100
1000
0001
0100
0010
1000
0001
0010
0001
1000
0100
0010
0001
0100
0010
,
1000
0010
0100
0001
0010
0001
1000
0100
0010
0001
0100
0010
1000
0100
0010
0001
,
0100
0010
1000
0001
0010
0001
1000
0100
1000
0001
0100
0010
1000
0001
0010
0001
,
0100
0010
0100
0001
1000
0100
1000
0010
0100
0010
1000
0001
0100
0001
1000
0100
,
0010
0001
1000
0010
0100
0010
1000
0001
0100
0001
0010
0100
1000
0100
0010
0001
,
0100
0010
0100
0001
1000
0100
0010
0001
0100
0010
0100
0001
1000
0001
0100
0010
,
1000
0100
0010
0001
1000
0100
1000
0001
0100
0010
1000
0010
0100
0001
0010
0001
,
1000
0010
1000
0001
0100
0001
1000
0010
0100
0001
0010
0001
1000
0100
1000
0001
,
0100
0010
1000
0001
0010
0001
1000
0100
0010
0001
0100
0010
1000
0010
0100
0001
,
0010
0001
1000
0100
0010
0001
0100
0010
1000
0001
0100
0010
0100
0001
1000
0100
,
0010
0001
1000
0100
1000
0001
0100
0010
1000
0001
0010
0001
0100
0010
0100
0001
,
1000
0100
1000
0010
0100
0010
1000
0001
0100
0001
1000
0100
0010
0001
1000
0010
,
0100
0010
1000
0001
0010
0100
1000
0100
0010
0001
1000
0100
1000
0010
0100
0001
,
0100
0010
1000
0100
1000
0001
0100
0010
1000
0001
0010
0001
1000
0100
1000
0010
,
0100
0010
1000
0001
0100
0001
1000
0010
0100
0010
1000
0001
0010
0001
0100
0010
,
1000
0100
0010
0001
1000
0100
1000
0001
0100
0010
1000
0010
0100
0001
1000
0100
,
1000
0001
0100
0001
1000
0010
0100
0010
1000
0001
0010
0001
0100
0010
0100
0001
,
1000
0001
0100
0010
1000
0100
0010
0001
1000
0100
1000
0001
0100
0010
1000
0010
,
0100
0001
0010
0001
1000
0010
1000
0001
0100
0001
1000
0010
0100
0001
0010
0001
,
1000
0100
1000
0001
0100
0010
1000
0001
0010
0001
1000
0100
0010
0001
0100
0010
,
1000
0010
0100
0001
0010
0001
1000
0100
0010
0001
0100
0010
1000
0100
0010
0001
,
0100
0010
1000
0001
0010
0001
1000
0100
1000
0001
0100
0010
1000
0001
0010
0001
,
0100
0010
0100
0001
1000
0100
1000
0010
0100
0010
1000
0001
0100
0001
1000
0100
,
0010
0001
1000
0010
0100
0010
1000
0001
0010
0100
1000
0100
0010
0001
1000
0100
,
1000
0010
0100
0001
0100
0010
1000
0100
1000
0001
0100
0010
1000
0001
0010
0001
,
1000
0100
1000
0010
0100
0010
1000
0001
0100
0001
1000
0010
0100
0010
1000
0001
,
0010
0001
0100
0010
2000
0000
3200
0000
0320
0000
0032
0000
2003
0000
3020
0000
,
0130
0001
1000
0100
1000
0001
0100
0001
1000
0010
0100
0010
1000
0001
0010
0001
,
0100
0010
0100
0001
1000
0001
0100
0010
1000
0100
0010
0001
1000
0100
1000
0001
,
0100
0010
1000
0010
0100
0001
0010
0001
1000
0010
1000
0001
0100
0001
1000
0010
,
0100
0001
0010
0001
1000
0100
1000
0001
0100
0010
1000
0001
0010
0001
1000
0100
,
0010
0001
0100
0010
1000
0010
0100
0001
0010
0001
1000
0100
0010
0001
0100
0010
,
1000
0001
0100
0010
0100
0001
1000
0100
0010
0001
1000
0100
1000
0001
0100
0010
,
1000
0001
0010
0001
0100
0010
0100
0001
1000
0100
1000
0010
0100
0010
1000
0001
,
0100
0001
1000
0100
0010
0001
1000
0010
0100
0010
1000
0001
0010
0100
1000
0100
,
0010
0001
1000
0100
1000
0010
0100
0001
0100
0010
1000
0100
1000
0001
0100
0010
,
1000
0001
0010
0001
1000
0100
1000
0010
0100
0010
1000
0001
0100
0001
1000
0010
,
0100
0010
1000
0001
0010
0001
0100
0010
1000
0100
0010
0001
1000
0100
1000
0001
,
0100
0010
1000
0010
0100
0001
1000
0100
1000
0001
0100
0001
1000
0010
0100
0010
,
1000
0001
0010
0001
0100
0010
0100
0001
1000
0001
0100
0010
1000
0100
0010
0001
,
1000
0100
1000
0001
0100
0010
1000
0010
0100
0001
0010
0001
1000
0010
1000
0001
,
0100
0001
1000
0010
0100
0001
0010
0001
1000
0100
1000
0001
0100
0010
1000
0001
,
0010
0001
1000
0100
0010
0001
0100
0010
1000
0010
0100
0001
0010
0001
1000
0100
,
0010
0001
0100
0010
1000
0100
0010
0001
0100
0010
1000
0001
0010
0001
1000
0100
,
1000
0001
0100
0010
1000
0001
0010
0001
0100
0010
0100
0001
1000
0100
1000
0010
,
0100
0010
1000
0001
0100
0001
1000
0100
0010
0001
1000
0010
0100
0010
1000
0001
,
0100
0001
0010
0100
1000
0100
0010
0001
0100
0010
0100
0001
1000
0100
0010
0001
,
0100
0010
0100
0001
1000
0001
0100
0010
1000
0100
0010
0001
1000
0100
1000
0001
,
0100
0010
1000
0010
0100
0001
0010
0001
1000
0010
1000
0001
0100
0001
1000
0010
,
0100
0001
0010
0001
1000
0100
1000
0001
0100
0010
1000
0001
0010
0001
1000
0100
,
0010
0001
0100
0010
1000
0010
0100
0001
0010
0001
1000
0100
0010
0001
0100
0010
,
1000
0001
0100
0010
0100
0001
1000
0100
0010
0001
1000
0100
1000
0001
0100
0010
,
1000
0001
0010
0001
0100
0010
0100
0001
1000
0100
1000
0010
0100
0010
1000
0001
,
0100
0001
1000
0100
0010
0001
1000
0010
0100
0010
1000
0001
0010
0100
1000
0100
,
0010
0001
1000
0100
1000
0010
0100
0001
0100
0010
1000
0100
1000
0001
0100
0010
,
1000
0001
0010
0001
1000
0100
1000
0010
0100
0010
1000
0001
0100
0001
1000
0010
,
0100
0010
1000
0001
0010
0001
0100
0010
1000
0100
0010
0001
1000
0100
1000
0001
,
0100
0010
1000
0010
0100
0001
1000
0100
1000
0001
0100
0001
1000
0010
0100
0010
,
1000
0001
0010
0001
0100
0010
0100
0001
1000
0001
0100
0010
1000
0100
0010
0001
,
1000
0100
1000
0001
0100
0010
1000
0010
0100
0001
0010
0001
1000
0010
1000
0001
,
0100
0001
1000
0010
0100
0001
0010
0001
1000
0100
1000
0001
0100
0010
1000
0001
,
0010
0001
1000
0100
0010
0001
0100
0010
1000
0010
0100
0001
0010
0001
1000
0100
,
0010
0001
0100
0010
1000
0100
0010
0001
0100
0010
1000
0001
0010
0001
1000
0100
,
1000
0001
0100
0010
1000
0001
0010
0001
0100
0010
0100
0001
1000
0100
1000
0010
,
0100
0010
1000
0001
0100
0001
1000
0100
0010
0001
1000
0010
0100
0010
1000
0001
,
0010
0100
1000
0100
0010
0001
1000
0100
1000
0010
0100
0001
0100
0010
1000
0100
,
1000
0001
0100
0010
1000
0001
0010
0001
1000
0100
1000
0010
0100
0010
1000
0001
,
0100
0001
1000
0010
0100
0010
1000
0001
0010
0001
0100
0010
1000
0100
0010
0001
,
1000
0100
1000
0001
0100
0010
1000
0010
0100
0001
1000
0100
1000
0001
0100
0001
,
1000
0010
0100
0010
1000
0001
0010
0001
0100
0010
0100
0001
1000
0001
0100
0010
,
1000
0100
0010
0001
1000
0100
1000
0001
0100
0010
1000
0010
0100
0001
0010
0001
,
1000
0010
1000
0001
0100
0001
1000
0010
0100
0001
0010
0001
1000
0100
1000
0001
,
0100
0010
1000
0001
0010
0001
1000
0100
0010
0001
0100
0010
1000
0010
0100
0001
,
0010
0001
1000
0100
0010
0001
0100
0010
1000
0001
0100
0010
0100
0001
1000
0100
,
0010
0001
1000
0100
1000
0001
0100
0010
1000
0001
0010
0001
0100
0010
0100
0001
,
1000
0100
1000
0010
0100
0010
1000
0001
0100
0001
1000
0100
0010
0001
1000
0010
,
0100
0010
1000
0001
0010
0100
1000
0100
0010
0001
1000
0100
1000
0010
0100
0001
,
0100
0010
1000
0100
1000
0001
0100
0010
1000
0001
0010
0001
1000
0100
1000
0010
,
0100
0010
1000
0001
0100
0001
1000
0010
0100
0010
1000
0001
0010
0001
0100
0010
,
1000
0100
0010
0001
1000
0100
1000
0001
0100
0010
1000
0010
0100
0001
1000
0100
,
1000
0001
0100
0001
1000
0010
0100
0010
1000
0001
0010
0001
0100
0010
0100
0001
,
1000
0001
0100
0010
1000
0100
0010
0001
1000
0100
1000
0001
0100
0010
1000
0010
,
0100
0001
0010
0001
1000
0010
1000
0001
0100
0001
1000
0010
0100
0001
0010
0001
,
1000
0100
1000
0001
0100
0010
1000
0001
0010
0001
1000
0100
0010
0001
0100
0010
,
1000
0010
0100
0001
0010
0001
1000
0100
0010
0001
0100
0010
1000
0100
0010
0001
,
0100
0010
1000
0001
0010
0001
1000
0100
1000
0001
0100
0010
1000
0001
0010
0001
,
0100
0010
0100
0001
1000
0100
1000
0010
0100
0010
1000
0001
0100
0001
1000
0100
,
0010
0001
1000
0010
0100
0010
1000
0001
0100
0001
0010
0100
1000
0100
0010
0001
,
0100
0010
0100
0001
1000
0100
0010
0001
0100
0010
0100
0001
1000
0001
0100
0010
,
1000
0100
0010
0001
1000
0100
1000
0001
0100
0010
1000
0010
0100
0001
0010
0001
,
1000
0010
1000
0001
0100
0001
1000
0010
0100
0001
0010
0001
1000
0100
1000
0001
,
0100
0010
1000
0000
2002
0000
0000
0000
0000
0000
0000
0000
0000
0000
0000
0000
,
0000
0000
0000
0000
,
0000
0000
0000
0000
,
0000
0000
0000
0000
,
3003
0000
0000
MMMM
,
0000
0000
0000
0000
,
0000
0000
0000
0000
,
0000
0000
0000
0000
,
0000
0000
0000
0000
,
0000
0000
0000
0000
,
0000
0000
0000
0000
,
0000
0000
0000
0000
,
0000
0000
0000
0000
,
0000
0000
0000
0000
,
0000
0000
0000
0000
,
0000
0000
0000
0000
,
0000
0000
0000
0000
,
0000
0000
0000
0000
,
0000
0000
0000
0000
,
0000
0000
0000
0000
,
0000
0000
0000
0000
,
0000
0000
0000
0000
,
0000
0000
0000
0000
,
0000
0000
0000
0000
,
0000
0000
0000
0000
,
0000
0000
0000
0000
,
0000
0000
0000
0000
,
0000
0000
0000
0000
;
