#TITLE:Subaru in the Wind;
#SUBTITLE:;
#ARTIST:DJ Sharpnel;
#TITLETRANSLIT:;
#SUBTITLETRANSLIT:;
#ARTISTTRANSLIT:;
#CREDIT:;
#BANNER:subaru in the bn.png;
#BACKGROUND:subaru in the bg.png;
#LYRICSPATH:;
#CDTITLE:;
#MUSIC:DJ Sharpnel - Subaru In the Wind.ogg;
#OFFSET:-1.000;
#SAMPLESTART:157.757;
#SAMPLELENGTH:20.514;
#SELECTABLE:YES;
#BPMS:0.000=187.180;
#STOPS:;
#BGCHANGES:;
// cache tags:
#FIRSTBEAT:0.000;
#LASTBEAT:694.000;
#SONGFILENAME:Songs/SHARPNELSTREAMZ v2/Subaru in the Wind/Subaru in the Wind.sm;
#HASMUSIC:1;
#HASBANNER:1;
#MUSICLENGTH:225.880;
// end cache tags

//---------------dance-single - 17 (@@)----------------
#NOTES:
     dance-single:
     17 (@@):
     Challenge:
     17:
     1.000,1.000,0.000,0.004,1.000,2660.000,0.000,1.000,1.000,0.000:
0001
0000
0000
0000
1000
0100
1000
0001
0010
0100
1000
0001
0100
0010
0100
0001
,
1000
0010
0100
0001
1000
0100
1000
0001
0010
0100
1000
0001
1000
0010
0100
0001
,
0010
0100
1000
0001
0100
0010
0100
0001
1000
0010
1000
0001
0010
0100
0010
0001
,
1000
0100
0010
0001
1000
0010
1000
0001
0100
0001
1000
0010
1000
0001
0010
0001
,
0100
0010
1000
0001
1000
0100
0010
0100
1000
0001
0010
0100
1000
0001
0100
0010
,
1000
0010
0100
0001
1000
0100
1000
0001
0010
0100
1000
0001
0100
0010
1000
0100
,
0010
0100
1000
0001
1000
0010
0100
0010
1000
0001
0100
0001
1000
0100
0010
0001
,
1000
0100
0010
0100
1000
0001
0100
0001
1000
0010
0100
0001
1000
0100
1000
0010
,
0100
0001
1000
0001
0010
0100
0010
0001
1000
0010
1000
0001
0010
0100
0010
0001
,
1000
0010
1000
0001
0010
0100
0010
0001
1000
0010
1000
0001
0010
0100
0010
0001
,
0100
0010
1000
0001
0100
0010
0100
0001
1000
0100
1000
0001
0100
0010
0100
0001
,
1000
0100
1000
0001
0100
0010
0100
0001
1000
0100
1000
0001
0100
0010
0100
0001
,
0010
0100
1000
0001
1000
0100
0010
0100
1000
0001
0100
0001
1000
0100
0010
0100
,
1000
0001
0100
0001
1000
0100
0010
0100
1000
0001
0100
0001
1000
0100
0010
0001
,
0100
0010
1000
0001
1000
0010
0100
0010
1000
0001
0010
0001
1000
0010
0100
0010
,
1000
0001
0010
0001
1000
0010
0100
0010
1000
0001
0010
0001
1000
0010
0100
0001
,
0010
0100
1000
0001
0010
0100
0010
0001
1000
0010
1000
0001
0010
0100
0010
0001
,
1000
0010
1000
0001
0010
0100
0010
0001
1000
0010
1000
0001
0010
0100
0010
0001
,
0100
0010
1000
0001
0100
0010
0100
0001
1000
0100
1000
0001
0100
0010
0100
0001
,
1000
0100
1000
0001
0100
0010
0100
0001
1000
0100
1000
0001
0100
0010
0100
0001
,
0010
0100
1000
0001
1000
0100
0010
0100
1000
0001
0100
0001
1000
0100
0010
0100
,
1000
0001
0100
0001
1000
0100
0010
0100
1000
0001
0100
0001
1000
0100
0010
0001
,
0100
0010
1000
0001
1000
0010
0100
0010
1000
0001
0010
0001
1000
0010
0100
0010
,
1000
0001
0010
0001
1000
0010
0100
0010
1000
0001
0010
0001
1000
0010
0100
0001
,
0010
0100
1000
0001
1000
0000
0100
0000
0010
0000
0001
1000
0001
0100
0010
1000
,
0001
0010
0100
0010
0001
1000
0010
0100
0001
1000
0100
1000
0001
0100
0010
1000
,
0010
0100
0001
1000
0100
0010
0001
0010
0100
0010
0001
0100
0010
1000
0001
0100
,
0001
1000
0010
0100
0001
0000
1000
0000
0100
0000
0010
0001
1000
0010
1000
0000
,
0001
0010
0100
1000
0001
0000
1000
0000
0010
0000
1000
0001
1000
0100
0010
0001
,
1000
0010
0100
0010
1000
0001
0010
0100
1000
0001
0100
0001
1000
0100
0010
0001
,
0010
0100
1000
0001
0100
0010
1000
0010
0100
0010
1000
0001
0010
0001
1000
0100
,
1000
0001
0010
0100
1000
0000
0001
0000
0100
0000
0010
1000
0001
0010
0001
0000
,
1000
0010
0100
0001
1000
0000
0100
0000
0010
0000
0001
1000
0001
0010
0100
1000
,
0001
0100
0010
0100
0001
1000
0100
0010
0001
1000
0010
1000
0001
0010
0100
1000
,
0100
0010
0001
1000
0010
0100
0001
0100
0010
0100
0001
0010
0100
1000
0001
0010
,
0001
1000
0100
0010
0001
0000
0100
0000
0010
0000
1000
0001
0010
0100
1000
0001
,
0100
0010
1000
0100
0010
0001
0010
0100
0010
0001
0010
0100
0010
0001
0010
0100
,
1000
0010
0100
0001
1000
0010
1000
0001
0010
0100
1000
0001
0100
0010
1000
0001
,
1000
0100
0010
0001
1000
0010
0100
0010
1000
0001
0010
0100
1000
0010
0100
0001
,
1000
0010
1000
0001
0010
0100
0010
0001
1000
0010
1000
0001
0100
0010
0100
0000
,
0001
0000
1000
0000
0001
0010
0001
0100
0001
1000
0010
1000
0100
0010
0001
0010
,
0100
1000
0010
1000
0001
0010
0001
0100
0001
1000
0010
1000
0100
0010
0001
0010
,
0100
1000
0010
1000
0001
0100
0001
0010
0001
1000
0100
1000
0010
0100
0001
0100
,
0010
1000
0100
1000
0001
0100
0001
0010
0001
1000
0100
1000
0010
0100
0001
0100
,
0010
1000
0100
1000
0001
0010
0001
0100
0010
1000
0100
0010
0001
0100
0010
1000
,
0001
0010
0100
1000
0001
0010
0001
0100
0010
1000
0100
0010
0001
0100
0010
1000
,
0001
0010
0100
1000
0001
0100
0001
0010
0100
1000
0010
0100
0001
0010
0100
1000
,
0001
0100
0010
1000
0001
0100
0001
0010
0100
1000
0010
0100
0001
0010
0100
1000
,
0001
0100
0010
1000
0100
0010
0100
1000
0010
0100
0001
0010
0100
1000
0010
1000
,
0001
0100
0010
1000
0100
0010
0100
1000
0010
0100
0001
0010
0100
1000
0010
1000
,
0001
0100
0001
1000
0010
0100
0010
1000
0100
0010
0001
0100
0010
1000
0100
1000
,
0001
0010
0100
1000
0010
0100
0010
1000
0100
0010
0001
0100
0010
1000
0100
1000
,
0001
0010
0100
1000
0010
0100
0010
1000
0100
0010
0001
0100
0010
1000
0100
1000
,
0001
0010
0100
1000
0010
0100
0010
1000
0100
0010
0001
0100
0010
1000
0100
1000
,
0001
0010
0100
1000
0100
0010
0100
1000
0010
0100
0001
0010
0100
1000
0010
1000
,
0001
0100
0010
1000
0100
0010
0100
1000
0010
0100
0001
0010
0100
1000
0010
1000
,
0001
0100
0010
1000
0001
0010
0100
1000
0100
0010
0100
0010
0001
1000
0100
0010
,
0100
0010
0001
1000
0010
0100
0010
0100
0001
0010
0001
0010
0100
0010
0100
1000
,
0100
1000
0001
0010
0001
1000
0100
1000
0010
0100
0010
0100
0001
1000
0010
0100
,
0010
0100
0001
1000
0100
0010
0100
0010
0001
0100
0001
0100
0010
0100
0010
1000
,
0010
1000
0001
0100
0001
1000
0010
1000
0100
0010
0100
0010
0001
1000
0100
0010
,
0100
0010
0001
0100
0010
1000
0010
1000
0010
0100
0010
0100
0001
0100
0001
1000
,
0001
1000
0010
0100
0001
0010
0100
0010
0001
0010
0100
1000
0010
1000
0100
0010
,
0100
1000
0001
0010
0001
1000
0010
0100
0001
0100
0010
1000
0001
0010
0001
1000
,
0100
0010
0001
1000
0001
0000
0100
0000
0010
0000
0100
0000
0001
0000
1000
0000
,
0100
0000
1000
0000
0010
0100
0001
1000
0010
1000
0001
0010
0100
1000
0001
0010
,
0001
0100
0010
1000
0100
0010
0001
0010
0100
1000
0001
1000
0100
0010
0100
1000
,
0010
0100
0001
1000
0100
0010
0001
0010
0100
1000
0001
0100
0010
1000
0100
1000
,
0001
0010
0001
1000
0010
0100
0001
1000
0010
1000
0001
0100
0001
1000
0010
0100
,
0001
0010
0100
1000
0010
0100
0001
1000
0010
1000
0001
0010
0100
1000
0001
0010
,
0001
0100
0010
1000
0100
0010
0100
1000
0001
1000
0100
0010
0001
1000
0100
1000
,
0010
0100
0010
1000
0100
0010
0001
0010
0100
1000
0010
0100
0001
0100
0010
1000
,
0100
0010
0100
1000
0001
0100
0010
1000
0001
0100
0001
1000
0010
1000
0001
0100
,
0010
1000
0001
1000
0100
0010
0001
1000
0100
1000
0001
0100
0010
1000
0001
0100
,
0001
0010
0100
1000
0010
0100
0001
0100
0010
1000
0001
1000
0010
0100
0010
1000
,
0100
0010
0001
1000
0010
0100
0001
0100
0010
1000
0001
0010
0100
1000
0010
1000
,
0001
0100
0001
1000
0100
0010
0001
1000
0100
1000
0001
0010
0001
1000
0100
0010
,
0001
0100
0010
1000
0100
0010
0001
1000
0100
1000
0001
0100
0010
1000
0001
0100
,
0001
0010
0100
1000
0010
0100
0010
1000
0001
1000
0010
0100
0001
1000
0010
1000
,
0100
0010
0100
1000
0010
0100
0001
0100
0010
1000
0100
0010
0001
0010
0100
1000
,
0010
0100
0010
1000
0001
0010
0100
1000
0001
0010
0001
1000
0100
1000
0001
0010
,
0100
1000
0001
1000
0010
0100
0010
1000
0001
0010
0001
1000
0010
0100
0010
1000
,
0001
0010
0001
1000
0010
0100
0010
1000
0001
0010
0001
1000
0010
0100
0010
1000
,
0100
0010
0001
1000
0100
0010
0100
1000
0001
0100
0001
1000
0100
0010
0100
1000
,
0001
0100
0001
1000
0100
0010
0100
1000
0001
0100
0001
1000
0100
0010
0100
1000
,
0010
0100
0001
1000
0001
0100
0010
0100
0001
1000
0100
1000
0001
0100
0010
0100
,
0001
1000
0100
1000
0001
0100
0010
0100
0001
1000
0100
1000
0001
0100
0010
1000
,
0100
0010
0001
1000
0001
0010
0100
0010
0001
1000
0010
1000
0001
0010
0100
0010
,
0001
1000
0010
1000
0001
0010
0100
0010
0001
1000
0010
1000
0001
0010
0100
1000
,
0010
0100
0001
1000
0010
0100
0010
1000
0001
0010
0001
1000
0010
0100
0010
1000
,
0001
0010
0001
1000
0010
0100
0010
1000
0001
0010
0001
1000
0010
0100
0010
1000
,
0100
0010
0001
1000
0100
0010
0100
1000
0001
0100
0001
1000
0100
0010
0100
1000
,
0001
0100
0001
1000
0100
0010
0100
1000
0001
0100
0001
1000
0100
0010
0100
1000
,
0010
0100
0001
1000
0001
0100
0010
0100
0001
1000
0100
1000
0001
0100
0010
0100
,
0001
1000
0100
1000
0001
0100
0010
0100
0001
1000
0100
1000
0001
0100
0010
1000
,
0100
0010
0001
1000
0001
0010
0100
0010
0001
1000
0010
1000
0001
0010
0100
0010
,
0001
1000
0010
1000
0001
0010
0100
0010
0001
1000
0010
1000
0001
0010
0100
1000
,
0010
0100
0001
1000
0001
0000
0100
0000
0010
0000
1000
0001
1000
0100
0010
0001
,
1000
0010
0100
0010
1000
0001
0010
0100
1000
0001
0100
0001
1000
0100
0010
0001
,
0010
0100
1000
0001
0100
0010
1000
0010
0100
0010
1000
0100
0010
0001
1000
0100
,
1000
0001
0010
0100
1000
0000
0001
0000
0100
0000
0010
1000
0001
0010
0001
0000
,
1000
0010
0100
0001
1000
0000
0001
0000
0010
0000
0001
1000
0001
0100
0010
1000
,
0001
0010
0100
0010
0001
1000
0010
0100
0001
1000
0100
1000
0001
0100
0010
1000
,
0010
0100
0001
1000
0100
0010
0001
0010
0100
0010
0001
1000
0010
1000
0001
0100
,
0001
1000
0010
0100
0001
0000
1000
0000
0100
0000
0010
0001
1000
0010
1000
0000
,
0001
0010
0100
1000
0001
0000
0100
0000
0010
0000
1000
0001
1000
0010
0100
0001
,
1000
0100
0010
0100
1000
0001
0100
0010
1000
0001
0010
0001
1000
0010
0100
0001
,
0100
0010
1000
0001
0010
0100
1000
0100
0010
0100
1000
0010
0100
0001
1000
0010
,
1000
0001
0100
0010
1000
0000
0100
0000
0010
0000
0001
1000
0010
0100
0001
1000
,
0100
0010
0001
0100
0010
1000
0010
0100
0010
1000
0010
0100
0010
1000
0010
0100
,
0001
0010
0100
1000
0001
0010
0001
1000
0010
0100
0001
1000
0100
0010
0001
1000
,
0001
0100
0010
1000
0001
0010
0100
0010
0001
1000
0010
0100
0001
0010
0100
1000
,
0001
0010
0001
1000
0010
0100
0010
1000
0001
0010
0001
1000
0100
0010
0100
0000
,
1000
0000
0001
0000
1000
0010
0100
0001
0100
0010
0100
0010
1000
0001
0100
0010
,
0100
0010
1000
0001
0010
0100
0010
0100
1000
0010
1000
0010
0100
0010
0100
0001
,
0100
0001
1000
0010
1000
0001
0100
0001
0010
0100
0010
0100
1000
0001
0010
0100
,
0010
0100
1000
0001
0100
0010
0100
0010
1000
0100
1000
0100
0010
0100
0010
0001
,
0010
0001
1000
0100
1000
0001
0010
0001
0100
0010
0100
0010
1000
0001
0100
0010
,
0100
0010
1000
0100
0010
0001
0010
0001
0010
0100
0010
0100
1000
0100
1000
0001
,
1000
0001
0010
0100
1000
0010
0100
0010
1000
0010
0100
0001
0010
0001
0100
0010
,
0100
0001
1000
0010
1000
0001
0010
0100
1000
0100
0010
0001
1000
0010
1000
0001
,
0100
0010
1000
0001
1000
0000
0100
0000
0010
0000
0100
0000
1000
0000
0001
0000
,
0100
0000
0001
0000
0010
0100
1000
0001
0010
0001
1000
0010
0100
0001
1000
0010
,
1000
0100
0010
0001
0100
0010
1000
0010
0100
0001
1000
0001
0100
0010
0100
0001
,
0010
0100
1000
0001
0100
0010
1000
0010
0100
0001
1000
0100
0010
0001
0100
0001
,
1000
0010
1000
0001
0010
0100
1000
0001
0010
0001
1000
0100
1000
0001
0010
0100
,
1000
0010
0100
0001
0010
0100
1000
0001
0010
0001
1000
0010
0100
0001
1000
0010
,
1000
0100
0010
0001
0100
0010
0100
0001
1000
0001
0100
0010
1000
0001
0100
0001
,
0010
0100
0010
0001
0100
0010
1000
0010
0100
0001
0010
0100
1000
0100
0010
0001
,
0100
0010
0100
0001
1000
0100
0010
0001
1000
0100
1000
0001
0010
0001
1000
0100
,
0010
0001
1000
0001
0100
0010
1000
0001
0100
0001
1000
0100
0010
0001
1000
0100
,
1000
0010
0100
0001
0010
0100
1000
0100
0010
0001
1000
0001
0010
0100
0010
0001
,
0100
0010
1000
0001
0010
0100
1000
0100
0010
0001
1000
0010
0100
0001
0010
0001
,
1000
0100
1000
0001
0100
0010
1000
0001
0100
0001
1000
0010
1000
0001
0100
0010
,
1000
0100
0010
0001
0100
0010
1000
0001
0100
0001
1000
0100
0010
0001
1000
0100
,
1000
0010
0100
0001
0010
0100
0010
0001
1000
0001
0010
0100
1000
0001
0010
0001
,
0100
0010
0100
0001
0010
0100
1000
0100
0010
0001
0100
0010
1000
0010
0100
0001
,
0010
0100
0010
0001
1000
0010
0100
0001
1000
0010
1000
0001
0100
0001
1000
0010
,
0100
0001
1000
0001
0010
0100
0010
0001
1000
0010
1000
0001
0010
0100
0010
0001
,
1000
0010
1000
0001
0010
0100
0010
0001
1000
0010
1000
0001
0010
0100
0010
0001
,
0100
0010
1000
0001
0100
0010
0100
0001
1000
0100
1000
0001
0100
0010
0100
0001
,
1000
0100
1000
0001
0100
0010
0100
0001
1000
0100
1000
0001
0100
0010
0100
0001
,
0010
0100
1000
0001
1000
0100
0010
0100
1000
0001
0100
0001
1000
0100
0010
0100
,
1000
0001
0100
0001
1000
0100
0010
0100
1000
0001
0100
0001
1000
0100
0010
0001
,
0100
0010
1000
0001
1000
0010
0100
0010
1000
0001
0010
0001
1000
0010
0100
0010
,
1000
0001
0010
0001
1000
0010
0100
0010
1000
0001
0010
0001
1000
0010
0100
0001
,
0010
0100
1000
0001
0010
0100
0010
0001
1000
0010
1000
0001
0010
0100
0010
0001
,
1000
0010
1000
0001
0010
0100
0010
0001
1000
0010
1000
0001
0010
0100
0010
0001
,
0100
0010
1000
0001
0100
0010
0100
0001
1000
0100
1000
0001
0100
0010
0100
0001
,
1000
0100
1000
0001
0100
0010
0100
0001
1000
0100
1000
0001
0100
0010
0100
0001
,
0010
0100
1000
0001
1000
0100
0010
0100
1000
0001
0100
0001
1000
0100
0010
0100
,
1000
0001
0100
0001
1000
0100
0010
0100
1000
0001
0100
0001
1000
0100
0010
0001
,
0100
0010
1000
0001
1000
0010
0100
0010
1000
0001
0010
0001
1000
0010
0100
0010
,
1000
0001
0010
0001
1000
0010
0100
0010
1000
0001
0010
0001
1000
0010
0100
0001
,
0010
0100
1000
0001
0100
0010
0100
0001
1000
0010
1000
0001
0100
0010
1000
0010
,
0100
0001
1000
0010
1000
0001
0100
0001
1000
0010
0100
0001
1000
0010
1000
0001
,
0100
0001
1000
0010
1000
0001
0010
0100
1000
0001
0010
0100
0010
0001
1000
0100
,
0010
0100
1000
0001
1000
0100
0010
0001
1000
0100
1000
0001
0010
0001
1000
0100
,
0010
0001
0010
0100
1000
0001
0100
0001
1000
0010
1000
0001
0100
0010
1000
0010
,
0100
0001
1000
0010
1000
0001
0100
0001
1000
0010
0100
0001
1000
0001
0100
0010
,
1000
0001
0100
0001
1000
0100
0010
0100
1000
0001
0010
0100
1000
0001
0010
0001
,
1000
0100
0010
0100
1000
0001
0010
0100
1000
0001
0010
0100
0010
0001
1000
0100
,
1000
0001
0010
0100
1000
0010
0100
0001
1000
0001
0100
0010
1000
0001
0100
0001
,
1000
0010
1000
0001
0100
0010
1000
0010
0100
0001
1000
0010
1000
0001
0100
0001
,
1000
0010
0100
0001
1000
0100
0010
0001
1000
0100
1000
0001
0010
0001
1000
0100
,
0010
0001
1000
0100
1000
0001
0010
0100
0010
0001
1000
0001
0010
0100
1000
0001
,
1000
0100
0010
0001
1000
0010
0100
0010
1000
0001
0100
0001
1000
0010
1000
0001
,
0100
0010
1000
0001
0100
0001
1000
0010
1000
0001
0100
0010
1000
0001
1000
0010
,
0100
0001
1000
0001
0010
0100
1000
0001
0010
0001
1000
0100
0010
0001
1000
0001
,
0010
0100
1000
0001
0010
0001
1000
0100
0010
0001
1000
0100
0010
0100
1000
0001
,
0010
0100
1000
0001
0200
0000
0000
0000
0000
0000
0000
0000
0000
0000
0000
0000
,
0000
0000
0000
0000
,
0000
0300
0000
0000
,
0000
0000
00M0
0000
;

//---------------dance-single - 14 (@@TYLR)----------------
#NOTES:
     dance-single:
     14 (@@TYLR):
     Hard:
     17:
     1.000,1.000,0.310,1.000,1.000,1721.000,70.000,236.000,1.000,0.000:
0001
0000
0000
0000
1001
0000
1000
0000
0010
0000
1000
0000
0001
1000
0001
0000
,
0010
0000
0001
0000
0100
0000
0010
0000
1000
0000
0010
0000
0100
0001
0100
0000
,
0010
0000
1000
0000
0001
0000
0010
0000
0100
0000
0010
0000
0001
1000
0001
0000
,
0010
0000
0100
0000
1000
0000
0001
0000
0100
0000
0001
0000
1000
0010
1000
0000
,
0100
0000
0010
0000
0001
0000
0100
0000
0010
0000
0100
0000
0001
1000
0001
0000
,
0100
0000
0010
0000
1000
0000
0001
0000
0010
0000
0001
0000
1000
0100
1000
0000
,
0010
0000
0100
0000
0001
0000
0010
0000
0100
0000
0010
0000
0001
1000
0001
0000
,
0100
0000
0010
0000
1000
0000
0100
0000
0010
0000
0100
0000
1000
0001
1000
0000
,
0010
0000
0100
0000
0001
1000
0010
1000
0001
0100
0001
1000
0100
0010
0100
1000
,
0001
0100
0001
1000
0100
0010
0100
1000
0001
0100
0001
1000
0100
0010
0100
1000
,
0010
0100
0001
1000
0010
0100
0010
1000
0001
0010
0001
1000
0010
0100
0010
1000
,
0001
0010
0001
1000
0010
0100
0010
1000
0001
0010
0001
1000
0010
0100
0010
1000
,
0100
0010
0001
1000
0001
0010
0100
0010
0001
1000
0010
1000
0001
0010
0100
0010
,
0001
1000
0010
1000
0001
0010
0100
0010
0001
1000
0010
1000
0001
0010
0100
1000
,
0010
0100
0001
1000
0001
0100
0010
0100
0001
1000
0100
1000
0001
0100
0010
0100
,
0001
1000
0100
1000
0001
0100
0010
0100
0001
1000
0100
1000
0001
0100
0010
1000
,
0100
0010
0001
1000
0100
0010
0100
1000
0001
0100
0001
1000
0100
0010
0100
1000
,
0001
0100
0001
1000
0100
0010
0100
1000
0001
0100
0001
1000
0100
0010
0100
1000
,
0010
0100
0001
1000
0010
0100
0010
1000
0001
0010
0001
1000
0010
0100
0010
1000
,
0001
0010
0001
1000
0010
0100
0010
1000
0001
0010
0001
1000
0010
0100
0010
1000
,
0100
0010
0001
1000
0001
0010
0100
0010
0001
1000
0010
1000
0001
0010
0100
0010
,
0001
1000
0010
1000
0001
0010
0100
0010
0001
1000
0010
1000
0001
0010
0100
1000
,
0010
0100
0001
1000
0001
0100
0010
0100
0001
1000
0100
1000
0001
0100
0010
0100
,
0001
1000
0100
1000
0001
0100
0010
0100
0001
1000
0100
1000
0001
0100
0010
1000
,
0100
0010
0001
1000
0001
0000
0000
0000
0000
0000
0000
0000
2000
0000
0000
3000
,
0020
0000
0000
0030
0020
0000
0000
0030
0200
0000
0000
0300
0200
0000
0000
0300
,
0002
0000
0000
0003
2000
0000
0000
0000
0000
0000
3100
0000
0020
0000
0000
0000
,
0000
0000
0000
0000
0000
0030
0011
0000
,
0000
0000
0000
0000
0101
0000
0000
0000
0000
0000
0000
0000
0200
0000
0000
0300
,
0020
0000
0000
0030
2000
0000
0000
3000
0002
0000
0000
0003
0020
0000
0000
0030
,
0200
0000
0000
0300
2000
0000
0000
0000
0000
0000
3001
0000
0002
0000
0000
0000
,
0000
0000
0003
0101
,
0000
0000
0000
0000
1010
0000
0000
0000
0000
0000
0000
0000
2000
0000
0000
3000
,
0200
0000
0000
0300
2000
0000
0000
3000
0002
0000
0000
0003
0200
0000
0000
0300
,
0002
0000
0000
0003
0020
0000
0000
0000
0000
0000
0000
0000
0230
0000
0000
0000
,
0000
0000
0300
1100
,
1000
0000
0001
0000
2001
0000
0000
0000
0000
0000
0000
0000
0000
0000
0000
3000
,
2000
0000
0000
3000
2000
0000
0000
3000
2000
0000
0000
3000
0002
0000
0000
0003
,
0200
0000
0000
0300
0020
0000
0000
0030
1000
0000
0002
0000
0000
0000
0000
0000
,
0000
0000
0000
0000
0000
0003
1001
0000
,
0000
0000
1020
0230
0302
2003
3200
0320
,
0230
0000
2300
0000
3002
0000
0203
0000
0320
0000
2030
3000
2100
0000
3200
0000
,
2300
0000
3020
0030
0120
0000
0230
0000
0302
0000
2003
0000
3200
0000
0320
0000
,
0230
0000
2300
0000
3200
0000
0320
0000
0032
0000
2003
3000
2010
0000
3020
0000
,
2030
0000
3200
0300
0210
0000
0320
0000
0032
0000
2003
0000
3020
0000
0230
0000
,
0320
0000
2030
0000
3002
0000
0023
0000
0230
0000
2300
3000
2010
0000
3020
0000
,
2030
0000
3200
0300
0210
0000
0320
0000
0032
0000
2003
0000
3020
0000
0230
0000
,
0320
0000
2030
0000
3020
0000
0230
0000
0302
0000
2003
3000
2100
0000
3200
0000
,
2300
0000
3002
0003
0102
0000
2003
0000
3200
0000
0320
0000
0032
0000
2003
0000
,
3002
0000
0203
0000
0320
0000
2030
0000
3002
0000
0023
0030
0120
0000
0230
0000
,
0320
0000
0032
0003
0102
0000
0203
0000
0320
0000
2030
0000
3200
0000
2300
0000
,
3020
0000
0230
0000
0302
0000
0023
0000
0230
0000
2300
3000
2010
0000
3020
0000
,
2030
0000
3200
0300
0210
0000
0320
0000
0032
0000
2003
0000
3020
0000
0230
0000
,
0320
0000
2030
0000
3002
0000
0023
0000
0230
0000
2300
3000
2010
0000
3020
0000
,
2030
0000
3200
0300
0210
0000
0320
0000
0032
0000
2003
0000
3020
0000
0230
0000
,
0320
0000
2030
0000
3020
0000
0230
0000
0302
0000
2003
3000
2100
0000
3200
0000
,
2300
3002
0103
0001
0021
0031
1000
1020
,
1030
0001
0012
0013
0100
1200
1300
0001
,
0102
0103
0001
1000
1200
1300
0001
0201
,
0301
1000
2001
3001
0010
0120
0130
1000
,
2001
3001
1000
0010
0210
0310
1000
1002
,
1003
0100
0210
0310
0001
1002
1003
0010
,
0120
0000
1030
0000
2100
0000
3100
0000
0010
0000
0012
0003
1002
0000
1003
0000
,
0010
1000
0100
0010
0001
1000
0001
0100
,
0010
1000
1001
0001
0010
0100
1000
0001
,
0100
0000
0010
0000
1000
0001
1000
0010
0100
0001
1000
0100
0010
0001
1000
0100
,
1000
0010
0100
0001
0010
0100
1000
0100
0010
0001
1000
0001
0010
0100
0010
0001
,
0100
0010
1000
0001
0010
0100
1000
0100
0010
0001
1000
0010
0100
0001
0010
0001
,
1000
0100
1000
0001
0100
0010
1000
0001
0100
0001
1000
0010
1000
0001
0100
0010
,
1000
0100
0010
0001
0100
0010
1000
0001
0100
0001
1000
0100
0010
0001
1000
0100
,
1000
0010
0100
0001
0010
0100
0010
0001
1000
0001
0010
0100
1000
0001
0010
0001
,
0100
0010
0100
0001
0010
0100
1000
0100
0010
0001
0100
0010
1000
0010
0100
0001
,
0010
0100
0010
0001
1000
0010
0100
0001
1000
0010
1000
0001
0100
0001
1000
0010
,
0100
0001
1000
0001
0010
0100
1000
0001
0010
0001
1000
0010
0100
0001
1000
0010
,
1000
0100
0010
0001
0100
0010
1000
0010
0100
0001
1000
0001
0100
0010
0100
0001
,
0010
0100
1000
0001
0100
0010
1000
0010
0100
0001
1000
0100
0010
0001
0100
0001
,
1000
0010
1000
0001
0010
0100
1000
0001
0010
0001
1000
0100
1000
0001
0010
0100
,
1000
0010
0100
0001
0010
0100
1000
0001
0010
0001
1000
0010
0100
0001
1000
0010
,
1000
0100
0010
0001
0100
0010
0100
0001
1000
0001
0100
0010
1000
0001
0100
0001
,
0010
0100
0010
0001
0100
0010
1000
0010
0100
0001
0010
0100
1000
0100
0010
0001
,
0100
0010
0100
0001
1000
0100
0010
0001
1000
0100
1000
0001
0010
0001
1000
0100
,
0010
0001
1000
0001
0100
0010
0100
0001
1000
0100
1000
0001
0100
0010
0100
0001
,
1000
0100
1000
0001
0100
0010
0100
0001
1000
0100
1000
0001
0100
0010
0100
0001
,
0010
0100
1000
0001
0010
0100
0010
0001
1000
0010
1000
0001
0010
0100
0010
0001
,
1000
0010
1000
0001
0010
0100
0010
0001
1000
0010
1000
0001
0010
0100
0010
0001
,
0100
0010
1000
0001
1000
0010
0100
0010
1000
0001
0010
0001
1000
0010
0100
0010
,
1000
0001
0010
0001
1000
0010
0100
0010
1000
0001
0010
0001
1000
0010
0100
0001
,
0010
0100
1000
0001
1000
0100
0010
0100
1000
0001
0100
0001
1000
0100
0010
0100
,
1000
0001
0100
0001
1000
0100
0010
0100
1000
0001
0100
0001
1000
0100
0010
0001
,
0100
0010
1000
0001
0100
0010
0100
0001
1000
0100
1000
0001
0100
0010
0100
0001
,
1000
0100
1000
0001
0100
0010
0100
0001
1000
0100
1000
0001
0100
0010
0100
0001
,
0010
0100
1000
0001
0010
0100
0010
0001
1000
0010
1000
0001
0010
0100
0010
0001
,
1000
0010
1000
0001
0010
0100
0010
0001
1000
0010
1000
0001
0010
0100
0010
0001
,
0100
0010
1000
0001
1000
0010
0100
0010
1000
0001
0010
0001
1000
0010
0100
0010
,
1000
0001
0010
0001
1000
0010
0100
0010
1000
0001
0010
0001
1000
0010
0100
0001
,
0010
0100
1000
0001
1000
0100
0010
0100
1000
0001
0100
0001
1000
0100
0010
0100
,
1000
0001
0100
0001
1000
0100
0010
0100
1000
0001
0100
0001
1000
0100
0010
0001
,
0100
0010
1000
0001
1000
0000
0000
0000
0000
0000
0000
0000
0002
0000
0000
0003
,
0200
0000
0000
0300
0200
0000
0000
0300
0020
0000
0000
0030
0020
0000
0000
0030
,
2000
0000
0000
3000
0002
0000
0000
0000
0000
0000
0013
0000
0200
0000
0000
0000
,
0000
0000
0000
0000
0000
0300
1100
0000
,
0000
0000
0000
0000
1010
0000
0000
0000
0000
0000
0000
0000
0020
0000
0000
0030
,
0200
0000
0000
0300
0002
0000
0000
0003
2000
0000
0000
3000
0200
0000
0000
0300
,
0020
0000
0000
0030
0002
0000
0000
0000
0000
0000
1003
0000
2000
0000
0000
0000
,
0000
0000
3000
1010
,
0000
0000
0000
0000
0101
0000
0000
0000
0000
0000
0000
0000
0002
0000
0000
0003
,
0020
0000
0000
0030
0002
0000
0000
0003
2000
0000
0000
3000
0020
0000
0000
0030
,
2000
0000
0000
3000
0200
0000
0000
0000
0000
0000
0000
0000
0320
0000
0000
0000
,
0000
0000
0030
0011
,
0001
0000
1000
0000
1002
0000
0000
0000
0000
0000
0000
0000
0000
0000
0000
0003
,
0002
0000
0000
0003
0002
0000
0000
0003
0002
0000
0000
0003
2000
0000
0000
3000
,
0020
0000
0000
0030
0200
0000
0000
0300
0001
0000
2000
0000
0000
0000
0000
0000
,
0000
0000
0000
0000
0000
3000
1001
0000
,
0000
0000
0001
1000
1200
1300
0001
0201
,
0301
1000
2100
3100
0010
0021
0031
1000
,
2010
3010
1000
0001
0021
0031
1000
1020
,
1030
0001
1002
1003
0100
0210
0310
0001
,
1002
1003
0001
0100
0120
0130
0001
2001
,
3001
0010
0120
0130
1000
2001
3001
0100
,
0210
0000
0301
0000
0012
0000
0013
0000
0100
0000
2100
3000
2001
0000
3001
0000
,
0100
0001
0010
0100
1000
0001
1000
0010
,
0100
0001
1001
1000
0100
0010
0001
1000
,
0010
0000
0100
0000
0001
1000
0001
0100
0010
1000
0001
0010
0100
1000
0001
0010
,
0001
0100
0010
1000
0100
0010
0001
0010
0100
1000
0001
1000
0100
0010
0100
1000
,
0010
0100
0001
1000
0100
0010
0001
0010
0100
1000
0001
0100
0010
1000
0100
1000
,
0001
0010
0001
1000
0010
0100
0001
1000
0010
1000
0001
0100
0001
1000
0010
0100
,
0001
0010
0100
1000
0010
0100
0001
1000
0010
1000
0001
0010
0100
1000
0001
0010
,
0001
0100
0010
1000
0100
0010
0100
1000
0001
1000
0100
0010
0001
1000
0100
1000
,
0010
0100
0010
1000
0100
0010
0001
0010
0100
1000
0010
0100
0001
0100
0010
1000
,
0100
0010
0100
1000
0001
0100
0010
1000
0001
0100
0001
1000
0010
1000
0001
0100
,
0010
1000
0001
1000
0100
0010
0001
1000
0100
1000
0001
0100
0010
1000
0001
0100
,
0001
0010
0100
1000
0010
0100
0001
0100
0010
1000
0001
1000
0010
0100
0010
1000
,
0100
0010
0001
1000
0010
0100
0001
0100
0010
1000
0001
0010
0100
1000
0010
1000
,
0001
0100
0001
1000
0100
0010
0001
1000
0100
1000
0001
0010
0001
1000
0100
0010
,
0001
0100
0010
1000
0100
0010
0001
1000
0100
1000
0001
0100
0010
1000
0001
0100
,
0001
0010
0100
1000
0010
0100
0010
1000
0001
1000
0010
0100
0001
1000
0010
1000
,
0100
0010
0100
1000
0010
0100
0001
0100
0010
1000
0100
0010
0001
0010
0100
1000
,
0010
0100
0010
1000
0001
0010
0100
1000
0001
0010
0001
1000
0100
1000
0001
0010
,
0100
1000
0001
1000
0100
0010
0100
1000
0001
0100
0001
1000
0100
0010
0100
1000
,
0001
0100
0001
1000
0100
0010
0100
1000
0001
0100
0001
1000
0100
0010
0100
1000
,
0010
0100
0001
1000
0010
0100
0010
1000
0001
0010
0001
1000
0010
0100
0010
1000
,
0001
0010
0001
1000
0010
0100
0010
1000
0001
0010
0001
1000
0010
0100
0010
1000
,
0100
0010
0001
1000
0001
0010
0100
0010
0001
1000
0010
1000
0001
0010
0100
0010
,
0001
1000
0010
1000
0001
0010
0100
0010
0001
1000
0010
1000
0001
0010
0100
1000
,
0010
0100
0001
1000
0001
0100
0010
0100
0001
1000
0100
1000
0001
0100
0010
0100
,
0001
1000
0100
1000
0001
0100
0010
0100
0001
1000
0100
1000
0001
0100
0010
1000
,
0100
0010
0001
1000
0100
0010
0100
1000
0001
0100
0001
1000
0100
0010
0100
1000
,
0001
0100
0001
1000
0100
0010
0100
1000
0001
0100
0001
1000
0100
0010
0100
1000
,
0010
0100
0001
1000
0010
0100
0010
1000
0001
0010
0001
1000
0010
0100
0010
1000
,
0001
0010
0001
1000
0010
0100
0010
1000
0001
0010
0001
1000
0010
0100
0010
1000
,
0100
0010
0001
1000
0001
0010
0100
0010
0001
1000
0010
1000
0001
0010
0100
0010
,
0001
1000
0010
1000
0001
0010
0100
0010
0001
1000
0010
1000
0001
0010
0100
1000
,
0010
0100
0001
1000
0001
0100
0010
0100
0001
1000
0100
1000
0001
0100
0010
0100
,
0001
1000
0100
1000
0001
0100
0010
0100
0001
1000
0100
1000
0001
0100
0010
1000
,
0100
0010
0001
1000
0020
0000
0000
0000
0000
0000
0000
0000
0000
0000
0000
0000
,
0000
0000
0000
0000
,
0000
0230
0000
0000
,
0000
0000
0000
0000
,
0000
0302
0000
0000
,
0000
0000
0000
0000
,
0000
2003
0000
0000
,
0000
0000
0000
0000
,
0000
0000
0000
3000
2001
0000
0000
0000
0000
0000
0000
0000
0000
0000
0000
0000
,
0000
0000
0000
0000
,
0000
3200
0000
0000
,
0000
0000
0000
0000
,
0000
0320
0000
0000
,
0000
0000
0000
0000
,
0000
0032
0000
0000
,
0000
0000
0000
0000
,
0000
0000
0000
0000
,
0000
0000
0000
0000
,
0003
000M
0000
0000
;
