#TITLE:Beyond The Dark Sun;
#SUBTITLE:;
#ARTIST:Wintersun;
#TITLETRANSLIT:;
#SUBTITLETRANSLIT:;
#ARTISTTRANSLIT:;
#CREDIT:;
#BANNER:banner.jpg;
#BACKGROUND:bg.jpg;
#LYRICSPATH:;
#CDTITLE:plaag.png;
#MUSIC:01._Beyond_The_Dark_Sun.mp3;
#OFFSET:-0.400;
#SAMPLESTART:9.000;
#SAMPLELENGTH:15.000;
#SELECTABLE:YES;
#BPMS:0.000=180.000,238.250=208.000,244.000=224.000,313.000=209.500;
#STOPS:237.125=1.000
;
#BGCHANGES:;
// cache tags:
#FIRSTBEAT:0.000;
#LASTBEAT:504.000;
#SONGFILENAME:Songs/keyboard/(Plaag) Beyond The Dark Sun/01._Beyond_The_Dark_Sun.sm;
#HASMUSIC:1;
#HASBANNER:1;
#MUSICLENGTH:158.380;
// end cache tags

//---------------dance-single - __\,,/----------------
#NOTES:
     dance-single:
     __\,,/:
     Challenge:
     14:
     1.000,1.000,1.000,0.189,1.000,1412.000,277.000,30.000,0.000,21.000:






1001
0000
1000
0001
0010
0100
0001
0100
0010
1000
0010
0001
0110
0000
1001
0000
,
0110
0000
0010
0001
0010
1000
0100
0001
0010
0100
0001
0100
0001
1000
0010
0100
,
1001
0000
1000
0001
0010
0001
1000
0100
0010
1000
0010
0001
0110
0000
1001
0000
,
0110
0000
1000
0000
0001
0000
0100
0000
0010
0001
0010
0100
1000
0100
0010
0001
,
0110
0000
0100
0001
0100
1000
0010
0001
0100
0010
1000
0010
1001
0000
0110
0000
,
1001
0000
0010
1000
0001
0100
0010
1000
0100
0001
0100
0001
0010
1000
0010
0100
,
1001
0000
1000
0010
1000
0010
0001
0100
0010
1000
0001
1000
0110
0000
1001
0000
,
0110
0001
1100
0100
0110
1000
1100
0010
,
0101
0000
0100
0001
0100
1000
0010
0001
0100
0010
1000
0010
1001
0000
0110
0000
,
1001
0000
0010
1000
0001
0100
0010
1000
0100
0001
0100
0001
0010
1000
0010
0100
,
1001
0000
1000
0010
1000
0010
0001
0100
0010
1000
0001
1000
0110
0000
1001
0000
,
0110
0000
0001
0000
1100
0000
0100
0000
0110
1000
0100
0010
1000
0100
0010
0001
,
1000
0100
0010
0001
1000
0100
0010
0001
0010
0001
0010
0001
0010
0100
1000
0001
0010
0100
1000
0100
0010
0001
0010
0100
,
1000
0100
1000
0100
1000
0100
0010
0001
1000
0100
0010
0001
0010
0100
1000
0100
0010
0100
0010
0100
0010
0100
0010
0001
,
0010
0100
1000
0100
0010
0001
1000
0100
0010
0001
1000
0100
0010
0001
0010
0100
1000
0100
0010
0001
0010
0100
1000
0100
,
0010
0000
0100
0000
0010
0000
0100
0000
0010
0000
0100
0000
0010
0000
0001
0000
0010
0000
0100
0000
1000
0000
0001
0000
0010
0000
0100
0000
0010
0000
0200
0000
0000
0000
0000
0000
0010
0000
0000
0001
0000
0000
0310
0000
0000
0100
0000
0000
,
1010
0000
0010
0100
0001
1000
0100
1000
0001
0010
0001
0100
1001
0000
0110
0000
,
1001
0000
0001
0100
0001
0010
1000
0100
0001
1000
0100
1000
0100
0010
0001
1000
,
0110
0000
0010
0100
0001
0100
0010
1000
0001
0010
0001
0100
1001
0000
0110
0000
,
1001
0001
0101
0010
0011
0100
1100
0001
,
0011
0000
0001
0010
1000
0100
0010
0100
1000
0001
1000
0010
1100
0000
0011
0000
,
1100
0000
1000
0010
1000
0001
0100
0010
1000
0100
0010
0100
0010
0001
1000
0100
,
0011
0000
0001
0010
1000
0010
0001
0100
1000
0001
1000
0010
1100
0000
0011
0000
,
1100
1000
1010
0001
1001
0010
0110
0001
,
0110
0000
1001
0000
2001
0010
0001
0010
,
0100
0010
0001
0010
0001
0010
3210
1000
,
0321
0100
1032
0010
0100
0010
0100
0010
,
1000
0010
0100
1000
0010
1000
0123
0001
,
2130
0010
3201
0010
0001
0010
0001
0010
,
1000
0010
0001
0010
1000
0010
2301
0010
,
3021
0100
1032
0100
0010
1000
0010
0100
,
1000
0100
0010
1000
0100
1000
0213
0001
,
2310
0000
3201
0000
0321
0000
1000
0000
0100
0000
1000
0030
0120
0000
1000
0000
,
0100
0030
1020
0000
0100
0000
1000
0030
0120
0000
1000
0030
0120
0000
1000
0000
,
0132
1000
0213
0001
1000
0010
1000
0001
,
0010
0001
1000
0001
0010
0001
2310
0001
,
3120
1000
0132
0010
1000
0100
0010
1000
,
0010
1000
0100
0010
0100
1000
0123
1000
,
0231
0010
2301
0100
0010
0001
0010
0001
,
3001
0010
1000
0100
0001
0010
1000
0100
0001
0000
1000
0000
0010
0100
1000
0000
,
0010
0100
0001
0010
0100
0001
0010
1000
,
0011
1100
0010
0001
0010
0001
0100
0011
,
0010
0000
0110
0000
0001
0010
0100
0000
0001
0010
0100
0000
1000
0100
0010
0001
,
0110
0000
1000
0100
0010
0001
1000
0000
0001
0000
0010
0000
0001
0000
0100
0000
,
0010
0100
0011
0010
0110
1000
0001
0010
,
1001
0110
1001
1000
0010
0001
0010
1100
,
0100
0000
0110
0000
0001
0010
0100
0000
0010
0000
0100
0000
0011
0100
1000
0000
,
0001
0000
0010
0000
0001
0010
0100
0000
0001
0010
0100
1000
0010
0000
0100
0010
,
1001
0000
0010
0000
1100
0000
0001
0010
0100
1000
0010
0001
0100
1000
0010
1000
,
0110
0000
1001
0000
0110
0000
0100
0010
1000
0100
0010
0001
0100
0010
1000
0100
,
0001
1000
0010
0001
0110
0000
0010
0100
0001
0010
0100
1000
0010
0100
0001
0010
,
1001
0110
1001
0100
0110
0010
1010
0010
,
0011
0000
0010
0000
1010
0000
0001
0010
0100
1000
0010
0001
0100
1000
0010
1000
,
0110
0000
1001
0000
0110
0000
0100
0010
1000
0100
0010
0001
0100
0010
1000
0100
,
0001
1000
0010
0001
0110
0000
0010
0100
0001
0010
0100
1000
0010
0100
0001
0010
,
1001
0110
1001
0100
0110
0010
1010
0010
,
0011
0000
0010
0000
0110
0000
0100
0001
0010
1000
0100
0001
0010
0100
1000
0001
,
0010
0100
1010
0000
0110
0000
0001
0010
0100
1000
0001
0010
0100
0010
0100
1000
,
0010
0001
0010
0100
1000
0000
0100
0001
0010
1000
0100
0000
0001
0010
0000
1000
,
0010
0001
0010
0100
0002
0000
0000
0000
0000
0000
0000
0000
0000
0000
0013
0100
,
1000
0000
0000
0000
0100
1000
0100
0010
0001
0010
0100
1000
0101
0000
0000
0000
,
1100
0000
0110
1100
0000
1100
0110
0000
,
0011
0000
0110
0011
0000
0011
0110
0000
,
1001
0000
0110
1010
0000
1010
0110
0000
,
0011
0000
1100
0000
0011
1100
0011
0110
,
0000
0101
0000
1010
0101
0000
1100
0110
,
0000
0000
1100
0000
0000
0000
0011
0000
0110
0000
0101
1000
0100
0010
0001
0000
,
0110
0000
0000
0000
0011
0000
0000
0000
1100
0000
0110
0000
1000
0100
0010
0001
,
1000
0100
0010
0001
0010
0100
1000
0001
0010
0100
1000
0010
0100
1000
0010
0100
,
1000
0001
0010
1000
0100
0001
0010
0100
0001
0010
0100
0000
0000
0000
1100
0000
,
0000
0110
0011
0000
0110
0000
0011
0110
,
0000
1100
0110
0000
0110
0000
1100
0011
,
0000
0110
0011
0000
0011
0110
0000
0011
,
1100
0110
0011
1001
,
0011
0000
0000
0110
0000
0000
0000
0000
0000
0110
0000
0000
0011
0000
0000
0000
0000
0000
0011
0000
0100
0000
0010
0000
,
0100
0000
1000
0000
0100
0000
0010
0000
0001
0000
0010
0000
0100
0000
0010
0000
0100
0000
1001
0000
0000
0110
0000
0000
,
0000
1010
0011
0000
0011
1010
0000
0101
,
0000
0000
1000
0100
1000
0100
0010
0001
0010
0100
0010
0001
,
1000
0000
0000
0110
1000
0100
0010
0100
1000
0110
0001
0010
,
0100
0010
0100
0011
0100
0010
0001
0010
0100
0011
0100
1000
,
0100
1000
0100
0011
0100
0010
0001
0010
0001
0110
0001
0010
,
0100
1000
0100
1001
0010
0100
0010
0001
0010
1100
0010
0100
,
1000
0100
0010
1100
0001
0010
0001
0010
0100
0011
1000
0100
,
1000
0100
0010
1100
0001
0010
0001
0010
0100
0011
0100
1000
,
0100
1000
0100
0011
0100
0010
0100
0010
0100
0011
0100
0010
,
0001
0010
0001
0110
0001
0010
0001
0010
0001
0110
1000
0100
,
0010
0001
0010
1100
0010
0100
0010
0001
0010
1100
0001
0010
,
0100
0010
1100
0011
1100
0011
1100
0010
0100
0011
1000
0100
,
1000
0100
0010
1100
0001
0010
0100
1000
0100
0011
0100
0010
,
1000
0100
0010
0001
1000
0100
0010
0001
0010
0100
1000
0001
0010
0100
1000
0100
1000
0100
0010
0001
0010
0100
1000
0100
,
0010
0100
1000
0110
1000
0100
1000
0100
0010
1100
0001
0010
,
0001
0010
0100
0011
0100
0010
0001
0010
0100
1001
0010
0100
,
0010
0100
0010
1100
0001
0010
0100
0010
0100
0011
0100
0010
,
0001
0010
0100
0011
0100
1000
0100
1000
0100
1001
0010
0100
,
0010
0001
0010
1100
0010
0001
0010
0001
0010
1001
0100
1000
,
0100
0010
0001
0110
1000
0100
1000
0100
0010
1100
0001
0010
,
0001
0010
0100
0011
0100
0010
0100
0010
0100
1001
0010
0100
,
0010
0100
0010
1100
0001
0010
0001
0010
0001
0110
1000
0100
,
0010
0100
1000
0110
0001
0010
0001
0010
0100
0011
1000
0100
,
1000
0100
0010
1100
0010
0100
0010
0100
0010
1001
0100
0010
,
0001
0010
0100
0011
1000
0100
0010
0100
0010
1100
0010
0100
,
0010
0100
0010
1100
0010
0100
0010
0001
0010
1001
0100
0010
,
0100
1000
0100
0011
0100
0010
0100
1000
0100
1001
0010
0001
,
0010
0000
0000
0000
0100
0000
0000
0000
1000
0000
0000
0000
0110
0000
0000
0000
0001
0000
0000
0000
0010
0000
0000
0000
0100
0000
0000
0000
1000
0000
0000
0000
0100
0000
0000
0000
0011
0000
0000
0000
0100
0000
0000
0000
0000
0010
0000
0000
,
1000
0100
0001
0010
1000
0001
0100
0010
0001
0010
0001
0010
0100
1000
0100
0010
,
0001
0000
0000
1000
0000
0000
0001
0000
0000
0100
0000
0000
0010
0000
0000
1000
0000
0000
0100
0000
0000
0010
0000
0000
1000
0000
0000
0100
0000
0000
0010
0000
0000
1000
0000
0000
0110
0000
0000
0000
0001
0000
0000
0000
0010
0000
0000
0000
,
0100
1000
0100
0011
0100
0010
0001
0010
0100
0011
0100
1000
,
0100
1000
0100
1001
0010
0100
0010
0100
0010
1001
0010
0100
,
1000
0100
0010
1100
0001
0010
0001
0010
0100
0011
1000
0100
,
0010
0100
1000
0110
1000
0100
0010
0001
0010
1100
0010
0100
,
1000
0100
1000
0110
1000
0100
0010
0100
1000
0110
1000
0100
,
0010
0001
0010
1100
0010
0100
1000
0100
0010
1100
0010
0001
,
0010
0001
0010
1001
0100
0010
0100
0010
0100
1001
0100
1000
,
0100
0010
0100
0011
1000
0100
1000
0100
0010
1100
0001
0010
,
0100
0010
0001
0110
0001
0010
0100
1000
0100
0011
0100
1000
,
0100
0010
0001
0110
0001
0010
0100
0010
0100
0011
0100
1000
,
0100
0010
0001
0110
0001
0010
0100
0010
0001
1100
0001
0010
,
0001
0010
0001
1100
0001
0010
0100
1000
0100
0011
1000
0100
,
0010
0100
0010
1100
0001
0010
0100
0010
0001
0110
0001
0010
,
0100
1000
0100
0011
1000
0100
0010
0100
0010
1100
0001
0010
,
0100
1000
0100
0011
1000
0100
0010
0100
1000
0110
0001
0010
,
0100
1000
0100
0011
0100
0010
0001
0010
0100
0011
0100
1000
,
0100
1000
0100
1001
0010
0100
0010
0100
0010
1001
0010
0001
,
0010
0000
0000
0000
0100
0000
0000
0000
0010
0000
0000
0000
1100
0000
0000
0000
0001
0000
0000
0000
0010
0000
0000
0000
0001
0000
0000
0000
0010
0000
0000
0000
0100
0000
0000
0000
0011
0000
0000
0000
0100
0000
0000
0000
0000
0010
0000
0000
,
1000
0100
0010
0001
0100
0010
0001
0010
0100
1000
0010
0100
0010
2002
0000
0000
,
0000
0000
0000
0000
0000
0000
0000
0000
0000
0000
0000
0000
0000
3003
0000
0000
;

//---------------dance-single - =o)----------------
#NOTES:
     dance-single:
     =o):
     Medium:
     10:
     0.710,0.994,0.360,0.436,0.139,661.000,57.000,69.000,0.000,0.000:

1001
0010
0100
0010
1000
0000
0011
0100
,
0010
1000
0100
0001
0010
1000
0100
0000
,
1001
0010
0100
0001
0010
0000
1100
0010
,
0100
1000
0001
0010
0100
0001
1000
0001
,
0110
0001
1000
0100
0010
0000
1001
0100
,
0010
1000
0100
1000
0001
0100
1000
0000
,
0110
0001
1000
0100
1000
0000
0110
1000
,
0100
0001
1000
0100
0010
1000
0001
0100
,
1010
0001
0100
0010
0100
0000
1010
0100
,
0001
0100
0001
0010
0100
0001
0010
0000
,
1001
0100
1000
0001
0010
0000
0101
0010
,
1000
0001
1000
0100
0010
0100
1000
0010
,
2000
0000
3200
0000
,
0320
0000
2030
0000
,
3020
0000
0032
0000
,
2003
0000
0000
0000
3200
0000
0000
0300
,
1010
0100
0001
0100
0001
0000
1001
0100
,
0010
0100
0001
1000
0001
0100
0010
0000
,
1100
0010
0001
0010
0001
0000
1001
0010
,
0001
0010
0100
0010
0100
0010
1000
0100
,
0011
0100
1000
0010
1000
0000
1100
0010
,
0001
0010
1000
0100
1000
0010
0100
0000
,
0101
0010
1000
0100
1000
0000
1100
0010
,
0001
1000
0100
0010
1000
0010
0100
0001
,
1010
1001
2010
0010
,
0010
0000
0010
0000
0010
3000
0110
0000
,
1010
0102
0100
0100
,
0100
0000
0100
0000
0100
0003
0110
0000
,
1001
0201
0001
0001
,
0001
0000
0001
0000
0001
0300
1001
0000
,
0110
1002
1000
1000
,
1000
0000
1000
0000
1000
0003
0110
0000
,
1010
0000
0100
0000
0020
0000
0000
0000
0000
0000
0000
0030
0020
0000
0000
0000
,
0000
0030
0020
0000
0000
0000
0000
0030
0020
0000
0000
0030
0020
0000
0000
0000
,
0032
0003
0201
0000
0001
0000
0001
0000
,
0001
0000
0001
0000
0001
0300
1001
0000
,
0110
0102
0100
0100
,
0100
0000
0100
0000
0100
0003
0101
0000
,
0110
2100
0100
0100
,
3001
0010
0001
0100
0001
1000
0100
1000
,
0010
0000
0001
0010
0100
0001
0010
1000
,
0011
0100
0010
0001
0010
0001
0100
0010
,
1000
0000
0100
0000
0001
0000
0000
0000
0001
0010
0001
0000
1000
0000
0010
0000
,
1000
0100
1000
0000
0010
0000
1000
0000
0001
0000
0010
0000
0001
0000
0100
0000
,
0010
0100
0011
1000
0100
1000
0001
0010
,
1001
0010
0100
0001
0010
1000
0010
0100
,
0001
0000
0010
0000
0100
0010
0100
0000
0010
0000
0001
0000
1000
0100
1000
0000
,
0001
0000
0010
0000
0001
0010
0001
0000
0100
0000
1000
0000
0010
0000
0100
0010
,
0100
0010
1100
0001
0100
0010
0100
0000
,
0110
1000
0100
0001
1000
0010
0100
1000
,
0001
0000
0110
1000
0001
0100
0010
0000
,
1001
0100
0010
1000
0001
0100
1000
0001
,
0100
0001
0110
0001
1000
0010
0100
0000
,
0110
0001
0010
1000
0100
0010
0100
1000
,
0001
0000
0110
1000
0001
0100
0010
0000
,
1001
0010
0100
0001
0010
0100
0010
1000
,
0001
0100
1010
0100
0010
0100
0010
0000
,
0101
0010
0100
0001
1000
0001
0010
0100
,
0010
0000
0001
0000
0010
0000
0100
0001
1000
0001
1000
0000
0010
0100
0000
1000
,
0010
0100
0001
0100
0002
0000
0000
0000
0000
0000
0000
0000
0000
0000
0000
0000
,
0000
0000
0000
0000
,
0103
0000
0010
0100
0000
0100
0010
0000
,
0001
0000
0010
0001
0000
0001
0010
0000
,
0001
0000
0010
0100
0000
0100
0010
0000
,
0001
0000
0100
0000
0001
0100
0001
0010
,
0000
0001
0000
0010
0001
0000
0100
0010
,
0000
0000
0100
0000
0000
0000
0001
0000
0010
0000
0001
1000
0100
0000
0100
0000
,
0010
0000
0001
0000
0100
0010
1000
0010
,
1000
0010
0100
1000
0010
1000
0100
0010
,
1000
0010
0100
0010
0001
0100
1000
0100
,
0000
0010
0001
0000
0010
0000
0001
0010
,
0000
0100
0010
0000
0010
0000
0100
0001
,
0000
0010
0001
0000
0001
0010
0000
0001
,
0100
0010
0001
0001
,
0001
0000
0000
0010
0000
0000
0000
0000
0000
0010
0000
0000
0001
0000
0000
0000
0000
0000
0001
0000
0100
0000
0010
0000
,
0100
0000
0010
0000
0100
0000
0010
0000
0100
0000
0010
0000
0100
0000
0010
0000
0100
0000
0001
0000
0000
0010
0000
0000
,
0000
0010
0001
0000
0001
0010
0000
0001
,
0000
0000
1000
0100
1000
0100
0010
0001
0010
0001
0010
0100
,
1000
2100
0000
0100
,
3002
0100
0000
0100
,
0023
0100
0000
1000
,
0000
0100
0000
1000
,
2030
0010
0000
0001
,
0000
0100
0000
0001
,
3200
0001
0000
0010
,
0000
0001
0000
0010
,
0302
1000
0000
0100
,
0000
0000
1000
0000
0023
0030
2001
0000
,
0000
0010
0000
3100
,
0010
0100
0010
0000
0001
0010
0001
0000
0100
0010
0100
0000
0001
0100
0001
0000
,
0020
0100
0000
1000
,
0032
1000
0000
0100
,
0023
0100
0000
1000
,
2030
0001
0000
0100
,
3002
0010
0000
0100
,
0023
0100
0000
1000
,
0230
0001
0000
0010
,
2300
0010
3002
0100
,
0023
0001
0000
0001
,
0230
1000
0000
1000
,
0302
0010
0000
1000
,
0023
1000
0000
1000
,
0230
0001
0000
0010
,
0302
0100
0000
0010
,
1003
0100
1000
0000
0010
0100
0010
0000
1000
0010
1000
0000
0001
0010
0001
0000
,
0100
0010
0100
0000
0001
0100
0001
0000
1000
0010
1000
0000
0010
0100
0010
0000
,
2000
0001
0000
0001
,
3200
1000
0000
1000
,
0320
0001
0000
0001
,
0230
0010
0000
0001
,
0302
0010
0000
1000
,
0203
0010
0000
0010
,
0302
0010
0000
0100
,
2003
0001
3020
0100
,
2030
0010
0000
0100
,
3020
0100
0000
1000
,
0230
0001
0000
0010
,
0302
0000
0010
0000
0000
0000
0203
0300
,
2000
0001
0000
0001
,
3200
0001
0000
0001
,
0302
0010
0000
0100
,
2003
0001
0000
0001
,
3200
0000
0001
0000
0000
0000
0320
0030
,
0002
0100
2003
0010
,
3010
0100
0010
0000
1000
0100
1000
0000
0001
0010
0001
0000
0010
0100
0010
0000
,
2002
0000
0000
0000
,
3003
0000
0000
0000
;

//---------------dance-single - =D----------------
#NOTES:
     dance-single:
     =D:
     Hard:
     13:
     1.000,1.000,0.758,0.189,1.000,1375.000,120.000,30.000,0.000,21.000:




1001
0000
1000
0001
0010
0100
0001
0100
0010
1000
0010
0001
0110
0000
1001
0000
,
0110
0000
0010
0001
0010
1000
0100
0001
0010
0100
0001
0100
0001
1000
0010
0100
,
1001
0000
1000
0001
0010
0001
1000
0100
0010
1000
0010
0001
0110
0000
1001
0000
,
0110
0000
1000
0000
0001
0000
0100
0000
0010
0001
0010
0100
1000
0100
0010
0001
,
0110
0000
0100
0001
0100
1000
0010
0001
0100
0010
1000
0010
1001
0000
0110
0000
,
1001
0000
0010
1000
0001
0100
0010
1000
0100
0001
0100
0001
0010
1000
0010
0100
,
1001
0000
1000
0010
1000
0010
0001
0100
0010
1000
0001
1000
0110
0000
1001
0000
,
0110
0001
1100
0100
0110
1000
1100
0010
,
0101
0000
0100
0001
0100
1000
0010
0001
0100
0010
1000
0010
1001
0000
0110
0000
,
1001
0000
0010
1000
0001
0100
0010
1000
0100
0001
0100
0001
0010
1000
0010
0100
,
1001
0000
1000
0010
1000
0010
0001
0100
0010
1000
0001
1000
0110
0000
1001
0000
,
0110
0000
0001
0000
1100
0000
0100
0000
0110
1000
0100
0010
1000
0100
0010
0001
,
1000
0100
0001
0010
1000
0100
0001
1000
0010
0100
0001
1000
0010
0100
0010
0001
,
0100
1000
0010
1000
0001
0100
0001
1000
0010
1000
0001
0100
0001
1000
0010
0100
,
1000
0100
0010
0100
0010
0100
0001
1000
0001
1000
0010
0100
0001
1000
0010
1000
,
0001
0100
0010
0001
0100
1000
0010
0001
0010
1000
0200
0000
0010
0001
0310
0100
,
1010
0000
0010
0100
0001
1000
0100
1000
0001
0010
0001
0100
1001
0000
0110
0000
,
1001
0000
0001
0100
0001
0010
1000
0100
0001
1000
0100
1000
0100
0010
0001
1000
,
0110
0000
0010
0100
0001
0100
0010
1000
0001
0010
0001
0100
1001
0000
0110
0000
,
1001
0001
0101
0010
0011
0100
1100
0001
,
0011
0000
0001
0010
1000
0100
0010
0100
1000
0001
1000
0010
1100
0000
0011
0000
,
1100
0000
1000
0010
1000
0001
0100
0010
1000
0100
0010
0100
0010
0001
1000
0100
,
0011
0000
0001
0010
1000
0010
0001
0100
1000
0001
1000
0010
1100
0000
0011
0000
,
1100
1000
1010
0001
1001
0010
0110
0001
,
0110
0000
1001
0000
2001
0010
0001
0010
,
0100
0010
0001
0010
0001
0010
3210
1000
,
0321
0100
1032
0010
0100
0010
0100
0010
,
1000
0010
0100
1000
0010
1000
0123
0001
,
2130
0010
3201
0010
0001
0010
0001
0010
,
1000
0010
0001
0010
1000
0010
2301
0010
,
3021
0100
1032
0100
0010
1000
0010
0100
,
1000
0100
0010
1000
0100
1000
0213
0001
,
2310
0000
3201
0000
0321
0000
1000
0000
0100
0000
1000
0030
0120
0000
1000
0000
,
0100
0030
1020
0000
0100
0000
1000
0030
0120
0000
1000
0030
0120
0000
1000
0000
,
0132
1000
0213
0001
1000
0010
1000
0001
,
0010
0001
1000
0001
0010
0001
2310
0001
,
3120
1000
0132
0010
1000
0100
0010
1000
,
0010
1000
0100
0010
0100
1000
0123
1000
,
0231
0010
2301
0100
0010
0001
0010
0001
,
3001
0010
1000
0100
0001
0010
1000
0100
0001
0000
1000
0000
0010
0100
1000
0000
,
0010
0100
0001
0010
0100
0001
0010
1000
,
0011
1100
0010
0001
0010
0001
0100
0011
,
0010
0000
0110
0000
0001
0010
0100
0000
0001
0010
0100
0000
1000
0100
0010
0001
,
0110
0000
1000
0100
0010
0001
1000
0000
0001
0000
0010
0000
0001
0000
0100
0000
,
0010
0100
0011
0010
0110
1000
0001
0010
,
1001
0110
1001
1000
0010
0001
0010
1100
,
0100
0000
0110
0000
0001
0010
0100
0000
0010
0000
0100
0000
0011
0100
1000
0000
,
0001
0000
0010
0000
0001
0010
0100
0000
0001
0010
0100
1000
0010
0000
0100
0010
,
1001
0000
0010
0000
1100
0000
0001
0010
0100
1000
0010
0001
0100
1000
0010
1000
,
0110
0000
1001
0000
0110
0000
0100
0010
1000
0100
0010
0001
0100
0010
1000
0100
,
0001
1000
0010
0001
0110
0000
0010
0100
0001
0010
0100
1000
0010
0100
0001
0010
,
1001
0110
1001
0100
0110
0010
1010
0010
,
0011
0000
0010
0000
1010
0000
0001
0010
0100
1000
0010
0001
0100
1000
0010
1000
,
0110
0000
1001
0000
0110
0000
0100
0010
1000
0100
0010
0001
0100
0010
1000
0100
,
0001
1000
0010
0001
0110
0000
0010
0100
0001
0010
0100
1000
0010
0100
0001
0010
,
1001
0110
1001
0100
0110
0010
1010
0010
,
0011
0000
0010
0000
0110
0000
0100
0001
0010
1000
0100
0001
0010
0100
1000
0001
,
0010
0100
1010
0000
0110
0000
0001
0010
0100
1000
0001
0010
0100
0010
0100
1000
,
0010
0001
0010
0100
1000
0000
0100
0001
0010
1000
0100
0000
0001
0010
0000
1000
,
0010
0001
0010
0100
0002
0000
0000
0000
0000
0000
0000
0000
0000
0000
0013
0100
,
1000
0000
0000
0000
0100
1000
0100
0010
0001
0010
0100
1000
0101
0000
0000
0000
,
0100
0000
0010
0100
0000
0100
0010
0000
,
0001
0000
0010
0001
0000
0001
0010
0000
,
0001
0000
0010
0010
0000
0010
0010
0000
,
0001
0000
0100
0000
0001
0100
0001
0010
,
0000
0001
0000
0010
0001
0000
0100
0010
,
0000
0000
0100
0000
0000
0000
0001
0000
0010
0000
0001
1000
0100
0010
0001
0000
,
0010
0000
0000
0000
0001
0000
0000
0000
0100
0000
0010
0000
1000
0100
0010
0001
,
1000
0100
0010
0001
0010
0100
1000
0001
0010
0100
1000
0010
0100
1000
0010
0100
,
1000
0001
0010
1000
0100
0001
0010
0100
0001
0010
0100
0000
0000
0000
0100
0000
,
0000
0010
0001
0000
0010
0000
0001
0010
,
0000
0100
0010
0000
0010
0000
0100
0001
,
0000
0010
0001
0000
0001
0010
0000
0001
,
0100
0010
0001
0001
,
0001
0000
0000
0010
0000
0000
0000
0000
0000
0010
0000
0000
0001
0000
0000
0000
0000
0000
0001
0000
0100
0000
0010
0000
,
0100
0000
1000
0000
0100
0000
0010
0000
0001
0000
0010
0000
0100
0000
0010
0000
0100
0000
0001
0000
0000
0010
0000
0000
,
0000
0010
0001
0000
0001
0010
0000
0001
,
0000
0000
1000
0100
1000
0100
0010
0001
0010
0100
0010
0001
,
1000
0000
0000
0010
1000
0100
0010
0100
1000
0010
0001
0010
,
0100
0010
0100
0001
0100
0010
0001
0010
0100
0001
0100
1000
,
0100
1000
0100
0001
0100
0010
0001
0010
0001
0010
0001
0010
,
0100
1000
0100
0001
0010
0100
0010
0001
0010
0100
0010
0100
,
1000
0100
0010
0100
0001
0010
0001
0010
0100
0001
1000
0100
,
1000
0100
0010
0100
0001
0010
0001
0010
0100
0001
0100
1000
,
0100
1000
0100
0001
0100
0010
0100
0010
0100
0001
0100
0010
,
0001
0010
0001
0010
0001
0010
0001
0010
0001
0010
1000
0100
,
0010
0001
0010
0100
0010
0100
0010
0001
0010
0100
0001
0010
,
0100
0010
0100
0001
0100
0001
0100
0010
0100
0001
1000
0100
,
1000
0100
0010
0100
0001
0010
0100
1000
0100
0001
0100
0010
,
1000
0010
0100
1000
0001
0010
0100
0001
1000
0010
1000
0001
0100
0001
1000
0100
,
0010
0100
1000
0010
1000
0100
1000
0100
0010
0100
0001
0010
,
0001
0010
0100
0001
0100
0010
0001
0010
0100
0001
0010
0100
,
0010
0100
0010
0100
0001
0010
0100
0010
0100
0001
0100
0010
,
0001
0010
0100
0001
0100
1000
0100
1000
0100
0001
0010
0100
,
0010
0001
0010
0100
0010
0001
0010
0001
0010
0001
0100
1000
,
0100
0010
0001
0010
1000
0100
1000
0100
0010
0100
0001
0010
,
0001
0010
0100
0001
0100
0010
0100
0010
0100
0001
0010
0100
,
0010
0100
0010
0100
0001
0010
0001
0010
0001
0010
1000
0100
,
0010
0100
1000
0010
0001
0010
0001
0010
0100
0001
1000
0100
,
1000
0100
0010
0100
0010
0100
0010
0100
0010
0001
0100
0010
,
0001
0010
0100
0001
1000
0100
0010
0100
0010
0100
0010
0100
,
0010
0100
0010
0100
0010
0100
0010
0001
0010
0001
0100
0010
,
0100
1000
0100
0001
0100
0010
0100
1000
0100
0001
0010
0001
,
0010
0000
0000
0000
0100
0000
0000
0000
1000
0000
0000
0000
0010
0000
0000
0000
0001
0000
0000
0000
0010
0000
0000
0000
0100
0000
0000
0000
1000
0000
0000
0000
0100
0000
0000
0000
0001
0000
0000
0000
0100
0000
0000
0000
0000
0010
0000
0000
,
1000
0100
0001
0010
1000
0001
0100
0010
0001
0010
0100
1000
0100
0010
0100
0010
,
0001
0000
0000
1000
0000
0000
0001
0000
0000
0100
0000
0000
0010
0000
0000
1000
0000
0000
0100
0000
0000
0010
0000
0000
1000
0000
0000
0100
0000
0000
0010
0000
0000
1000
0000
0000
0010
0000
0000
0000
0001
0000
0000
0000
0010
0000
0000
0000
,
0100
1000
0100
0001
0100
0010
0001
0010
0100
0001
0100
1000
,
0100
1000
0100
0001
0010
0100
0010
0100
0010
0001
0010
0100
,
1000
0100
0010
0100
0001
0010
0001
0010
0100
0001
1000
0100
,
0010
0100
1000
0010
1000
0100
0010
0001
0010
0100
0010
0100
,
1000
0100
1000
0010
1000
0100
0010
0100
1000
0010
1000
0100
,
0010
0001
0010
0100
0010
0100
1000
0100
0010
0100
0010
0001
,
0010
0001
0010
0001
0100
0010
0100
0010
0100
0001
0100
1000
,
0100
0010
0100
0001
1000
0100
1000
0100
0010
0100
0001
0010
,
0100
0010
0001
0010
0001
0010
0100
1000
0100
0001
0100
1000
,
0100
0010
0001
0010
0001
0010
0100
0010
0100
0001
0100
1000
,
0100
0010
0001
0010
0001
0010
0100
0010
0001
0100
0001
0010
,
0001
0010
0001
0100
0001
0010
0100
1000
0100
0001
1000
0100
,
0010
0100
0010
0100
0001
0010
0100
0010
0001
0010
0001
0010
,
0100
1000
0100
0001
1000
0100
0010
0100
0010
0100
0001
0010
,
0100
1000
0100
0001
1000
0100
0010
0100
1000
0010
0001
0010
,
0100
1000
0100
0001
0100
0010
0001
0010
0100
0001
0100
1000
,
0100
1000
0100
0001
0010
0100
0010
0100
0010
0001
0010
0001
,
0010
0000
0000
0000
0100
0000
0000
0000
0010
0000
0000
0000
0100
0000
0000
0000
0001
0000
0000
0000
0010
0000
0000
0000
0001
0000
0000
0000
0010
0000
0000
0000
0100
0000
0000
0000
0001
0000
0000
0000
0100
0000
0000
0000
0000
0010
0000
0000
,
1000
0100
0010
0001
0100
0010
0001
0010
0100
1000
0010
0100
0010
2002
0000
0000
,
0000
0000
0000
0000
0000
0000
0000
0000
0000
0000
0000
0000
0000
3003
0000
0000
;
