#TITLE:Tracing Fale;
#SUBTITLE:;
#ARTIST:Onoken;
#TITLETRANSLIT:;
#SUBTITLETRANSLIT:;
#ARTISTTRANSLIT:;
#CREDIT:;
#BANNER:Tracingban.png;
#BACKGROUND:Tracingbg.jpg;
#LYRICSPATH:;
#CDTITLE:!ObsTitle.png;
#MUSIC:Onoken - Tracing Fale.mp3;
#OFFSET:-0.240;
#SAMPLESTART:75.002;
#SAMPLELENGTH:12.000;
#SELECTABLE:YES;
#BPMS:0.000=76.490,64.000=152.970,128.000=76.490,160.000=152.970;
#STOPS:;
#BGCHANGES:;
// cache tags:
#FIRSTBEAT:0.000;
#LASTBEAT:288.000;
#SONGFILENAME:Songs/Fresh Flock of Fantastic Files F4/(Observer) Tracing Fale/Tracing.sm;
#HASMUSIC:1;
#HASBANNER:1;
#MUSICLENGTH:153.242;
// end cache tags

//---------------dance-single - ----------------
#NOTES:
     dance-single:
     :
     Hard:
     10:
     0.714,0.869,0.777,0.046,0.688,640.000,119.000,7.000,0.000,0.000:
1001
0000
0000
0000
0100
0000
0000
0010
0000
0000
1000
0000
0100
0000
0010
0000
,
1001
0000
0000
0000
0010
0000
0000
0100
0000
0000
0010
0000
0001
0000
0000
0000
,
0110
0000
0000
0000
1000
0000
0000
0100
0000
0000
0001
0000
0010
0000
0100
0000
,
1001
0000
0000
0000
0001
0000
0000
0010
0000
0000
0100
0000
0010
0000
1000
0000
,
1001
0000
0000
0000
0110
0000
0000
1010
0000
0000
1100
0000
0011
0000
1001
0000
,
0101
0000
0000
0000
1010
0000
0000
0011
0000
0000
1100
0000
1010
0000
0000
0000
,
0011
0000
0000
0000
0110
0000
0000
1001
0000
0000
0110
0000
0101
0000
1010
0000
,
2200
0000
0000
0000
0000
3300
0000
0000
0220
0000
0000
0000
0000
0000
0330
0000
,
1001
0100
0010
0001
0000
0010
0000
0100
0000
1000
0000
0000
0000
0000
0000
0000
,
1001
0010
0100
1000
0000
0100
0000
0010
0000
0100
0000
1000
0000
0000
0000
0000
,
0011
1000
0100
1000
0000
0010
0000
1000
0000
0010
0000
0000
0000
0000
0000
0000
,
1100
0001
0010
0001
0000
0100
0000
0001
0000
0010
0000
0100
0000
1000
0000
0000
,
1010
0100
0010
1000
0110
0001
0000
0010
0000
0101
1010
0000
0110
0000
1001
0000
,
0101
0010
1000
0001
0110
1000
0000
0100
0000
1010
0101
0010
1100
0000
0110
0000
,
1001
0100
0010
0100
1001
0010
0000
0100
0000
0011
1100
0000
1010
0000
0110
0000
,
1001
0000
0000
0000
0000
0000
0000
0000
0000
0000
0000
0000
0100
0000
0000
0000
0000
0000
0000
0000
0000
0000
0000
0000
0010
0000
0000
0000
0000
0000
0000
0000
0000
0000
0000
0000
0001
0000
0000
0000
0000
0000
0000
0000
0000
0000
0000
0000
0000
0000
0000
0000
0000
0000
0000
0000
0000
0000
0000
0000
1000
0000
0000
0000
0000
0000
0000
0000
0000
0000
0000
0000
0000
0000
0000
0000
0000
0000
0000
0000
0000
0000
0000
0000
0100
0000
0000
0000
0000
0000
0010
0000
0000
0000
0000
0000
0200
0000
0000
0000
0000
0000
0000
0000
0000
0000
0000
0000
0000
0000
0000
0000
0000
0000
0000
0000
0000
0000
0000
0000
0000
0000
0000
0000
0000
0000
0000
0000
0000
0000
0000
0000
0300
0000
0000
0000
0000
0000
0000
0000
0000
0000
0000
0000
1000
0000
0000
0000
0000
0000
0000
0000
0100
0000
0000
0000
0000
0000
0000
0000
0010
0000
0000
0000
0000
0000
0000
0000
0001
0000
0000
0000
0000
0000
0000
0000
0010
0000
0000
0000
0000
0000
0000
0000
0100
0000
0000
0000
0000
0000
0000
0000
,
1001
0100
0010
0001
0000
0010
0100
0001
,
0000
0100
1001
0000
1100
0000
0101
0000
,
1001
0010
0100
0001
0000
0100
0010
1000
,
0110
0010
0101
0100
0011
0010
1100
0100
,
1001
0010
1100
0001
0110
0001
1010
0001
,
1100
0010
1001
0010
1100
0010
0101
0001
,
0110
0001
0010
1000
0000
1000
0100
0001
,
1000
0100
0010
0001
1000
0100
0010
0100
1000
0100
0010
0001
0010
0100
0010
0001
,
0110
1000
0100
0010
0000
0100
0000
1000
,
0011
0110
0101
1010
,
1001
0100
0001
0010
0000
0100
0000
0010
,
0101
0100
1001
0001
1100
0000
0011
0000
,
1001
0001
0100
0001
0000
1000
0110
0010
,
1100
1000
1010
0000
0101
0000
0110
0000
,
1001
0100
0011
1000
0110
0001
1010
0100
,
1000
0100
0010
0001
0001
0010
0100
1000
1000
0100
0010
0001
0001
0010
0100
1000
,
1001
0000
0000
0000
0000
0000
0100
0000
0010
0000
0000
0001
0000
0000
0010
0000
,
0101
0000
0000
0000
0000
0000
0000
0010
,
1001
0000
0000
0000
0000
0000
0010
0000
0100
0000
0000
0010
0000
0000
0001
0000
,
1100
0000
0000
0000
0000
0010
0000
0000
1001
0000
0000
0010
0000
0000
0100
0000
,
0110
0000
0000
0000
0000
0000
1000
0000
0100
0000
0000
0001
0000
0000
0010
0000
,
0101
0000
0000
0000
0000
0000
0000
0010
,
1001
0000
0000
0000
0000
0000
1000
0000
0100
0000
0000
0010
0000
0000
0001
0000
,
0220
0000
0000
0000
0000
0000
0000
0330
0000
0000
0000
0000
0000
0100
0010
0100
,
1001
0100
0100
0001
0000
0001
0100
0000
,
0000
0000
0000
0000
0000
1000
0100
0001
,
1100
0100
0010
0010
0000
0010
0100
0000
,
0000
0000
0000
0000
0000
0001
0010
0100
,
1001
0001
0100
0100
0000
1000
1000
0100
,
0000
0100
0000
0010
0000
0001
1000
0100
,
1001
0000
0100
0010
0000
0100
0001
0100
,
0000
0010
0000
1000
0000
0001
0010
1000
,
0110
1000
0011
0101
0010
1100
1010
0100
,
0001
1000
0100
1000
0010
0100
0001
0100
,
1001
0010
0110
1100
0100
1010
0101
0010
,
1000
0010
0100
0001
0100
1000
0010
0100
,
1010
0001
0110
0101
1000
0011
1010
0100
,
0011
1000
0110
1100
0001
1010
0011
0100
,
0011
0000
0010
0001
0000
0001
0010
0001
,
0000
0000
0100
0000
0010
0000
0100
0000
1000
0100
0010
0001
0010
0100
1000
0100
,
1000
0100
0010
0001
1000
0100
0010
0100
1000
0010
0100
0001
1000
0001
0100
0010
,
0001
0100
0010
1000
0100
0010
0100
1000
0001
0010
0100
1000
0001
0100
0010
1000
,
0100
0010
0100
1000
0001
0100
0010
1000
0100
0010
0100
0010
0001
0010
0001
0100
,
0010
0100
1000
0100
0010
0001
1000
0010
1000
0100
0010
0100
1000
0100
0010
0001
,
1000
0100
0010
0001
1000
0100
0010
0100
1000
0100
0001
0010
0001
0010
0100
1000
,
0100
0010
0100
0010
0001
0010
0100
1000
0001
0010
0100
0010
0001
0100
0010
1000
,
0001
0010
0100
0010
0100
1000
0100
1000
0100
0010
0100
1000
0001
0010
0100
0010
,
0001
0100
0010
1000
0001
1000
0010
0100
0001
1000
0100
0010
0100
1000
0100
0001
,
0010
0001
0010
0100
1000
0010
0100
0001
1000
0001
0100
0010
1000
0100
0010
0100
,
1000
0001
0100
0010
1000
0100
1000
0100
0010
0001
0010
0001
0010
0100
1000
0010
,
0100
0001
0010
0100
0010
0001
1000
0100
0010
0100
1000
0001
0010
0100
0010
0100
,
1000
0010
0100
0001
0010
0100
0010
0001
1000
0100
0010
0001
0010
0100
1000
0001
,
0100
0010
1000
0001
0100
0010
1000
0100
0010
0001
1000
0001
0100
0010
1000
0010
,
0100
0001
0010
0001
0010
0100
1000
0100
1000
0010
0100
0001
1000
0010
0100
0010
,
0100
1000
0001
0010
0100
1000
0001
0010
0100
0010
0001
0100
0010
0100
0010
1000
,
0001
0010
0100
0010
0001
0010
0001
0100
0010
1000
0001
0100
0010
1000
0100
0010
,
1001
0000
0000
0000
;
