#TITLE:Dark Caves of Lolno;
#SUBTITLE:Remake;
#ARTIST:Prebensoerensen93 remixed by Metallicais1337;
#TITLETRANSLIT:;
#SUBTITLETRANSLIT:;
#ARTISTTRANSLIT:;
#CREDIT:;
#BANNER:../bn.png;
#BACKGROUND:../bg.png;
#LYRICSPATH:;
#CDTITLE:;
#MUSIC:dark caves of lolno remake.ogg;
#OFFSET:-0.916;
#SAMPLESTART:38.800;
#SAMPLELENGTH:17.500;
#SELECTABLE:YES;
#DISPLAYBPM:222.000;
#BPMS:0.000=222.006;
#STOPS:;
#BGCHANGES:;
// cache tags:
#FIRSTBEAT:20.000;
#LASTBEAT:734.063;
#SONGFILENAME:Songs/Cirque du Zonda/Zaia - Dark Caves of Lolno/dark caves of lolno remake.sm;
#HASMUSIC:1;
#HASBANNER:1;
#MUSICLENGTH:205.310;
// end cache tags

//---------------dance-single - Zaia - 18.7----------------
#NOTES:
     dance-single:
     Zaia - 18.7:
     Challenge:
     18:
     1.000,1.000,0.000,0.136,1.000,2121.000,0.000,28.000,13.000,0.000:
0000
0000
0000
0000
,
0000
0000
0000
0000
,
0000
0000
0000
0000
,
0000
0000
0000
0000
,
0000
0000
0000
0000
,
0001
0010
0100
1000
0001
1000
0100
0010
0001
1000
0010
0100
0001
1000
0010
0100
,
0001
1000
0100
1000
0001
0010
0100
0010
0001
1000
0010
0100
0010
1000
0001
0100
,
0001
1000
0100
0010
0001
0010
0100
1000
0001
1000
0010
0100
0001
0100
0010
1000
,
0001
1000
0100
0010
0001
1000
0100
0010
0001
0000
0000
0000
0000
0000
0000
0000
,
0000
M000
0000
000M
0000
0000
0000
00M0
,
0000
0000
0M00
0000
0000
0000
0000
000M
,
1000
0010
0100
0001
,
1000
0100
1000
0010
,
0100
0001
1000
0100
,
0010
0001
1000
0010
,
0100
0001
0010
0001
,
1000
0010
0100
0001
,
1000
0100
0010
0100
,
1000
0000
0002
0000
0000
0003
0000
0000
1000
0000
0000
0000
0100
0000
0000
0000
,
0010
0000
0000
0000
0100
0000
0000
0000
1000
0000
0002
0000
0000
0003
0000
0000
,
0100
0001
1000
0001
,
0010
0100
0010
0000
0001
0000
1000
0000
,
0100
0000
1000
0000
0010
0100
0010
0100
,
0001
1000
0100
0010
,
0001
1000
0001
0010
,
0100
1000
0001
0100
,
0010
0100
0001
0010
,
0100
1000
0001
0100
,
0010
0100
0001
1000
,
0100
0010
0100
1000
,
0010
0100
0000
0000
0001
0000
0100
0000
,
0010
0000
1000
0000
0100
0010
0000
0000
,
0100
1000
0001
0100
,
0010
0100
0000
0000
0010
0000
1000
0000
,
0001
0000
1000
0100
0010
0001
0010
0100
,
2000
3002
0203
0320
,
2030
0000
3200
0320
0032
2003
3020
0230
,
0301
1000
0010
0100
0001
1000
0001
1000
0100
0010
0001
1000
0001
1000
0010
0100
,
0001
1000
0010
0100
0001
1000
0001
1000
0100
0010
0001
1000
0001
1000
0010
0100
,
0001
1000
0100
1000
0001
0010
0001
0010
0100
1000
0001
0100
0001
0100
0010
1000
,
0001
0100
0001
1000
0100
0010
0100
0010
0001
1000
0010
0100
0010
0100
0001
1000
,
0010
0100
0001
0010
0100
1000
0001
1000
0010
0100
0001
1000
0100
0010
0100
1000
,
0001
0100
0010
1000
0001
0100
0001
1000
0100
0010
0100
1000
0001
0100
0010
0100
,
0001
1000
0001
0010
0100
1000
0001
1000
0001
0100
0010
1000
0100
0010
0100
1000
,
0010
0100
0001
1000
0100
0010
0001
1000
0010
0100
0010
1000
0001
1000
0100
1000
,
0001
0010
0100
1000
0001
1000
0010
1000
0001
0100
0010
1000
0001
0010
0100
1000
,
0001
0010
0001
1000
0001
0100
0010
0100
0001
0010
0100
0010
0001
1000
0010
0100
,
0001
1000
0100
0010
0001
1000
0001
1000
0010
0100
0001
1000
0001
1000
0100
0010
,
0001
1000
0100
0010
0001
1000
0001
1000
0010
0100
0001
1000
0001
1000
0100
0010
,
0001
1000
0010
1000
0001
0100
0001
0100
0010
1000
0001
0010
0001
0010
0100
1000
,
0001
0010
0001
1000
0010
0100
0010
0100
0001
1000
0100
0010
0100
0010
0001
1000
,
0100
0010
0001
0100
0010
1000
0001
1000
0100
0010
0001
1000
0010
0100
0010
1000
,
0001
0010
0100
1000
0001
0010
0001
1000
0010
0100
0010
1000
0001
0010
0100
0010
,
0001
1000
0001
0100
0010
1000
0001
1000
0001
0010
0100
1000
0010
0100
0010
1000
,
0100
0010
0001
1000
0010
0100
0001
1000
0100
0010
0100
1000
0001
1000
0010
1000
,
0001
0100
0010
1000
0001
1000
0100
1000
0001
0010
0100
1000
0001
0100
0010
1000
,
0001
0100
0001
1000
0001
0010
0100
0010
0001
0100
0010
0100
0001
1000
0100
0010
,
0001
1000
0001
1000
0001
0010
0100
0010
0001
1000
0100
0010
0100
1000
0001
0010
,
0100
1000
0001
1000
0100
1000
0001
0010
0001
1000
0100
0010
0001
0010
0100
1000
,
0001
0100
0010
0100
0001
1000
0010
0100
0001
1000
0001
0100
0010
1000
0001
0100
,
0001
1000
0010
0100
0010
1000
0001
0100
0010
1000
0001
0100
0001
1000
0010
0100
,
0001
1000
0001
0010
0100
1000
0001
0010
0001
1000
0100
0010
0100
1000
0001
1000
,
0100
1000
0001
0010
0100
1000
0100
0010
0001
1000
0001
0010
0100
0010
0001
1000
,
0001
0100
0010
0100
0001
1000
0010
0100
0001
1000
0001
0100
0001
1000
0010
1000
,
0001
0100
0010
1000
0010
0100
0001
1000
0001
0100
0010
1000
0001
0010
0100
1000
,
0001
0010
0100
1000
,
0001
0100
0001
0010
,
0100
1000
0001
0100
,
0010
1000
0001
0010
,
0100
1000
0010
1000
,
0001
0010
0100
1000
,
0001
0100
0010
0100
,
0001
2000
0000
3000
0001
0000
0100
0000
,
0010
0000
0100
0000
0001
1000
0001
0000
,
0100
0001
1000
0001
,
0100
0020
0000
0030
1000
0000
0001
0000
,
0010
0000
0001
0000
0100
0010
0100
0010
,
1000
0001
0010
0100
,
1000
0001
1000
0100
,
0010
0001
1000
0010
,
0100
0001
1000
0010
,
0100
0001
1000
0010
,
0100
0010
1000
0001
,
0100
0010
1000
0001
,
0010
0100
0010
0000
0001
0000
0100
0000
,
0010
0000
1000
0000
0010
0100
0000
0000
,
0010
1000
0001
0010
,
0100
1000
0100
0000
0010
0000
0001
0000
,
1000
0000
0001
0010
0100
1000
0010
0100
,
0002
0203
0320
2030
,
3002
0000
0203
0320
2030
3020
0230
0302
,
1003
0100
0010
0100
1000
0001
1000
0001
0100
0010
1000
0001
1000
0001
0010
0100
,
1000
0001
0010
0100
1000
0001
1000
0001
0100
0010
1000
0001
1000
0001
0010
0100
,
1000
0001
0100
0001
1000
0010
1000
0010
0100
0001
1000
0100
1000
0100
0010
0001
,
1000
0100
1000
0001
0100
0010
0100
0010
1000
0001
0010
0100
0010
0100
1000
0001
,
0010
0100
1000
0010
0100
0001
1000
0001
0010
0100
1000
0001
0100
0010
0100
0001
,
1000
0100
0010
0001
1000
0100
1000
0001
0100
0010
0100
0001
1000
0100
0010
0100
,
1000
0001
1000
0010
0100
0001
1000
0001
1000
0100
0010
0001
0100
0010
0100
0001
,
0010
0100
1000
0001
0100
0010
1000
0001
0010
0100
0010
0001
1000
0001
0100
0001
,
1000
0010
0100
0001
1000
0001
0010
0001
1000
0100
0010
0001
1000
0010
0100
0001
,
1000
0010
1000
0001
1000
0100
0010
0100
1000
0010
0100
0010
1000
0001
0010
0100
,
1000
0001
0100
0010
1000
0001
1000
0001
0010
0100
1000
0001
1000
0001
0100
0010
,
1000
0001
0100
0010
1000
0001
1000
0001
0010
0100
1000
0001
1000
0001
0100
0010
,
1000
0001
0010
0001
1000
0100
1000
0100
0010
0001
1000
0010
1000
0010
0100
0001
,
1000
0010
1000
0001
0010
0100
0010
0100
1000
0001
0100
0010
0100
0010
1000
0001
,
0100
0010
1000
0100
0010
0001
1000
0001
0100
0010
1000
0001
0010
0100
0010
0001
,
1000
0010
0100
0001
1000
0010
1000
0001
0010
0100
0010
0001
1000
0010
0100
0010
,
1000
0001
1000
0100
0010
0001
1000
0001
1000
0010
0100
0001
0010
0100
0010
0001
,
0100
0010
1000
0001
0010
0100
1000
0001
0100
0010
0100
0001
1000
0001
0010
0001
,
1000
0100
0010
0001
1000
0001
0100
0001
1000
0010
0100
0001
1000
0100
0010
0001
,
1000
0100
1000
0001
1000
0010
0100
0010
1000
0100
0010
0100
1000
0001
0100
0010
,
1000
0001
1000
0001
1000
0010
0100
0010
1000
0001
0100
0010
0100
0001
1000
0010
,
0100
0001
1000
0001
0100
0001
1000
0010
1000
0001
0100
0010
1000
0010
0100
0001
,
1000
0100
0010
0100
1000
0001
0010
0100
1000
0001
1000
0100
0010
0001
1000
0100
,
1000
0001
0010
0100
0010
0001
1000
0100
0010
0001
1000
0100
1000
0001
0010
0100
,
1000
0001
1000
0010
0100
0001
1000
0010
1000
0001
0100
0010
0100
0001
1000
0001
,
0100
0001
1000
0010
0100
0001
0100
0010
1000
0001
1000
0010
0100
0010
1000
0001
,
1000
0100
0010
0100
1000
0001
0010
0100
1000
0001
1000
0100
1000
0001
0010
0001
,
1000
0100
0010
0001
0010
0100
1000
0001
1000
0100
0010
0001
1000
0010
0100
0001
,
1000
0001
0100
0010
1000
0001
1000
0001
0010
0100
1000
0001
1000
0001
0100
0010
,
1000
0001
0100
0010
1000
0100
1000
0100
0010
0001
1000
0100
0010
0001
0100
0010
,
1000
0001
1000
0001
0010
0100
1000
0001
1000
0100
0010
0001
1000
0001
1000
0010
,
0100
0001
1000
0001
1000
0100
0010
0100
1000
0001
0100
0010
0100
0010
1000
0001
,
0100
0010
1000
0010
0100
0001
1000
0001
0010
0100
1000
0001
0010
0100
0010
0001
,
1000
0010
0100
0010
1000
0001
1000
0001
0010
0100
1000
0001
1000
0001
0010
0100
,
1000
0001
1000
0010
0100
0001
1000
0001
1000
0010
0100
0001
0010
0100
0010
0001
,
0100
0010
1000
0001
0100
0001
1000
0100
1000
0001
0010
0100
1000
0001
1000
0001
,
0010
0100
1000
0001
1000
0001
0100
0010
1000
0100
0010
0001
1000
0010
0100
0001
,
1000
0100
0010
0001
1000
0001
0100
0010
1000
0001
1000
0100
0010
0001
0010
0001
,
1000
0100
0010
0001
0010
0001
1000
0010
0100
0001
1000
0010
0100
0001
0100
0001
,
1000
0100
0010
0001
1000
0010
0100
0010
1000
0001
1000
0001
0010
0100
1000
0001
,
1000
0001
0100
0010
1000
0001
1000
0010
0100
0001
1000
0100
0010
0001
1000
0010
,
0100
0010
1000
0001
0100
0010
0100
0010
1000
0001
0010
0100
0010
0001
0100
0001
,
1000
0010
1000
0010
0100
0001
1000
0100
1000
0100
0010
0001
0010
0100
1000
0001
,
1000
0010
0100
0001
1000
0010
1000
0001
1000
0100
0010
0001
1000
0010
0100
0001
,
1000
0100
0010
0001
1000
0001
0100
0010
1000
0001
0010
0100
1000
0001
1000
0001
,
0100
0010
1000
0001
1000
0001
0010
0100
1000
0001
0100
0010
1000
0100
1000
0100
,
0010
0001
1000
0010
1000
0001
0100
0001
1000
0010
1000
0010
0100
0001
1000
0001
,
0010
0100
1000
0001
1000
0010
0100
0010
1000
0100
0010
0100
1000
0001
0100
0010
,
1000
0100
0010
0001
1000
0010
0100
0001
1000
0100
0010
0001
1000
0001
0100
0010
,
1000
0001
1000
0010
0100
0010
1000
0001
0010
0100
0010
0001
1000
0100
0010
0001
,
1000
0010
0100
0001
1000
0001
0100
0010
1000
0001
0010
0100
1000
0001
0010
0001
,
1000
0010
0100
0001
1000
0010
1000
0001
0010
0100
0010
0001
1000
0100
0010
0100
,
1000
0001
1000
0010
0100
0001
1000
0100
1000
0001
0010
0001
1000
0100
0010
0100
,
1000
0001
0100
0010
1000
0010
0100
0001
1000
0100
1000
0001
0010
0100
1000
0001
,
1000
0010
0100
0001
1000
0010
0100
0001
1000
0100
0010
0001
0010
0100
1000
0001
,
1000
0010
0100
0001
1000
0001
0100
0010
1000
0001
0010
0001
1000
0100
0010
0100
,
1000
0001
1000
0010
0100
0010
1000
0001
0010
0100
0010
0001
1000
0100
1000
0001
,
1000
0010
0100
0001
1000
0001
0100
0010
1000
0100
0010
0001
0010
0100
1000
0001
,
1000
0010
0100
0001
1000
0001
0100
0010
1000
0100
0010
0001
0010
0100
1000
0001
,
1000
0010
0100
0001
1000
0001
0010
0100
1000
0010
0100
0001
0100
0010
1000
0001
,
1000
0100
0010
0001
1000
0001
0010
0100
1000
0010
0100
0001
0100
0010
1000
0001
,
1000
0010
0100
0001
1000
0010
1000
0100
0010
0100
1000
0001
1000
0010
0100
0001
,
1000
0100
0010
0001
1000
0100
1000
0010
0100
0010
1000
0001
1000
0100
0010
0001
,
1000
0010
1000
0001
0010
0100
0010
0001
1000
0010
0100
0001
0100
0010
1000
0001
,
1000
0100
0010
0100
1000
0001
0100
0010
1000
0001
1000
0010
0100
0001
1000
0001
,
1000
0100
0010
0100
1000
0001
0100
0010
1000
0001
1000
0010
0100
0001
1000
0001
,
1000
0010
0100
0010
1000
0001
0010
0100
1000
0001
1000
0100
0010
0001
1000
0001
,
1000
0010
0100
0010
1000
0001
0010
0100
1000
0001
1000
0100
0010
0001
1000
0001
,
1000
0010
0100
0001
1000
0001
0010
0100
1000
0100
0010
0001
1000
0001
1000
0010
,
0100
0010
1000
0001
0010
0001
1000
0100
0010
0001
0010
0100
1000
0001
0100
0001
,
1000
0100
0010
0001
1000
0001
0100
0010
1000
0010
0100
0001
1000
0001
1000
0100
,
0010
0100
1000
0001
0100
0001
1000
0010
0100
0001
0100
0010
1000
0001
0010
0100
,
1000
0010
1000
0001
0010
0001
1000
0010
1000
0001
0010
0001
1000
0100
0010
0100
,
1000
0001
0100
0010
1000
0001
1000
0100
1000
0001
0100
0001
1000
0001
0010
0100
,
1000
0001
0100
0001
1000
0010
0100
0001
1000
0001
0010
0100
0010
0001
1000
0100
,
0010
0001
1000
0001
0100
0010
1000
0001
0010
0100
1000
0001
1000
0010
0100
0001
,
1000
0100
1000
0001
0100
0001
1000
0100
1000
0001
0100
0001
1000
0010
0100
0010
,
1000
0001
0010
0100
1000
0001
1000
0010
1000
0001
0010
0001
1000
0001
0100
0010
,
1000
0001
0010
0001
1000
0100
0010
0001
1000
0001
0100
0010
0100
0001
1000
0010
,
0100
0001
1000
0001
0010
0100
1000
0001
0100
0010
1000
0001
1000
0100
0010
0100
,
1000
0010
1000
0001
0010
0001
1000
0010
1000
0001
0010
0001
1000
0100
0010
0100
,
1000
0001
0100
0010
1000
0001
1000
0100
1000
0001
0100
0001
1000
0001
0010
0100
,
1000
0001
1000
0010
0100
0001
2000
0000
0000
0000
0000
0000
0000
0000
0000
0000
,
0000
0000
0000
0000
,
0000
0000
0000
0000
,
0000
0000
3001
0000
0100
0000
0010
1000
,
0001
0010
0100
1000
0001
1000
0010
0100
0001
1000
0100
0010
0100
1000
0001
0010
,
0001
1000
0010
1000
0001
0100
0010
1000
0001
1000
0100
0010
0100
1000
0001
1000
,
0010
0100
0001
1000
0001
0100
0010
1000
0001
1000
0100
0010
0100
1000
0001
1000
,
0010
0100
0001
0010
0100
1000
0001
0100
0001
1000
0010
1000
0100
0010
0001
0100
,
0020
0000
0000
0000
0000
0M00
0000
000M
,
0000
0000
0000
M000
0000
0000
0M00
0000
,
0000
0000
0000
0000
0000
0000
0000
0000
0000
0000
0000
0000
0000
0000
0000
0000
0000
0000
0000
0000
0000
0000
0000
0000
M000
0000
0000
0000
0000
0000
0000
0000
0000
MM3M
0000
0000
0000
0000
0000
0000
0000
0000
0000
0000
0000
0000
0000
0000
0000
0000
0000
0000
0000
0000
0000
0000
0000
0000
0000
0000
0000
0000
0000
0000
;
