#TITLE:The Obsessive Devotion;
#SUBTITLE:;
#ARTIST:Epica;
#TITLETRANSLIT:;
#SUBTITLETRANSLIT:;
#ARTISTTRANSLIT:;
#CREDIT:;
#BANNER:../group banner.png;
#BACKGROUND:../zfallback-bg.png;
#LYRICSPATH:;
#CDTITLE:;
#MUSIC:The Obsessive Devotion.ogg;
#OFFSET:-0.133;
#SAMPLESTART:99.972;
#SAMPLELENGTH:12.000;
#SELECTABLE:YES;
#BPMS:0.000=180.000,540.000=45.000,544.000=90.000,596.000=45.000,602.000=90.000,625.000=180.000;
#STOPS:;
#BGCHANGES:;
// cache tags:
#FIRSTBEAT:15.500;
#LASTBEAT:1180.000;
#SONGFILENAME:Songs/SSSC Pack 2/The Obsessive Devotion - [Kytsune]/The Obsessive Devotion.sm;
#HASMUSIC:1;
#HASBANNER:0;
#MUSICLENGTH:433.373;
// end cache tags

//---------------dance-single - Blank----------------
#NOTES:
     dance-single:
     Blank:
     Challenge:
     14:
     0.954,1.000,0.840,0.268,0.734,2411.000,364.000,116.000,101.000,4.000:
0000
0000
0000
0000
,
0000
0000
0000
0000
,
0000
0000
0000
0000
,
0000
0000
0000
0000
0000
0000
0000
0000
0000
0000
0000
0000
0000
0000
1000
0001
,
0010
0100
1000
0100
0001
0100
0010
0001
,
0100
1000
0100
0010
1000
0000
0000
0000
,
1010
1000
0001
0010
1000
0010
0100
1000
,
0001
0000
0100
0010
0100
0001
0010
0100
1000
0100
0010
0100
1000
0001
0100
0010
,
1000
0000
0001
0100
0010
0000
0100
0000
0001
0010
0100
0000
1000
0001
0100
0000
,
0010
0100
0001
1000
0001
0010
0100
1000
0020
0000
0000
0000
0130
0000
0000
0000
,
0001
0000
0010
0100
1000
0000
0001
0000
1000
0001
0100
0000
0010
1000
0001
0000
,
0010
0100
0010
0001
0100
0010
1000
0001
2000
0000
0000
0000
3002
0000
0000
0000
,
0103
0000
0010
0100
0001
0000
0010
0000
0100
1000
0001
0000
0100
0010
0100
0000
,
0010
1000
0001
0000
1000
0000
0100
0010
0001
0000
1000
0000
0001
0100
0010
0000
,
0100
0000
0001
1000
0100
0000
0010
0000
0001
0010
0100
0000
1000
0001
0100
0000
,
0010
0100
0001
1000
0001
0010
0100
1000
0010
1000
0001
0100
0010
1000
0100
0010
,
0001
0100
0010
0100
0001
1000
0001
0010
,
0100
1000
0001
0100
0010
1000
0100
0010
0002
0000
0000
0000
0000
0000
0000
0000
,
0103
0010
0100
0001
0010
0100
1000
0001
,
1000
0100
1000
0001
0100
0010
1000
0001
0020
0000
0000
0000
0000
0000
0000
0000
,
0130
1000
0100
0001
0100
0010
0001
0100
,
1000
0100
0010
1000
2002
0000
3003
0000
,
1000
0001
0100
1000
0100
0010
1000
0001
,
0010
0100
0010
0001
0100
0010
0100
0001
1000
0100
1000
0001
0100
0010
1000
0001
,
0010
0000
0110
0000
1001
1000
0000
0001
,
0100
0000
0110
0000
0000
0000
0010
0000
1010
0000
1000
0000
0001
1000
0100
0010
,
0001
0000
0101
0000
1010
0010
0000
1000
,
0100
0010
0100
1000
0001
0100
0010
1000
0001
0010
0100
1000
0100
0010
0001
0100
,
0010
0010
0010
0000
1010
0000
1000
1100
,
0000
0001
0101
0000
2000
0002
0000
3003
,
1001
0000
1010
0000
0101
0100
0000
0001
,
0011
0000
0000
0000
0110
0000
0000
0000
1000
0000
0000
0000
0001
1000
0010
0100
,
0001
0000
0001
0000
1000
0001
0000
0001
,
1000
0000
0010
0000
0200
0020
0000
0330
,
1010
0000
1001
0000
0101
0100
0000
0010
,
1010
0000
0000
0000
1001
0000
0000
0000
0001
0000
0000
0000
0010
0100
1000
0100
,
0010
0000
0010
0000
0010
0001
0000
0001
,
1000
0000
0000
0000
0001
0010
0001
1000
0200
0000
0020
0000
0000
0000
0330
0000
,
0012
1000
0103
0001
,
0100
0000
0010
0000
0000
0000
1000
0000
0000
0000
0000
0000
0001
0010
0100
0010
,
0100
1000
0001
0100
,
0110
0000
1001
2002
0000
0000
0000
3003
,
0000
2200
3300
0100
,
0010
0000
0000
0000
0001
0000
0100
0000
0000
0000
0000
0000
0010
0100
0010
1000
,
0001
0000
2000
0002
0000
0000
3003
0000
,
1001
0000
1001
0000
0001
0010
0000
0001
,
0100
0010
0100
0001
1000
0001
0010
0100
,
1000
0100
0001
0100
0010
0001
0100
0010
,
1000
0100
0010
0001
0000
0000
0000
0000
,
0001
0100
0010
1000
0000
0000
0000
0000
,
1100
0000
1001
0000
0101
0101
0000
0011
,
0011
0000
0110
0000
1100
1100
0000
0010
,
0001
1000
0001
0000
1001
0000
0010
1010
,
0000
0100
0101
0000
0010
0220
0000
0330
,
1010
0000
1001
0000
1100
1100
0000
0110
,
0110
0000
0011
0000
0101
0101
0000
0110
,
0110
0000
1010
0000
1001
1001
0000
1100
,
1100
0000
0011
0000
0101
0101
0000
1010
,
1010
0000
1001
0000
0110
0110
0000
0101
,
0101
0000
1001
0000
1100
1100
0000
0010
,
0001
0100
0001
0000
1001
0000
1000
1010
,
0000
0010
0110
0000
0001
2002
0000
3003
,
0001
0010
0100
1000
0100
1000
0001
0100
0010
0000
0000
0000
0100
0010
0100
0001
,
0010
0100
1000
0001
0100
0000
0000
0000
0010
1000
0001
1000
0100
0000
0000
0000
,
0010
0100
1000
0001
0100
0010
1000
0001
0010
0000
0000
0000
0001
0100
0001
1000
,
0100
0010
0100
1000
0010
0000
0000
0000
1000
0001
0100
0010
0100
0000
0000
0000
,
0010
0100
0001
0010
0100
0010
0100
1000
0001
0000
0000
0000
1000
0100
0010
0001
,
0100
0001
1000
0100
0010
0000
0000
0000
0001
0100
0010
1000
0001
0000
0000
0000
,
0010
0001
0100
0010
1000
0001
1000
0100
0010
0000
0000
0000
0100
1000
0001
0100
,
0010
1000
0001
0010
0100
0000
0000
0000
1000
0100
0010
0100
1000
0000
0000
0000
,
1001
0101
1010
1001
,
0110
0000
0000
0000
0010
0100
0001
1000
0001
0000
1000
0000
0001
0000
0010
0000
,
0011
0110
1001
1100
,
1010
0000
0000
0000
1000
0001
0100
0010
0100
0000
0001
0000
0010
0000
0100
0000
,
1100
0000
0000
0000
0100
0010
0001
0100
0010
0000
1000
0000
0001
0000
0010
0000
,
0110
0000
0000
0000
0010
0001
0100
0001
1000
0000
0100
0000
0010
0000
0100
0000
,
1000
0001
0010
0100
1000
0001
0100
0010
1000
0000
0001
0000
0011
0000
0000
0000
,
0001
0010
0001
0100
0010
1000
0100
1000
0001
0100
0010
1000
0001
0010
0100
1000
,
0100
0010
0001
0100
0010
1000
0001
1000
0200
0000
0000
0000
0000
0000
0000
0000
,
0310
0001
0100
0010
0100
0001
1000
0100
0010
0001
0100
0010
0100
0001
1000
0001
,
0010
0100
1000
0001
1000
0010
0100
0001
0200
0000
0000
0000
0000
0000
0000
0000
,
0310
1000
0100
0001
0100
0010
0001
0100
,
1000
0100
0001
1000
0020
0000
0000
0000
,
1030
0100
0010
0001
0100
0010
0100
0001
1000
0001
0010
0100
1000
0001
0100
0010
,
1000
0100
1000
0001
0100
0010
0100
0001
0010
0100
0010
0001
1000
0010
0100
0001
,
1000
0100
0010
0001
0100
0010
1000
0001
,
0010
0000
0001
0000
0100
0000
0010
0000
1000
0100
0010
0001
0100
0010
0100
0001
,
0010
0000
0001
0000
0100
0000
0010
0000
0100
0000
0001
0000
1000
0000
0001
0010
,
0001
0100
0010
1000
0001
0010
0100
1000
0100
1000
0001
0100
0010
0000
0000
0000
,
0101
0000
0110
0000
1001
1100
0000
0011
,
0101
0000
0000
0000
0110
0000
0000
0000
1000
0000
0000
0000
0010
1000
0001
0010
,
0100
0000
0110
0000
0011
1001
0000
1010
,
0110
0000
1001
0000
0012
2000
3003
0000
,
0110
0000
1010
0000
1001
0101
0000
0011
,
0110
0000
0000
0000
1100
0000
0000
0000
0010
0000
0000
0000
0001
0100
0010
0100
,
0001
0000
1001
0000
1010
1001
0000
0011
,
0110
0000
0000
0000
1100
0000
0000
0000
2001
0000
0020
0000
3030
0000
0010
1000
,
0001
0100
0100
0010
1000
1000
0001
0010
,
0100
0000
1000
0000
1000
0000
1000
0000
0010
0000
0100
0001
0010
0100
0010
0001
,
1000
0000
1100
0000
0010
0001
0000
1000
,
1001
0000
0101
0000
0010
0100
0000
0001
,
0011
0000
1001
0000
1000
0100
0000
0010
,
0110
0000
0011
0000
0001
0100
0000
0010
,
1000
0001
1000
0000
1001
0000
0001
0010
,
0000
0100
1000
0000
0002
0200
0000
0303
,
0110
0000
1010
0000
1000
0001
0000
0001
,
0011
0000
0110
0000
0100
1000
0000
1000
,
1010
0000
1001
0000
0100
0010
0000
0100
,
0101
0000
0011
0000
0100
1000
0000
0100
,
1100
0000
1010
0000
0010
0100
0000
0001
,
0101
0000
1001
0000
1000
0100
0000
0010
,
0001
0100
0001
0000
1001
0000
1000
0010
,
0000
0100
0001
0000
2000
0002
0000
3003
,
0001
0010
0100
1000
0100
0010
0001
0010
0100
0000
0000
0000
1000
0010
0100
0001
,
0100
0010
1000
0010
0100
0000
0000
0000
0001
0100
1000
0100
0001
0000
0000
0000
,
1000
0010
0100
0001
0100
0010
1000
0010
0100
0000
0000
0000
0001
0010
0100
1000
,
0100
0010
0001
0010
0100
0000
0000
0000
1000
0100
0001
0100
1000
0000
0000
0000
,
0001
1000
0010
0100
0001
1000
0100
0010
0001
0000
0000
0000
0100
0010
0100
0001
,
1000
0100
0010
0100
1000
0000
0000
0000
0001
0010
1000
0010
0001
0000
0000
0000
,
1000
0010
0100
0001
0010
0100
1000
0001
0010
0000
0000
0000
0001
0100
0010
1000
,
0100
0010
0100
1000
0001
0000
0000
0000
1000
0010
0001
0010
1000
0000
0000
0000
,
2010
0100
0001
0010
,
0100
0001
0020
3030
,
0102
0010
1000
0010
,
0200
0000
0000
0303
,
2010
0000
0100
3001
,
0012
0000
0100
1003
,
1001
0110
1010
0000
,
1000
0100
0010
0100
1000
0001
0100
0010
,
0100
0001
0010
0100
2000
0000
0000
0000
,
3001
0100
0010
1000
0001
0010
0001
0100
,
0010
1000
0001
0010
0200
0000
0000
0000
,
2300
0000
3001
0100
0010
1000
0001
0010
,
0002
0000
0013
0001
0100
0010
1000
0001
,
1001
0000
0000
0000
0011
0000
0000
0000
1100
0000
0000
0000
0100
0010
0001
0100
,
0010
0000
0010
0000
2000
0000
3002
0000
0103
0010
0100
0001
1000
0001
0010
0100
1000
0000
1000
0000
0002
0000
0203
0000
0310
1000
0001
0010
0001
0100
0010
0000
,
1010
0000
1001
0000
0011
0000
0110
0000
1001
0000
1000
0001
0101
0000
0001
1000
,
1100
0000
0011
0000
0110
0000
1100
0000
1010
0000
0010
0100
0110
0000
0100
0001
,
1001
0000
0011
0000
0110
0000
1100
0000
1010
0000
1000
0010
0110
0000
0100
0001
,
0011
0000
0000
0000
0000
0000
0110
0000
0000
0000
0000
0000
1100
0000
0000
0000
0000
0000
1001
0000
0000
0000
0000
0000
1010
0000
0000
0000
0000
0000
0010
0000
0000
0100
0000
0000
0110
0000
0000
0000
0000
0000
0001
0000
0000
1000
0100
1000
,
0100
0000
0010
0000
0010
0000
0001
0000
1000
0000
1000
0000
0010
0000
0100
0000
1001
0000
1000
0000
0001
0000
0010
0000
0100
1000
0100
0010
0001
0100
0010
1000
,
0001
0010
0100
1000
0001
0002
0000
0100
0103
0010
0100
0001
1000
2000
0000
0010
,
3020
0000
0100
0000
1000
1000
0000
1030
2000
0000
0100
0000
0001
0001
0000
0010
,
3010
0000
0100
0000
0110
0000
0000
0000
1001
0000
0000
0000
0001
0000
0011
0000
0000
0000
1000
0000
1100
0000
0000
0000
0001
0010
0100
1000
0010
0100
0001
1000
,
0200
0000
0010
0000
0001
0001
0000
1000
2300
0000
0001
0000
0010
0010
0000
0100
,
3200
0000
1000
0000
0001
0001
0000
0010
0320
0000
1000
0000
0100
0100
0000
0001
,
0032
0000
1000
0000
0100
0100
0000
1000
2003
0000
0100
0000
0010
0010
0000
0001
,
3001
0100
0110
0000
1001
0000
1000
1010
0000
0001
0011
0000
0110
0220
0000
0330
,
0001
1000
0010
0100
0001
0010
0100
1000
0100
0010
0001
0100
0010
1000
0001
1000
0100
0010
0100
1000
0010
0100
0001
1000
1010
0000
0202
0000
0000
0000
0000
0000
,
1013
0000
0000
0001
0010
0000
0000
1000
0010
0000
0000
0010
0001
0010
1000
0001
,
0310
0000
1010
1001
0101
1001
0011
0000
0001
0100
0010
0100
0001
1000
0100
0001
,
0100
0010
0001
0100
1000
0100
0010
1000
0001
1000
0100
0010
0100
1000
0001
0100
,
0010
1000
0001
0010
0100
1000
0010
0100
0001
0010
0100
1000
0100
0010
0001
0100
,
0010
1000
0100
1000
0010
0100
0101
0001
1000
1100
0100
0010
0011
0001
1001
1000
,
0010
0110
0100
0001
1001
1000
1100
0100
0010
0011
0001
1000
1001
0001
0101
0010
,
1001
0100
1010
1001
1100
0100
0010
0011
0001
1000
1001
0001
0101
0100
0110
0010
,
1010
1000
1001
0001
1001
0000
0100
0000
0010
0000
1010
0000
0001
0000
0100
0000
,
0110
0010
1001
0100
0010
1010
1000
0001
,
0011
0100
1100
1000
0001
0101
0010
1000
,
1001
0000
1000
0000
1100
0000
0010
0000
1001
0000
0001
0000
0100
0010
1000
0001
,
1001
0100
0010
1010
1000
0001
0011
0100
,
1100
0000
0000
0001
0000
0000
1001
0000
0000
1000
0000
0000
1010
0000
0000
0100
0001
1000
0100
0000
0000
0010
0000
0000
,
0011
0100
1000
1001
0100
0010
1010
0001
,
1001
0000
0010
0000
1000
0001
0010
0100
1000
0100
0010
0001
0100
0000
0001
0000
,
1000
0100
0010
0100
0010
0001
0100
0010
1000
0001
0010
0001
0100
0010
1000
0001
,
0010
0100
0010
0001
0100
0010
1000
0001
1000
0100
0010
0001
0010
0100
1000
0001
,
0100
0010
1000
0001
0010
0001
0100
0010
1000
0100
1000
0001
0100
0010
1000
0001
,
0010
0001
0100
0010
1000
0100
0010
0001
1000
0100
1000
0010
2010
0000
0001
0000
,
0100
0000
0010
0000
0100
0001
0000
0010
,
0001
0000
0200
0000
3300
0000
0012
1000
,
0100
0000
1000
0000
0010
1000
0000
0100
,
1000
0000
0020
0000
0033
0000
0011
0110
,
0011
0000
0110
0000
0011
0000
0110
0000
0100
1000
0100
0010
0001
0000
1001
0000
,
1100
1001
0101
1001
0101
1001
1010
1001
,
1010
0000
1001
0000
1010
0000
1001
0000
1000
0100
0010
0001
0100
0000
0110
0000
,
1010
0110
1010
0110
1010
0110
0101
1001
,
0101
0000
1001
0000
0101
0000
1001
0000
1000
0001
0100
0010
1000
0000
1100
0000
,
0110
1100
0110
0011
0110
0011
1001
1001
,
1001
0000
1001
0000
1001
0000
1001
0000
0001
0100
1000
0100
0001
0000
0101
0000
,
0101
0101
0110
0110
0110
0110
1010
1010
,
1010
0000
1010
0000
1010
0000
1010
0000
1000
0010
0001
0010
1000
0000
1100
0000
,
1100
1100
0110
0110
0110
0110
0011
0011
,
0011
0000
0011
0000
0011
0000
0011
0000
0001
0010
1000
0010
0001
0000
1001
0000
,
1001
0000
1001
0000
0110
0000
0110
0000
0110
0000
0110
0000
1000
0001
0010
0001
,
0100
0010
1000
0001
0010
0100
1000
0100
0010
0001
0100
0010
1000
0001
0010
0001
,
0100
0010
1000
0001
0010
0100
1000
0100
0010
0001
0010
0100
2000
0000
0001
0000
,
0010
0001
0100
0001
0010
0100
0010
0001
,
0100
0010
3001
0000
1111
0000
1112
1000
,
0100
1000
0010
0100
1000
0100
0010
1000
,
0100
0000
1000
0000
0013
0000
0000
0000
0000
0000
0001
0100
0201
0000
0010
0000
,
1000
0010
0001
0010
1000
0010
1000
0010
,
0001
0010
0301
0000
0000
0000
0011
0100
,
1000
0000
1001
0000
0010
0000
0100
0000
0101
0000
0010
0000
1001
0000
1000
0100
,
0010
0001
0100
0010
1000
0001
0010
0100
1000
0100
0010
0001
0100
0000
0010
0100
,
0001
0000
0010
0000
0100
1000
0001
0000
0100
0010
1000
0000
0001
1000
0100
0010
,
0100
1000
0001
0100
0020
0000
0000
0000
0000
0000
0000
0000
0130
0000
0010
1000
,
0001
0000
0010
0000
0100
1000
0010
0000
0100
0001
1000
0000
0001
0010
0001
0100
,
0010
1000
0100
0010
0002
0000
0000
0000
0000
0000
0000
0000
0013
0000
0100
1000
,
0001
0000
0100
0000
0010
1000
0001
0000
0010
0100
1000
0000
0001
0010
0001
0000
,
0100
0000
0010
1000
0001
0000
0100
0000
0001
1000
0100
0000
1000
0000
0001
0010
,
0100
0000
1000
0000
0010
0100
0001
0000
1000
0100
0010
0000
0001
0010
0001
0100
,
0010
1000
0100
1000
0001
0100
0010
1000
0001
0010
0100
1000
0010
0000
0100
0000
,
0001
0010
0100
1000
0010
1000
0001
0100
,
0010
0000
1000
0000
1001
0000
0000
0000
1000
0100
0010
0001
1000
0000
0001
0000
,
0100
0010
1000
0001
0010
0100
1000
0100
,
0010
0000
0001
0000
0100
0010
1000
0001
0010
0100
1000
0001
0100
0010
0100
0001
,
0010
0100
1000
0001
1000
0000
0100
0000
0010
0000
0001
0000
0100
0000
0010
0000
,
0100
0001
0010
0100
1000
0000
0001
0000
0010
0000
0001
0000
0100
0000
0010
0000
,
1000
0100
0010
0100
1000
0001
0100
0010
,
1000
0001
0010
0100
0010
0000
0100
0000
1000
0000
0001
0000
0100
0000
0010
0000
,
0100
0001
1000
0010
0100
0010
1000
0001
,
0010
0100
1000
0100
0010
0000
0001
0000
0100
0000
0010
0000
1000
0000
0100
0000
,
0010
0001
1000
0100
0010
0001
0100
0010
,
1000
0001
0100
0001
0010
0000
0100
0000
1000
0000
0001
0000
0100
0000
0010
0000
,
1000
0001
0010
0001
0100
0010
1000
0001
,
1000
0001
1000
0010
1000
0000
0100
0000
0010
0000
0001
0000
0100
0000
0010
0000
,
0100
0001
0010
0100
1000
0010
0100
0001
,
0010
0001
0100
0010
1000
0000
0100
0000
0010
0000
0001
0000
0010
0000
0100
0000
,
1000
0000
0001
0000
0100
0010
0100
0001
0010
0100
1000
0001
0100
0010
1000
0100
,
1000
0001
1000
0010
0100
0001
0010
0001
0100
0001
0010
0100
1000
0001
0100
0010
,
1000
0100
0010
0001
2002
0000
0000
0000
0000
0000
0000
0000
0000
0000
0000
0000
,
0000
0000
0000
0000
,
0000
3003
0000
0000
,
0000
0000
0000
0000
,
0000
0000
0000
0000
0000
0000
00M0
M000
,
000M
0M00
00M0
000M
M000
00M0
0M00
000M
,
00M0
M000
000M
0M00
00M0
M000
000M
00M0
,
M000
000M
0M00
00M0
M000
000M
0M00
00M0
,
M000
000M
00M0
M000
0M00
000M
00M0
M000
,
000M
0M00
00M0
M000
000M
0M00
000M
M000
,
00M0
0M00
000M
00M0
M000
0M00
000M
M000
,
00M0
000M
0M00
000M
M000
00M0
0M00
000M
,
M000
00M0
0M00
000M
00M0
M000
000M
0M00
,
00M0
000M
0M00
00M0
M000
000M
00M0
0M00
,
M000
0000
000M
0000
0M00
0000
00M0
0000
000M
0000
M000
00M0
0M00
000M
M000
00M0
,
000M
M000
0M00
00M0
M000
000M
0M00
00M0
M000
000M
0M00
00M0
M000
000M
00M0
000M
,
1000
0100
0010
0002
0000
0003
0001
0010
,
0100
2000
0000
3000
1000
0001
0100
0020
,
0000
0030
0010
0100
0001
0010
0100
1000
,
0010
0010
0010
2020
0000
3030
1000
1000
,
1000
2002
0000
3003
0001
0001
0001
0202
,
0000
0303
0100
0010
0100
0001
0010
0100
,
1000
0000
0001
0010
0001
0000
2002
0000
0000
0000
3003
0000
0001
0000
0010
0100
,
1000
0000
2200
0000
0000
0000
3300
0000
1000
0000
0010
0100
0001
0000
0202
0000
,
0000
0303
0001
0010
0100
1000
0100
0010
,
0001
0000
1000
0010
0100
0000
2002
0000
0000
0000
3003
0000
0001
0000
0100
0010
,
1000
0000
2200
0000
0000
0000
3300
0000
0010
0000
0100
1000
0001
0000
0022
0000
,
0000
0000
0033
0000
0100
1000
0100
0010
0001
0100
0010
1000
0001
0010
0100
1000
,
0010
0010
0010
2002
0000
3003
0001
0001
,
0001
2200
0000
3300
1000
1000
1000
0022
,
0000
0033
0001
0100
0010
1000
0001
0010
,
0100
0100
0100
2020
0000
3030
1000
1000
,
1000
0022
0000
0033
0010
0010
0010
0202
,
0000
0303
0100
0001
0010
0100
1000
0010
,
0100
0000
0001
1000
0100
0000
0010
0000
0010
0000
0010
0000
0100
0000
1000
0001
,
0100
0000
0010
0000
0010
0000
0010
0000
0100
0000
0001
0010
0100
0000
1000
0000
,
1000
1000
0001
0100
0010
1000
0100
0010
,
0001
0000
0100
0001
0010
0000
0100
0000
0100
0000
0100
0000
1000
0000
0001
0100
,
0010
0000
1000
0000
1000
0000
1000
0000
0001
0000
0010
0001
0100
0000
0010
0000
,
0010
0010
1000
0001
0010
0100
1000
0001
,
1000
0100
0010
0001
0100
0010
2000
0000
0000
0000
0000
0000
3010
0100
0001
0010
,
0100
1000
0002
0000
0000
0000
0000
0000
0013
0001
0100
0010
1000
0001
0200
0000
,
0000
0000
0310
1000
0001
0010
0100
1000
,
0100
0010
0001
1002
0000
1003
0010
1000
,
0001
2100
0000
3010
0100
0001
0010
1200
,
0000
0000
0310
0000
0001
0010
0100
1000
0001
0100
0010
0100
0001
1000
0100
1000
,
0010
0100
0001
0010
0100
1000
0010
0000
0100
0000
0001
0000
1000
0100
0010
0100
,
1000
0001
0100
0000
0010
0000
0100
0000
0001
0010
0100
1000
0010
0100
0001
0000
,
0010
0000
0100
0000
1000
0100
0010
0001
1000
0100
0010
0100
1000
0001
0100
0010
,
1000
1000
1000
0000
1001
0000
0010
0010
,
0000
0100
0100
0000
1001
0000
0000
0000
,
0001
0001
0001
0000
0011
0000
0100
0100
,
0000
1000
1000
0000
1001
0000
0000
0000
,
1000
0100
0001
0100
1000
0010
0100
0001
,
0010
0100
1000
0001
0010
0001
0100
0010
1000
0000
0000
0000
0011
0000
0000
0000
,
0001
0010
0100
0001
0100
1000
0010
0100
,
0001
0010
0100
1000
0001
0010
0001
0100
0010
0000
0000
0000
1001
0000
0000
0000
,
1000
0100
0001
0100
0010
0001
0100
1000
,
0100
0010
0100
0001
0010
0100
1000
0001
0100
0000
0000
0000
1010
0000
0000
0000
,
0010
0100
0001
0010
0100
1000
0001
0100
,
0010
0100
0001
1000
0100
0010
0100
1000
0001
0100
0010
1000
0001
0010
0100
1000
,
0010
0000
0100
0001
1000
0000
0100
0000
0010
0001
0100
0000
0010
1000
0100
0000
,
0010
0001
1000
0001
0100
0010
0100
0001
1000
0000
0000
0000
0110
0000
0000
0000
,
0001
0000
0010
0001
0100
0000
0010
0000
1000
0001
0010
0000
0100
1000
0010
0000
,
0100
0001
1000
0100
0010
0001
0010
0100
1000
0001
0100
0010
1000
0001
0010
0001
,
0100
0000
0010
0100
0001
0000
0010
0000
0001
0100
0010
0000
1000
0100
0010
0000
,
0100
1000
0001
0000
0100
0000
0010
1000
0001
0000
0010
0000
0001
0100
0010
0000
,
1000
0000
0100
0010
0001
0000
0100
0000
0010
1000
0001
0000
0010
0100
1000
0000
,
0100
0010
0100
1000
0001
0100
0010
1000
0001
0010
0100
1000
0001
1000
0010
0100
,
0101
0000
0000
0000
1010
0000
0000
0000
1001
0000
0011
0000
0000
0000
0001
1000
,
0100
0000
0110
0000
0000
0000
0011
0000
1001
0000
0000
0000
0001
0010
0100
0010
,
0001
0000
0000
0000
0101
0000
0000
0000
1010
0000
1100
0000
0000
0000
0100
1000
,
0010
0000
0100
0000
0001
0000
0010
0000
0100
0000
1000
0001
0010
0000
0000
0000
,
0110
0110
0110
0000
1001
0000
0101
0101
,
0000
1100
1100
0000
2002
0020
0000
0000
,
3033
0000
0000
0000
;
