#TITLE:American Idiot;
#SUBTITLE:;
#ARTIST:Green Day;
#TITLETRANSLIT:;
#SUBTITLETRANSLIT:;
#ARTISTTRANSLIT:;
#CREDIT:aloola;
#BANNER:idiotbn.png;
#BACKGROUND:idiotbg.jpg;
#LYRICSPATH:;
#CDTITLE:trung.png;
#MUSIC:Green Day - American Idiot.mp3;
#OFFSET:-0.148;
#SAMPLESTART:30.459;
#SAMPLELENGTH:30.000;
#SELECTABLE:YES;
#BPMS:0.000=186.000;
#STOPS:;
#BGCHANGES:;
// cache tags:
#FIRSTBEAT:5.000;
#LASTBEAT:387.750;
#SONGFILENAME:Songs/toune 8/[aloola] American idiot/Green Day - American Idiot.sm;
#HASMUSIC:1;
#HASBANNER:1;
#MUSICLENGTH:129.044;
// end cache tags

//---------------dance-single - ----------------
#NOTES:
     dance-single:
     :
     Hard:
     11:
     1.000,1.000,1.000,0.023,0.112,649.000,328.000,3.000,50.000,62.000:
0000
0000
0000
0000
,
0000
0000
1000
1000
0100
0010
0000
0010
,
0100
1000
0000
1000
0001
0000
0010
0000
,
1111
0000
1000
1000
0101
0010
0000
0010
,
0101
1000
0000
1000
0101
0000
0110
0100
,
1111
0000
1000
1000
0101
0010
0000
0010
,
0101
1000
0000
1000
0101
0000
0110
0100
,
1111
1001
1001
1001
,
1001
1001
1001
1001
,
1111
0000
1000
1000
0101
0010
0000
0010
,
0101
1000
0000
1000
0101
0000
0110
0100
,
1111
1001
1001
1001
,
1001
1001
1001
1001
,
1111
0000
1000
1000
0101
0010
0000
0010
,
0101
1000
0000
1000
0101
0000
0110
0100
,
1111
1001
1101
1001
,
1101
1001
1001
1010
0111
0110
0110
0011
,
1111
0000
1000
1000
0101
0010
0000
0010
,
0101
1000
0000
1000
0101
0000
0110
0100
,
1111
0000
1001
0000
1110
0000
1001
1001
,
1110
1001
0101
0101
1101
0000
1010
1010
,
1111
0000
1000
1000
0101
0010
0000
0010
,
0101
1000
0000
1000
0101
0000
0110
0100
,
1011
0100
0010
0100
1011
0000
0000
0000
1001
0000
0100
0000
0001
0000
0001
0000
,
0110
0001
0000
0001
0110
1000
0100
0100
,
0011
0000
0100
0010
1101
0000
0000
0000
1001
0000
0100
0000
0001
0000
0001
0000
,
0110
0001
0000
0001
0110
1000
0100
0100
,
0011
0000
0100
0010
1101
0000
0000
0000
1001
0000
0100
0000
0001
0000
0001
0000
,
0110
0001
0000
0001
0110
1000
0100
0100
,
0011
0000
0100
0010
1101
0000
0000
0000
0101
0000
0010
0000
1000
0000
1000
0000
,
0101
1000
0000
0100
1001
1001
0111
0100
,
1010
0001
1011
0000
1001
0010
1000
1000
,
0110
1000
0000
1000
0110
0001
0010
0010
,
1100
0000
0010
0100
1011
0000
0000
0000
1001
0000
0010
0000
1000
0000
1000
0000
,
0110
1000
0000
1000
0110
0001
0010
0010
,
1100
0000
0010
0100
1011
0000
0000
0000
1001
0000
0010
0000
1000
0000
1000
0000
,
0110
1000
0000
1000
0110
0001
0010
0010
,
1100
0000
1000
0100
1000
0000
1000
0000
0011
0000
0011
0000
1000
0000
1000
0000
,
0111
0000
1000
0100
1000
0000
1000
0000
0011
0000
0011
0000
1000
0000
1000
0000
,
0111
0000
1011
1000
0101
0010
00M0
0010
,
0101
1000
M000
1000
0101
0M0M
0110
0100
,
1001
MMMM
1011
1000
0101
0010
00M0
0010
,
0101
1000
M000
1000
0101
0M0M
0110
0100
,
1111
MMMM
1011
1000
0101
0010
00M0
0010
,
0101
1000
M000
1000
0101
0M0M
0110
0100
,
1001
MMMM
1011
1000
0101
0010
00M0
0010
,
0101
0000
1000
0000
M000
0000
1000
0000
0101
0000
0001
0000
0011
1000
0100
0010
,
0100
1000
0101
0010
1101
0000
0000
0000
1010
0000
0100
0000
0001
0000
0001
0000
,
1100
0001
0000
0001
1100
0001
0100
0010
,
1001
0000
1110
0000
0101
0010
0010
0010
,
1010
0001
0000
0001
1010
1000
0000
1000
,
0101
0000
0111
0000
1010
0100
0100
0100
,
1001
0010
0000
0010
0101
1000
0000
1000
,
0101
0010
1100
0100
0011
1000
1000
0010
,
1001
1110
0001
1000
1010
0101
1011
0010
,
1001
0110
1001
0000
0111
0000
0000
0000
1010
0000
0100
0000
0001
0000
0001
0000
,
1100
0001
0000
0001
1100
0001
0100
0010
,
1001
0000
1110
0000
0101
0010
0010
0010
,
1010
0001
0000
0001
1010
1000
0000
1000
,
0101
0000
0111
0000
1010
0100
0100
0100
,
1001
0010
0000
0010
0101
1000
0000
1000
,
0101
0000
0010
0100
1001
0000
1001
0000
1010
0000
1001
0000
1001
0000
1001
0000
,
1010
0000
1001
0110
1001
0000
1001
0000
1010
0000
1001
0000
1001
0000
1001
0000
,
1111
0000
1001
1001
1010
1001
1001
1001
,
1010
0000
1001
0110
1001
0000
1001
0000
1010
0000
1001
0000
1001
0000
1001
0000
,
1111
0000
0100
0010
1001
0000
1001
0000
1010
0000
1001
0000
1001
0000
1001
0000
,
1010
0000
1001
0110
1001
0000
1001
0000
1010
0000
1001
0000
1001
0000
1001
0000
,
1111
0000
1001
1001
1010
1001
1001
1001
,
1010
0000
1001
0110
1001
0000
1001
0000
1010
0000
1001
0000
1001
0000
1001
0000
,
1111
0000
0100
0010
1001
0000
1001
0000
1010
0000
1001
0000
1001
0000
1001
0000
,
1010
0000
1001
0110
1001
0000
1001
0000
1010
0000
1001
0000
1001
0000
1001
0000
,
1111
0000
0000
0000
,
0000
0000
0000
0000
,
1110
0000
1111
0000
1001
0100
0001
0001
,
0110
0001
0000
0001
0110
1000
0100
0100
,
0011
0000
0100
0010
1101
0000
0000
0000
1001
0000
0100
0000
0001
0000
0001
0000
,
0110
0001
0000
0001
0110
1000
0100
0100
,
0011
0000
0100
0010
1101
0000
0000
0000
1001
0000
0100
0000
0001
0000
0001
0000
,
0110
0001
0000
0001
0110
1000
0100
0100
,
0011
0000
0100
0010
1101
0000
0000
0000
0101
0000
0010
0000
1000
0000
1000
0000
,
0101
1000
0000
0100
1001
1001
0111
0100
,
1010
0001
1011
0000
1001
0010
1000
1000
,
0110
1000
0000
1000
0110
0001
0010
0010
,
1100
0000
0010
0100
1011
0000
0000
0000
1001
0000
0010
0000
1000
0000
1000
0000
,
0110
1000
0000
1000
0110
0001
0010
0010
,
1100
0000
0010
0100
1011
0000
0000
0000
1001
0000
0010
0000
1000
0000
1000
0000
,
0110
1000
0000
1000
0110
0001
0010
0010
,
1100
0000
1000
0100
1000
0000
1000
0000
0011
0000
0011
0000
1000
0000
1000
0000
,
0111
0000
1000
0100
1000
0000
1000
0000
0011
0000
0011
0000
1000
0000
1000
0000
,
0111
1000
1011
1000
0101
0010
00M0
0010
,
0101
1000
M000
1000
0101
0M0M
0110
0100
,
1001
MMMM
1000
1000
0101
0010
00M0
0010
,
0101
1000
M000
1000
0101
0M0M
0110
0100
,
1111
MMMM
1011
1000
0101
0010
00M0
0010
,
0101
1000
M000
1000
0101
0M0M
0110
0100
,
1111
MMMM
1001
1000
0101
0010
0101
0010
,
0101
0000
1000
0000
0101
0000
1011
0000
0101
0000
0101
0000
2022
0000
0000
3033
;
