#TITLE:Shining Collection;
#SUBTITLE:;
#ARTIST:Gravitation;
#TITLETRANSLIT:;
#SUBTITLETRANSLIT:;
#ARTISTTRANSLIT:;
#CREDIT:;
#BANNER:shining.png;
#BACKGROUND:shining-bg.png;
#LYRICSPATH:;
#CDTITLE:;
#MUSIC:shining.mp3;
#OFFSET:-0.110;
#SAMPLESTART:11.300;
#SAMPLELENGTH:11.580;
#SELECTABLE:YES;
#BPMS:0.000=170.000;
#STOPS:;
#BGCHANGES:;
// cache tags:
#FIRSTBEAT:16.000;
#LASTBEAT:240.000;
#SONGFILENAME:Songs/Community Keyboard Megapack - Volume 2/(SeanH) Shining Collection/shining.sm;
#HASMUSIC:1;
#HASBANNER:1;
#MUSICLENGTH:93.204;
// end cache tags

//---------------dance-single - ----------------
#NOTES:
     dance-single:
     :
     Hard:
     9:
     0.538,0.805,0.579,0.043,0.145,293.000,54.000,4.000,0.000,0.000:  // measure 1
0000
0000
0000
0000
,  // measure 2
0000
0000
0000
0000
,  // measure 3
0000
0000
0000
0000
,  // measure 4
0000
0000
0000
0000
,  // measure 5
0010
0100
1000
0100
0010
0100
1000
0001
,  // measure 6
0010
0001
1000
0100
1000
0010
0100
0010
,  // measure 7
0100
0001
1000
0001
1000
0100
0010
0100
,  // measure 8
0010
1000
0100
0001
0100
1000
0010
0000
,  // measure 9
1001
1100
0110
0011
,  // measure 10
1010
0101
1001
0000
,  // measure 11
1000
0010
0100
0001
0100
1000
0100
0001
,  // measure 12
0010
1000
0010
0001
1000
0000
0000
0000
,  // measure 13
1010
0101
1100
0011
,  // measure 14
0110
1001
0110
0000
,  // measure 15
0010
1000
0001
0100
0010
1000
0001
0100
,  // measure 16
0001
0010
0100
1000
0010
0000
0000
0000
,  // measure 17
1000
0001
1000
0000
0001
1000
0000
0000
,  // measure 18
0010
0100
0010
0000
0100
0010
0000
0000
,  // measure 19
1000
0100
0010
0000
0010
0001
0000
0000
,  // measure 20
0100
0001
1000
0010
0001
0000
0000
0000
,  // measure 21
0001
0010
0001
0000
1000
0100
0000
0000
,  // measure 22
1000
0100
1000
0000
0001
0010
0000
0000
,  // measure 23
0100
0001
0010
0000
0100
0010
0000
0000
,  // measure 24
0001
1000
0001
0100
1000
0000
0000
0000
,  // measure 25
1100
1001
0011
1001
,  // measure 26
1000
0100
0001
0100
1100
0000
0000
0001
,  // measure 27
0011
1001
0110
1001
,  // measure 28
0001
0010
1000
0010
0011
0000
0000
0000
,  // measure 29
1100
0110
0011
0110
,  // measure 30
1000
0001
0100
0010
1001
0000
0000
0100
,  // measure 31
1001
1100
0011
0110
,  // measure 32
1000
0001
0000
0001
2000
0000
0000
0000
,  // measure 33
0002
0000
3003
0100
,  // measure 34
1001
0000
0110
0000
,  // measure 35
1100
0000
0000
0000
0011
0000
0000
0000
1010
0000
0000
0000
0101
0000
0000
1000
,  // measure 36
0100
0000
0000
0100
1000
0000
0000
0001
0010
0000
0000
0010
0001
0000
0000
0000
,  // measure 37
1001
0000
0100
0010
,  // measure 38
1001
0000
0110
0000
,  // measure 39
1000
0000
0000
0000
0100
0000
0000
0000
0010
0000
0000
0000
0001
0000
0000
1000
,  // measure 40
0010
0000
0000
0010
1000
0000
0000
0001
0100
0000
0000
0100
0001
0000
0000
0000
,  // measure 41
1001
0000
0100
0100
,  // measure 42
1100
0000
0011
0000
,  // measure 43
0001
0010
0100
1000
,  // measure 44
1000
0000
0000
0000
0001
0000
0000
0000
0000
0010
0000
0000
0100
0000
0000
0000
0010
0000
0000
0000
0001
0000
0000
0000
,  // measure 45
1000
0000
0100
0010
,  // measure 46
1010
0000
0000
0000
0101
0000
0000
0001
,  // measure 47
0110
1100
0011
1100
,  // measure 48
0110
0000
1001
0000
,  // measure 49
1000
0001
1000
0001
1000
0001
1000
0001
1000
0001
1000
0001
1000
0001
1000
0001
,  // measure 50
1000
0100
0010
0001
0010
0100
1000
0100
,  // measure 51
1000
0001
0010
0100
1000
0000
0000
0000
,  // measure 52
0100
1000
0100
0001
0100
1000
0010
0001
,  // measure 53
0010
1000
0100
1000
0001
0000
0000
0000
,  // measure 54
0001
0100
0010
1000
0100
0010
0100
1000
,  // measure 55
0001
0010
0001
1000
0100
0000
0000
0000
,  // measure 56
0001
0010
1000
0010
0001
1000
0100
0001
,  // measure 57
0100
1000
0100
0010
0001
0000
0000
0000
,  // measure 58
1000
0001
1000
0001
1000
0001
1000
0001
1000
0001
1000
0001
1000
0001
1000
0001
,  // measure 59
0220
0000
0000
0000
,  // measure 60
0000
0000
0000
0000
,  // measure 61
0330
0000
0000
0000
;

//---------------dance-single - ----------------
#NOTES:
     dance-single:
     :
     Medium:
     7:
     0.423,0.483,0.343,0.064,0.000,238.000,32.000,6.000,0.000,0.000:  // measure 1
0000
0000
0000
0000
,  // measure 2
0000
0000
0000
0000
,  // measure 3
0000
0000
0000
0000
,  // measure 4
0000
0000
0000
0000
,  // measure 5
1000
0000
0001
0000
1000
0001
1000
0001
,  // measure 6
0100
0000
0010
0000
0100
0010
0100
0000
,  // measure 7
0001
0000
1000
0000
0001
1000
0001
1000
,  // measure 8
0010
0000
0100
0000
0010
0100
0010
0000
,  // measure 9
1000
0100
0010
0001
,  // measure 10
1000
0100
0001
0000
,  // measure 11
0001
0010
0100
1000
,  // measure 12
0001
0100
1000
0000
,  // measure 13
1000
0100
1000
0100
0010
0001
0010
0001
,  // measure 14
1000
0100
0010
0001
0100
0000
0000
0000
,  // measure 15
0001
0010
0001
0010
0100
1000
0100
1000
,  // measure 16
0001
0010
0100
1000
0010
0000
0000
0000
,  // measure 17
1000
0000
0001
0000
0100
0010
0000
0000
,  // measure 18
0001
0000
0100
0000
1000
0010
0000
0000
,  // measure 19
1000
0000
0100
0000
0010
0001
0000
0000
,  // measure 20
0001
0010
0100
0010
0001
0000
0000
0000
,  // measure 21
0001
0000
0010
0000
1000
0100
0000
0000
,  // measure 22
1000
0000
0010
0000
0001
0010
0000
0000
,  // measure 23
0100
0000
0010
0000
0100
0010
0000
0000
,  // measure 24
1000
0100
0010
0100
1000
0000
0000
0000
,  // measure 25
1000
1100
0001
0011
,  // measure 26
1000
0100
0010
0001
1000
0000
0000
0010
,  // measure 27
0001
1001
0100
1001
,  // measure 28
0001
0010
0100
1000
0001
0000
0000
0000
,  // measure 29
0100
0110
0010
0110
,  // measure 30
1000
0010
0100
0001
1000
0000
0000
1000
,  // measure 31
0100
1100
0010
0011
,  // measure 32
1000
0001
0000
0001
2000
0000
0000
0000
,  // measure 33
0002
0000
3003
0100
,  // measure 34
1001
0000
0110
0000
,  // measure 35
1000
0001
0100
0001
,  // measure 36
1100
1010
0110
0101
,  // measure 37
1001
0000
1000
0001
,  // measure 38
0110
0000
1001
0000
,  // measure 39
0001
0100
0010
1000
,  // measure 40
0011
0101
1001
1010
,  // measure 41
1100
0000
0001
0010
,  // measure 42
0011
0000
1100
0000
,  // measure 43
0100
0010
0100
0010
,  // measure 44
2000
0000
0200
3300
,  // measure 45
1100
0000
1000
0001
,  // measure 46
1001
0000
0000
0000
0101
0000
0000
0001
,  // measure 47
0010
0011
0001
1001
,  // measure 48
0110
0000
1001
0000
,  // measure 49
1000
0100
0010
0001
1000
0100
0010
0001
,  // measure 50
0010
0100
1000
0001
,  // measure 51
1000
0100
0010
0001
1000
0000
0000
0000
,  // measure 52
0010
0100
0010
0100
,  // measure 53
0001
0010
0100
1000
0001
0000
0000
0000
,  // measure 54
0010
0000
0100
0000
0001
0100
0010
1000
,  // measure 55
0001
1000
0010
0100
0001
0000
0000
0000
,  // measure 56
1000
0000
0100
0000
1000
0100
0010
0001
,  // measure 57
0100
0010
1000
0001
0100
0000
0000
0000
,  // measure 58
0001
1000
0010
0100
0001
1000
0010
0100
,  // measure 59
0220
0000
0000
0000
,  // measure 60
0000
0000
0000
0000
,  // measure 61
0330
0000
0000
0000
;

//---------------dance-single - ----------------
#NOTES:
     dance-single:
     :
     Easy:
     4:
     0.322,0.322,0.182,0.064,0.000,187.000,17.000,6.000,0.000,0.000:  // measure 1
0000
0000
0000
0000
,  // measure 2
0000
0000
0000
0000
,  // measure 3
0000
0000
0000
0000
,  // measure 4
0000
0000
0000
0000
,  // measure 5
1000
0001
1000
0001
,  // measure 6
0100
0000
0010
0000
0100
0010
0100
0000
,  // measure 7
0001
1000
0001
1000
,  // measure 8
0010
0000
0100
0000
0010
0100
0010
0000
,  // measure 9
1000
0000
0100
0000
,  // measure 10
1000
0010
0100
0000
,  // measure 11
0001
0000
0100
0000
,  // measure 12
0010
1000
0001
0000
,  // measure 13
1000
0100
1000
0000
1000
0001
1000
0000
,  // measure 14
0100
0010
0001
0000
,  // measure 15
0001
0010
0001
0000
0001
1000
0001
0000
,  // measure 16
0001
0010
0100
0000
,  // measure 17
1000
0001
0100
0000
,  // measure 18
0001
1000
0100
0000
,  // measure 19
1000
0100
0010
0000
,  // measure 20
0001
0100
0001
0000
,  // measure 21
0001
0010
0100
0000
,  // measure 22
1000
0100
0010
0000
,  // measure 23
0100
0010
0100
0000
,  // measure 24
1000
0010
1000
0000
,  // measure 25
1000
1000
0001
0001
,  // measure 26
1000
0010
1001
0000
,  // measure 27
0010
0010
0100
0100
,  // measure 28
0001
1000
0110
0000
,  // measure 29
1000
0100
1000
0100
,  // measure 30
0010
0001
1001
0000
,  // measure 31
0001
0010
0100
1000
,  // measure 32
1000
0001
0000
0001
2000
0000
0000
0000
,  // measure 33
0002
0000
3003
0100
,  // measure 34
1100
0000
1100
0000
,  // measure 35
1000
0001
0100
0001
,  // measure 36
0100
0010
1000
0001
,  // measure 37
1001
0000
1000
0001
,  // measure 38
0011
0000
0011
0000
,  // measure 39
0001
0100
0010
1000
,  // measure 40
0010
0100
0001
0100
,  // measure 41
0110
0000
0001
1000
,  // measure 42
1001
0000
1001
0000
,  // measure 43
0100
0010
0100
0010
,  // measure 44
2000
0000
0200
3300
,  // measure 45
1100
0000
0100
0010
,  // measure 46
0110
0000
0110
0000
,  // measure 47
1000
0100
0010
0001
,  // measure 48
1001
0000
0110
0000
,  // measure 49
1000
1000
1000
1000
,  // measure 50
0001
0100
0010
1000
,  // measure 51
0010
0100
0001
0000
,  // measure 52
0010
0100
0010
0100
,  // measure 53
0001
0100
0010
0000
,  // measure 54
0010
0100
0010
0000
0010
1000
0010
0000
,  // measure 55
1000
0100
1000
0000
,  // measure 56
1000
0100
1000
0000
0001
0100
0001
0000
,  // measure 57
0010
1000
0100
0000
,  // measure 58
0010
0010
0010
0010
,  // measure 59
0220
0000
0000
0000
,  // measure 60
0000
0000
0000
0000
,  // measure 61
0330
0000
0000
0000
;

//---------------dance-single - ----------------
#NOTES:
     dance-single:
     :
     Challenge:
     10:
     0.717,0.869,0.772,0.043,0.461,392.000,72.000,4.000,0.000,0.000:  // measure 1
0000
0000
0000
0000
,  // measure 2
0000
0000
0000
0000
,  // measure 3
0000
0000
0000
0000
,  // measure 4
0000
0000
0000
0000
,  // measure 5
0010
0000
0100
0000
1000
0000
0001
0010
0001
0000
1000
0000
0010
0100
0010
0000
,  // measure 6
1000
0000
0100
0000
0001
0000
0100
1000
0100
0000
0010
0000
0001
1000
0001
0000
,  // measure 7
0100
0000
0010
0000
1000
0000
0001
0100
0001
0000
1000
0000
0010
0100
0010
0000
,  // measure 8
1000
0100
1000
0100
1000
0001
1000
0001
1000
0010
1000
0010
1000
0100
0010
0001
,  // measure 9
1000
1100
0110
0011
,  // measure 10
0110
0000
0001
1000
0001
0000
1000
0000
0001
0000
0000
0000
0110
0000
0000
0000
,  // measure 11
1000
0100
1000
0000
0001
0000
1000
0000
0001
1000
0001
0000
0010
0000
0001
0000
,  // measure 12
1000
0100
1000
0000
0010
0000
1001
0000
0110
0000
0000
0000
0000
0000
0000
0000
,  // measure 13
0100
0101
1100
0101
,  // measure 14
0110
0000
0100
0010
0100
0000
0010
0000
0100
0000
0000
0000
1001
0000
0000
0000
,  // measure 15
0100
0001
0100
0000
0001
0000
0100
0000
0010
1000
0010
0000
0001
0000
0100
0000
,  // measure 16
0001
1000
0001
0000
1000
0000
0110
0000
1001
0000
0000
0000
0000
0000
0000
0000
,  // measure 17
0100
0000
1000
0100
0010
0000
0000
0000
0001
0000
1001
0000
0000
0000
0000
0000
,  // measure 18
0010
0000
0001
0010
0100
0000
0000
0000
0100
0000
0110
0000
0000
0000
0000
0000
,  // measure 19
0010
0000
1000
0100
0001
0000
0000
0000
0010
0000
0011
0000
0000
0000
0000
0000
,  // measure 20
1000
0100
0001
0100
1000
0000
0000
0000
,  // measure 21
0001
0000
0010
0100
1000
0000
0000
0000
1000
0000
1001
0000
0000
0000
0000
0000
,  // measure 22
1000
0000
0100
0010
0001
0000
0000
0000
0001
0000
1001
0000
0000
0000
0000
0000
,  // measure 23
0100
0000
0001
0010
1000
0000
0000
0000
0100
0000
1100
0000
0000
0000
0000
0000
,  // measure 24
0001
0010
1000
0010
0001
0000
0000
0000
,  // measure 25
1100
1010
0011
1010
,  // measure 26
0100
1001
0010
1001
0110
0000
0000
0001
,  // measure 27
0011
0101
1100
0101
,  // measure 28
0001
0110
1000
0110
1001
0000
0000
0000
,  // measure 29
1100
0011
1100
0011
,  // measure 30
1000
1100
0010
0011
1001
0000
0000
0100
,  // measure 31
1001
0110
1001
0110
,  // measure 32
1000
0001
0000
0001
2000
0000
0000
0000
,  // measure 33
0002
0000
3003
0100
,  // measure 34
1000
0100
1000
0000
0001
0010
0001
0000
1000
0010
1000
0000
0001
0100
0001
0000
,  // measure 35
0010
0100
0010
0000
0100
0010
0100
0000
0001
1000
0001
0000
1000
0100
1000
0000
,  // measure 36
0011
0110
1100
0011
,  // measure 37
1001
0000
0100
0010
,  // measure 38
1000
0001
1000
0000
1000
0010
1000
0000
0001
1000
0001
0000
0001
0010
0001
0000
,  // measure 39
0100
1000
0100
0000
0100
0010
0100
0000
0010
0001
0010
0000
0010
0100
0010
0000
,  // measure 40
1001
0110
1100
0011
,  // measure 41
1001
0000
0100
0010
,  // measure 42
0001
0100
0001
0000
1000
0010
1000
0000
0001
0100
0001
0000
1000
0010
1000
0000
,  // measure 43
0100
0010
0100
0000
0010
0100
0010
0000
1000
0001
1000
0000
0000
0000
0001
0000
,  // measure 44
1000
0000
0000
0000
0001
0000
0000
0000
0000
0010
0000
0000
0100
0000
0000
0000
0010
0000
0000
0000
0001
0000
0000
0000
,  // measure 45
1000
0000
0001
0100
,  // measure 46
1000
0100
1000
0000
1000
0010
1000
0000
1000
0100
1000
0000
1000
0001
1000
0000
,  // measure 47
0001
0010
0001
0000
0001
1000
0001
0000
0001
0010
0001
0000
0001
0100
0001
0000
,  // measure 48
0000
0110
1001
0110
,  // measure 49
0001
1000
0001
1000
0001
0100
0001
0100
0001
1000
0001
1000
0001
0010
0001
0010
,  // measure 50
1000
1100
0110
0011
,  // measure 51
0110
0000
1000
0001
1000
0000
0010
0000
0001
0000
0000
0000
0110
0000
0000
0000
,  // measure 52
0100
0010
0100
0000
0001
0000
1000
0000
0001
1000
0001
0000
0010
0000
0100
0000
,  // measure 53
0010
0100
0010
0000
1000
0000
0110
0000
1001
0000
0000
0000
0000
0000
0000
0000
,  // measure 54
0001
0110
1100
1010
,  // measure 55
0100
0001
0100
0000
0001
0000
1000
0000
0100
0000
0000
0000
1001
0000
0000
0000
,  // measure 56
0001
1000
0001
0000
0100
0000
0010
0000
1000
0001
1000
0000
0100
0000
0001
0000
,  // measure 57
0010
0100
0010
0000
0100
0000
0110
0000
1001
0000
0000
0000
0000
0000
0000
0000
,  // measure 58
1000
0001
1000
0001
1000
0010
1000
0010
1000
0001
1000
0001
1000
0100
1000
0100
,  // measure 59
0220
0000
0000
0000
,  // measure 60
0000
0000
0000
0000
,  // measure 61
0330
0000
0000
0000
;
