#TITLE:Vacuum Cleaner;
#SUBTITLE:;
#ARTIST:Doin;
#TITLETRANSLIT:;
#SUBTITLETRANSLIT:;
#ARTISTTRANSLIT:;
#CREDIT:Aoreo;
#BANNER:vacuum bn.png;
#BACKGROUND:vacuum bg.png;
#LYRICSPATH:;
#CDTITLE:;
#MUSIC:Vacuum Cleaner.ogg;
#OFFSET:-0.212;
#SAMPLESTART:121.020;
#SAMPLELENGTH:13.000;
#SELECTABLE:YES;
#DISPLAYBPM:222.000;
#BPMS:0.000=222.222,224.000=111.111,224.500=222.222;
#STOPS:;
#BGCHANGES:;
// cache tags:
#FIRSTBEAT:8.000;
#LASTBEAT:550.000;
#SONGFILENAME:Songs/SPEEEDCOOOORE 2/Vacuum Cleaner - [Aoreo]/Vacuum Cleaner.sm;
#HASMUSIC:1;
#HASBANNER:1;
#MUSICLENGTH:151.608;
// end cache tags

//---------------dance-single - J. Nero----------------
#NOTES:
     dance-single:
     J. Nero:
     Challenge:
     16:
     1.000,1.000,0.336,0.204,1.000,1403.000,51.000,31.000,4.000,1.000:
0000
0000
0000
0000
,
0000
0000
0000
0000
,
2000
0000
0000
0000
,
0000
0000
0000
0000
,
0000
0000
0000
0000
,
0000
0000
0000
3000
,
1001
0101
1010
0110
,
0101
0000
0000
0000
1001
0000
0000
0000
1100
0000
0000
0000
0100
1000
0001
0100
,
0002
0003
0000
0000
0100
0000
0000
0000
0010
0000
0000
0000
0100
0000
0000
0000
0001
0000
0000
0000
1000
0000
0100
0000
1000
0000
0100
0000
0010
0000
0000
0000
,
0200
0300
0000
0000
1000
0000
0000
0000
0001
0000
0000
0000
0200
0300
0000
0000
0010
0000
0000
0000
0100
0000
0000
0000
0001
0000
0000
0000
1000
0000
0000
0000
,
0200
0300
0000
0000
1000
0000
0000
0000
0001
0000
0000
0000
0100
0000
0000
0000
0010
0000
0000
0000
0100
0000
0001
0000
0100
0000
0010
0000
1000
0000
0100
0000
,
0010
0000
0001
1000
0001
0000
0100
0000
0001
0000
0100
0000
0010
0000
1000
0001
,
0200
0300
0000
0000
0010
0000
0000
0000
1000
0000
0000
0000
0100
0000
0000
0000
0010
0000
0000
0000
0001
0000
0000
0000
0100
0000
0010
0000
0100
0000
0000
0000
,
0002
0003
0000
0000
0010
0000
0000
0000
0100
0000
0000
0000
2000
3000
0000
0000
0001
0000
0000
0000
0100
0000
0000
0000
0001
0000
0010
0000
0001
0000
0000
0000
,
1000
0100
1000
0000
0001
0100
0001
0100
0010
0000
0100
0001
0100
0010
1000
0001
,
1000
0010
0100
0010
0100
0001
1000
0001
1000
0100
1000
0001
0100
0001
1000
0001
,
2000
3000
0000
0000
0010
0000
0000
0000
0100
0000
0000
0000
0001
0000
0000
0000
1000
0000
0000
0000
0001
0000
0100
0000
0001
0000
0100
0000
0010
0000
0000
0000
,
2000
3000
0000
0000
0100
0000
0000
0000
1000
0000
0000
0000
0002
0003
0000
0000
0100
0000
0000
0000
0001
0000
0000
0000
0010
0000
0000
0000
0100
0000
0000
0000
,
2000
3000
0000
0000
0010
0000
0000
0000
0100
0000
0000
0000
0001
0000
0000
0000
1000
0000
0000
0000
0001
0000
0100
0000
0010
0000
0100
0000
0001
0000
0000
0000
,
1000
0000
0100
1000
0100
0000
1000
0000
0001
0000
0100
0000
0010
0000
0100
0001
,
2000
3000
0000
0000
0001
0000
0000
0000
0100
0000
0000
0000
0010
0000
0000
0000
0100
0000
0001
0000
0100
0000
0001
0000
1000
0000
0100
0000
0010
0000
0001
0000
,
2000
3000
0000
0000
0001
0000
0000
0000
0010
0000
0000
0000
0200
0300
0000
0000
0010
0000
0000
0000
0001
0000
0000
0000
1000
0000
0100
0000
1000
0000
0000
0000
,
0001
0100
0001
0000
0100
0001
0100
0010
1000
0000
0001
1000
0100
1000
0001
0000
,
1000
0100
0010
0001
1000
0001
0010
0100
1000
0001
1000
0010
0100
0001
1000
0001
,
1000
0000
0001
0000
0100
0000
0010
0100
,
0001
0000
1000
0000
0100
0000
1000
0001
,
0000
0000
0100
0010
1000
0000
0001
0100
,
0010
0000
1000
0000
0001
0000
0010
0100
,
0000
1000
0000
0100
0010
0000
0010
0001
,
1000
0000
0001
0000
0100
0000
0001
1000
,
1100
0110
0011
1001
,
1010
0000
0000
0000
0110
0000
0000
0000
0101
0000
0000
0000
0001
1000
0100
1000
,
0010
0100
0010
1000
0001
0000
1000
0000
0100
1000
0001
1000
0001
0000
0100
0000
,
0010
0100
0001
0100
0010
0000
1000
0000
0100
1000
0100
1000
0001
0000
0100
0000
,
0001
1000
0001
1000
0010
0000
0100
0000
0001
1000
0100
1000
0001
0000
0100
0000
,
0010
1000
0100
0010
0001
0000
0100
0000
0001
1000
0100
1000
0001
0000
0010
0000
,
0100
1000
0100
1000
0001
0000
0100
0000
0010
0100
0010
1000
0001
0000
0100
0000
,
0001
0100
0001
1000
0001
0000
1000
0000
0100
0010
0100
0010
0001
0000
1000
0000
,
0001
0100
0001
0100
0010
0000
1000
0000
0001
0100
0001
0100
0010
0000
1000
0000
,
0001
1000
0100
1000
0001
0000
0010
0000
0100
1000
0100
1000
0001
0010
0100
1000
,
0010
0100
0010
0100
0001
0000
1000
0000
0100
1000
0001
0100
0010
0000
0100
0000
,
0001
0100
0010
1000
0001
0000
1000
0000
0100
1000
0001
0100
0001
0000
1000
0000
,
0010
0100
0001
0010
0100
1000
0001
1000
0010
0100
0001
0100
0010
1000
0001
1000
,
0100
1000
0100
0010
0001
0010
0001
1000
0010
0100
0001
0100
0010
1000
0001
1000
,
0001
0100
0010
1000
0001
0000
1000
0000
0010
0100
0001
0010
0100
0000
1000
0000
,
0100
0010
0001
1000
0001
0000
0100
0000
0010
1000
0100
0010
0001
0000
1000
0000
,
0001
0100
0001
0100
0010
1000
0010
1000
0001
1000
0001
1000
0001
0100
0001
0100
,
0010
1000
0010
1000
0001
0100
0001
0100
0010
0000
1000
0000
0001
0000
0010
0000
,
0110
0100
1000
0001
1001
1000
0010
0100
,
0101
0001
1000
0100
1100
1000
0001
0100
,
0110
0010
1000
0001
0011
0010
0100
1000
,
1001
0000
0001
0100
0001
0000
1000
0000
1010
0000
0010
0000
0100
0000
0001
1000
,
0100
0000
1100
0000
1000
0001
0000
0000
,
0101
0000
0000
1010
0000
0000
0110
0000
,
0010
1000
0000
0000
1001
0000
0000
0101
,
0001
0000
1000
0100
1000
0000
0001
0000
0100
0000
0010
0000
1000
0100
1000
0001
,
0200
0000
0000
0000
0301
1000
0001
1000
0010
0100
0010
0100
0001
1000
0001
1000
,
0100
0010
0001
0010
0001
1000
0100
1000
0100
0010
0001
1000
0001
0010
0100
1000
,
0001
0100
0001
0100
0010
1000
0010
1000
0001
0100
0010
0100
0010
1000
0001
0100
,
0001
0100
0010
1000
0001
1000
0001
0010
0100
1000
0100
1000
0001
1000
0001
0100
,
0010
0100
0001
0100
0010
1000
0001
1000
0001
0010
0100
1000
0001
1000
0100
0010
,
0100
0010
0001
1000
0001
1000
0010
0100
0001
0100
0010
1000
0001
1000
0001
0010
,
0100
0010
0100
1000
0001
1000
0001
0100
0010
0100
0001
1000
0100
0010
0001
1000
,
0001
0100
0010
1000
0001
0000
0000
0000
1001
0000
0000
0000
1001
0000
0000
0000
,
1001
0000
0000
0000
1000
0100
1000
0001
0100
0000
0010
0000
0100
0001
0100
0010
,
1000
0000
0001
0000
0010
0100
0010
0100
1000
0000
0001
0000
0100
0001
0100
0010
,
1000
0000
0001
0000
1000
0100
0010
0001
1000
0000
0010
0000
0100
0001
0100
0010
,
1000
0000
0001
0000
0100
0010
0100
0001
1000
0000
0001
0000
0010
0100
1000
0001
,
4000
0000
0000
0000
0000
0000
3000
0000
0010
0000
0100
0000
0001
0010
0100
1000
,
0010
0000
0100
0000
0001
1000
0100
1000
0010
0000
0100
0000
0001
0010
0100
1000
,
0010
0000
0100
0000
0001
1000
0100
1000
0010
0000
0100
0000
0001
0010
0100
1000
,
0010
0000
0100
0000
0001
1000
0100
1000
0010
0000
0100
0000
0001
0010
0001
0100
,
0010
0000
1000
0000
0100
1000
0010
0100
0001
0100
0010
1000
0001
0010
0100
0010
,
0001
1000
0100
0010
0001
1000
0001
0010
0100
1000
0010
0100
0001
1000
0100
0010
,
0001
0100
0010
1000
0100
1000
0001
0100
0010
1000
0001
1000
0001
0010
0100
1000
,
0010
0100
0001
1000
0001
0010
0100
1000
0010
0100
0001
0100
0010
1000
0001
1000
,
0001
0000
0100
0000
0010
0100
0001
1000
0001
0000
1000
0000
0100
1000
0001
1000
,
0010
0000
0100
0000
0001
0010
0001
0010
0100
0000
1000
0000
0010
0100
0010
0100
,
0001
0000
1000
0000
0010
1000
0010
1000
0001
0100
0001
0100
0010
1000
0010
1000
,
0100
1000
0100
1000
0001
0100
0001
0100
0001
1000
0001
1000
0100
0000
1000
0000
,
0010
0100
0101
0001
1000
0100
1100
1000
,
0001
0100
0110
0010
1000
0001
0101
0100
,
0010
1000
1100
0100
0010
0001
1001
1000
,
0010
0100
0101
0001
1000
0100
0110
0010
,
0001
1000
1001
0001
0100
0110
0010
1000
,
1001
0001
0010
0110
0100
1000
1001
0000
,
0000
0001
0100
0000
0110
0000
0010
1000
,
0000
0000
1100
0000
0100
0010
0000
0000
,
0011
0000
0000
0000
0001
0000
0000
0000
1000
0100
1000
0100
0020
0000
0031
0000
,
1000
0010
0100
0001
1000
0001
0010
0100
,
1000
0000
0010
0000
0100
0000
0001
0000
0100
0000
0001
0100
0010
0000
1000
0000
,
0100
0010
0100
1000
0001
1000
0010
0100
,
0001
0000
0010
0000
0100
0000
1000
0000
0001
0000
0100
0001
0010
0000
0000
0000
,
0000
0000
0011
0000
0000
0000
0001
1000
,
0000
0000
0000
0000
0000
0000
0010
0100
0001
0000
0000
0000
1000
0001
1000
0001
,
1000
0001
1000
0001
1000
0001
1000
0001
1000
0001
1000
0001
1000
0001
1000
0001
,
1000
0100
1000
0100
0010
0001
0010
0001
0100
0010
1000
0100
4000
3000
0001
0100
,
0001
0000
0100
0000
0020
0030
0000
0000
0100
0000
0001
0000
0010
0000
0100
0000
,
1000
0000
0001
0000
2000
3000
0001
0100
0001
0000
0100
0000
0010
0000
0000
0000
,
1000
0000
0100
0000
0020
0030
0001
1000
0001
0000
0100
0000
0010
0000
0000
0000
,
0100
0000
0001
0000
2000
3000
0001
0010
0400
0000
0000
0300
1000
0000
0001
0100
,
0010
0000
1000
0000
0200
0300
0000
0000
0010
0000
0001
0000
1000
0000
0010
0000
,
0100
0000
0000
0000
0000
0000
0001
0000
0000
0000
0000
0000
0020
0000
0000
0000
0030
0000
0100
0000
0000
1000
0000
0000
0001
0000
0000
0000
0000
0000
1000
0000
0000
0000
0000
0000
0010
0000
0000
0000
0000
0000
0100
0000
0000
0000
0000
0000
,
0001
0000
1000
0000
0002
0103
0010
0000
0100
0000
0000
0000
0001
0000
1000
0000
,
0100
0000
1000
0000
0001
0000
1000
0010
0400
0000
0300
0000
0101
0000
0001
1000
,
0100
0000
0010
0000
0002
0003
0000
0000
0100
0000
0001
0000
0010
0000
0100
0000
,
0010
0000
0000
0000
0000
0000
0100
0000
0000
0000
0000
0000
2000
0000
0000
0000
3000
0000
0001
0000
0000
0100
0000
0000
0010
0000
0000
0000
0000
0000
0100
0000
0000
0000
0000
0000
0001
0000
0000
0000
0000
0000
1000
0000
0000
0000
0000
0000
,
0100
0000
0010
0000
0200
0300
0010
0000
0001
0000
0000
0000
1000
0000
0010
0000
,
0100
0000
0001
0000
1000
0000
0100
1000
0004
0000
0003
0000
0101
0000
0100
0001
,
1000
0000
0100
0000
0020
0030
0100
0000
1000
0000
0000
0000
0001
0000
0100
0000
,
0010
0000
0100
0000
0002
0003
1000
0100
0010
0000
0000
0000
0001
0000
0100
0000
,
0010
0000
1000
0000
0001
0000
0100
0000
0001
0000
0000
0000
1000
0100
0010
0001
,
1000
0001
0010
0100
1000
0001
1000
0010
0100
0001
0100
0010
1000
0001
0100
0001
,
0100
0000
0010
0000
1000
0001
1000
0100
0010
0000
0001
0000
0100
0001
0100
0010
,
1000
0000
0001
0000
0100
0010
0100
0010
1000
0000
0001
0000
0010
0100
1000
0010
,
0100
0000
0001
0000
0010
0100
1000
0010
0100
0000
0001
0000
1000
0010
0100
0001
,
0010
0000
0001
0000
1000
0010
0100
0001
0010
0000
0001
0000
0010
0100
1000
0010
,
0100
0000
0001
0000
0010
0100
1000
0010
0100
0000
0001
0000
1000
0010
0100
0001
,
0010
0000
0001
0000
1000
0100
1000
0010
0400
0000
0000
0000
0000
0000
0300
0000
,
0001
0100
0001
1000
0100
0010
0001
1000
0001
0010
0100
1000
0010
0100
0001
0100
,
0010
1000
0001
0010
0100
1000
0010
0100
0001
0100
0010
1000
0001
1000
0100
0010
,
0001
1000
0100
1000
0001
0100
0010
0100
0001
1000
0001
0010
0100
1000
0010
0100
,
0001
1000
0001
0100
0010
0100
0001
1000
0001
0010
0100
1000
0001
1000
0001
1000
,
0010
0100
0010
0100
0001
1000
0001
1000
0100
0010
0001
0010
0001
1000
0100
1000
,
0100
0010
0001
1000
0001
0010
0100
1000
0001
0100
0001
0100
0010
1000
0010
1000
,
0001
0100
0010
0100
0010
1000
0001
0100
0001
0100
0010
1000
0001
1000
0001
0010
,
0100
1000
0100
1000
0001
1000
0001
0100
0010
0100
0001
0100
0010
1000
0001
0010
,
0100
1000
0010
0100
0001
0100
0010
1000
0001
1000
0100
0010
0100
1000
0001
1000
,
0010
0100
0001
0100
0010
1000
0001
1000
0100
0010
0001
1000
0010
0100
0001
1000
,
0100
1000
0001
0010
0100
1000
0010
0100
0001
1000
0100
0010
0100
1000
0001
1000
,
0010
0100
0001
0100
0010
1000
0001
1000
0001
1000
0040
0000
0030
0000
0000
0100
,
0001
0010
0100
1000
0001
1000
0100
0010
0001
1000
0001
0100
0010
0100
0001
1000
,
0001
0010
0100
1000
0001
1000
0100
0010
0001
1000
0100
1000
0100
0010
0001
0100
,
0010
1000
0100
0010
0001
0100
0010
1000
0100
0010
0001
1000
0100
1000
0010
0100
,
0001
0010
0001
0100
0010
1000
0100
1000
0010
0100
0001
1000
0002
0000
0003
0000
,
0000
0000
0000
0000
1000
0010
0100
0001
0010
0100
1000
0001
2000
0000
0000
0000
,
0000
0000
0000
0000
0000
3000
0000
0000
1111
0000
0000
0000
0000
0000
0000
0000
,
0000
0000
MMMM
0000
;

//---------------dance-double - Telperion----------------
#NOTES:
     dance-double:
     Telperion:
     Challenge:
     16:
     1.000,1.000,0.679,0.508,1.000,1081.000,103.000,77.000,357.000,1.000:
00000000
00000000
00000000
00000000
,
00000000
00000000
00000000
00000000
,
00022000
00000000
00000000
00000000
,
00000000
00000000
00000000
00000000
,
00000000
00000000
00000000
00000000
,
00000000
00000000
00000000
00000000
00000000
00000000
00000000
00000000
00000000
00000000
00000000
00000000
00000000
00000000
00000000
00000000
00000000
00000000
00000000
00000000
00000000
00000000
00000000
00000000
00000000
00000000
00000000
00000000
00000000
00000000
00000000
00033000
,
00M11M00
00M1M100
00M11M00
010M1M00
,
M101M000
00M11M00
000M101M
0000MMM1
,
MMMM1111
00000000
00004000
00000000
,
00003011
00000000
00001000
00001100
00000000
00000100
00010000
00001000
,
00011000
00000000
040M0000
00000000
,
03100000
00000000
01000000
00010000
01000000
00000000
00100000
00000000
10000000
00000000
00010000
00000000
00010000
00000000
00100000
00010000
,
10000000
00000000
00000000
00000000
00000000
00000000
00000000
00000000
00400000
00000000
01000000
00000000
01300000
00010000
01000000
00000000
,
00001000
00000000
00000000
00000000
00010000
00000000
00011000
00000000
00010000
00000000
00000100
00000000
00010000
00000100
00001000
00000000
,
00000100
00000010
00000000
00000000
00000001
00000010
00000001
00000010
00000100
00001000
00000100
00001000
00000100
00010000
00001000
00010000
,
00000400
04000000
00000000
00000000
00000000
00000000
00000000
00000000
00000000
00000000
00000000
00000000
00000000
00000000
00000000
00000000
,
03011300
00000000
00001000
00000000
01000000
00000000
00010000
00000000
04000000
00000000
00000000
00000000
00000000
00100000
00000000
00100000
,
03000000
00010000
10000000
10010000
00010000
01000000
00100000
00010000
,
00011000
00000000
00001000
00000000
00010000
00000000
00000100
00000000
00000040
00000000
00000000
00000000
00000000
00000100
00000000
00000100
,
00000030
00000000
00000001
00001000
00000100
00000000
00001000
00000000
00000001
00000000
00000100
00000000
00000100
00000000
00000001
00001000
,
00000100
00000000
00001000
00000000
00000001
00000000
00001000
00000000
00000100
00010000
00000100
00010000
00001000
00100000
00001000
00100000
,
00010000
00000000
10000000
00000000
00100000
00000000
01100000
00000000
01000000
00000000
00010000
00000000
10000000
00010000
01000000
00000000
,
00100000
01000000
00000000
00000000
00100000
10000000
00010000
10000000
00100000
01000000
00010000
01000000
00100000
01000000
00010000
01000000
,
00100000
10000000
00100000
01000000
00010000
01000000
00001000
01000000
M0001000
00010000
0M000100
00010000
00M00100
00001000
000M0100
00000010
,
M000M001
00000000
00000010
00000000
00000010
00000000
00000100
00010000
,
00001000
00000000
00010000
00000000
01000000
00000000
10000000
00200000
,
00300000
00000000
00010000
00100000
10000000
00000000
01000000
00010000
,
00001000
00000000
00000100
00000000
00000001
00000000
00000010
00000100
,
00000000
00000001
00000000
00000100
00001000
00000000
00000001
00000100
,
00001000
00000000
00010000
00000000
00100000
00000000
00010000
00001000
,
00M11M00
0M11M000
00M11M00
000M1M10
,
0000M1M1
000M11M0
00M11M00
001MM010
,
01000000
00010000
01000000
00010000
01000000
00000000
00001000
00000000
01000000
00001000
01000000
00001000
01000000
00000000
00001000
00000000
,
00010000
00001000
00010000
00001000
00010000
00000000
00000100
00000000
00001000
00000100
00010000
00000100
00010000
00000000
00001000
00000000
,
00010000
00000010
00001000
00000010
00000100
00000000
00000001
00000000
00001000
00000001
00000010
00000100
00001000
00000000
00000001
00000000
,
00000010
00000001
00001000
00000001
000001M0
00000000
00000000
00000000
0000M11M
00000000
00000000
00000000
00001000
00000000
00000000
00000000
,
00000010
00001000
00000010
00001000
00000010
00000000
00010000
00000000
00001000
00010000
00001000
00010000
00000100
00000000
00010000
00000000
,
00001000
01000000
00010000
01000000
00001000
01000000
00001000
00010000
00001000
00100000
00010000
00100000
01000000
00000000
10000000
00000000
,
00100000
10000000
00010000
01000000
00100000
00000000
01000000
00000000
00010000
10000000
00010000
01000000
00010000
00000000
01000000
00000000
,
00001000
01000000
00001000
01000000
00001000
00000000
00010000
00000000
00001000
00000000
00100000
00000010
00010000
00001000
00010000
00000100
,
M1M00000
00000000
00000000
00000000
00001000
00000000
00000000
00000000
01000MM0
00010000
01000000
00100000
10000000
00010000
10000000
01000000
,
0010MM00
00000000
00010000
0011MM00
00000000
00100000
00001000
00000000
,
MM010000
00001000
00000000
00000000
00010000
00000100
00001000
00000100
0MM00010
00000001
00001000
00000001
00000100
00000001
00001000
00000001
,
00M00010
00000000
00000000
00000000
000M4000
00000000
00000000
00000000
000130M0
00000100
00010000
00000100
0001000M
00001000
00010000
00001000
,
00100MM0
00000000
00000000
00000000
00000000
00000000
00000000
00000000
00000000
00000000
00000000
00000000
00010000
00000000
00000000
00000000
00000000
00000000
00000000
00000000
00000000
00000000
00000000
00000000
10000MM0
00000000
00000000
00100000
00000000
00000000
01000000
00000000
00000000
00010000
00000000
00000000
01000000
00000000
00000000
00000000
00000000
00000000
00000000
00000000
00001000
00000000
00000000
00000000
,
00M10M00
00000000
00000000
00000000
00000010
00000000
00M1M010
00000000
00010000
00000000
00000010
00001000
00000010
00000100
00000000
00000000
,
MMMM2000
00003002
00000023
00002030
,
00003200
00000000
00200300
00000000
00310000
00100000
00010000
00100000
,
00022MMM
00033000
10000000
00000000
00010000
00000000
01000000
00000000
00220MM0
00330000
01000000
00000000
00010000
00000000
10000000
00000000
,
0100M000
00010000
00001000
000M0100
00000001
00000010
00000001
00000100
,
MM000022
00000033
00000100
00000000
00000001
00000000
00001000
00000000
0MM00202
00000303
00001000
00000000
00000100
00000000
00000010
00000000
,
000M0001
00000000
00001000
00000001
00000010
00000000
00000100
00000000
0M001000
00000000
00000010
00000000
00000010
00000000
00001000
00000001
,
MM001000
00000000
0MM01100
00000000
00011M00
010010MM
00000000
00000000
,
0101M0M0
00000000
00000000
01100MM0
00000000
00000000
10100M0M
00000000
,
00010000
1100MM00
00010000
00000000
001100MM
00000000
00000000
00011000
,
00001000
00000000
00100000
00010000
00100000
00000000
00001000
00000000
00010000
00000000
00000100
00000000
00000100
00001000
00000100
00000010
,
00002000
00000000
00000000
00000000
00013000
00000000
00000100
00010000
00001000
00000000
00010000
00001000
01000000
00000000
00010000
01000000
,
00100000
00000000
10000000
00100000
10000000
00000000
01000000
10000000
00010000
00000000
01000000
00010000
00100000
00000000
00001000
00100000
,
01000000
00000000
00100000
00010000
00100000
00000000
00001000
00010000
00000010
00000000
00001000
00000010
00001000
00000000
00000100
00001000
,
00000001
00000000
00000100
00000001
00000010
00000000
00000100
00001000
00000100
00000000
00010000
00001000
01000000
00000000
00040000
00000000
,
00430000
00000000
04300000
00000000
13000000
00000000
00010000
10000000
00100000
00000000
01000000
00010000
01000000
00000000
00001000
01000000
,
00001000
00000000
00010000
00000100
00001000
00000000
00000001
00001000
00000010
00000000
00000100
00000010
00001000
00000000
00000010
00010000
,
00001000
00000000
00100000
00001000
00010000
00000000
00001000
00100000
00010000
00000000
00100000
01000000
10000000
00000000
00010000
10000000
,
00100000
00000000
01000000
00010000
01000MM0
00000000
00000000
00000000
0110MM00
00000000
00000000
00000000
01010M0M
00000000
00000000
00000000
,
MM0110MM
00000000
00000000
00000000
M0100000
00000000
00001000
00100000
00001000
00000000
00010000
00000000
MM000100
00010000
00000100
00001000
,
00000100
00000000
00001000
00000000
0MM00001
00001000
00000001
00001000
00000100
00000000
00MM0010
00000000
00000001
00000010
00000100
00001000
,
00000100
00000000
00010000
00000000
000010MM
01000000
00001000
00010000
00001000
00000000
01000000
00000000
00010MM0
01000000
00100000
01000000
,
00010000
00000000
10000000
00000000
0100MM00
10000000
01000000
10000000
01000000
00000000
0010M000
00000000
00010000
10000000
00100000
01000000
,
00010000
01000000
00000000
00000000
M1M10000
00000000
0MM11000
00000000
,
00MM1100
00000000
00000000
00000000
000MM010
00000001
00000010
00000100
0000100M
00000000
00000100
00000000
000100M0
00001000
01000000
00010000
,
01000M00
00000000
00001000
00000000
010000MM
00100000
10000000
00010000
01000M00
00000000
00001000
00000000
00M10000
00001000
00010000
00000100
,
0M010000
00001000
01MM1000
00000000
00M1M100
00000000
000M1M10
00000000
,
0000M1M1
00000000
00000000
00000000
00000001
00000010
00000001
00000010
00000100
00000010
00000100
00000010
00000100
00001000
00000100
00001000
,
00000100
00010000
00000100
00010000
00001000
00010000
00001000
00010000
00001000
01000000
00001000
01000000
00010000
01000000
00010000
01000000
,
00100000
01000000
00100000
01000000
00100000
10000000
00100000
10000000
00100000
01000000
00100000
01000000
00010000
01000000
00010000
01000000
,
00001000
01000000
00001000
01000000
00001000
00010000
00001000
00010000
00000100
00010000
00000100
00010000
00001000
00000000
00000000
00000000
,
01000000
00000000
00002000
00000000
01000000
00000000
00003000
00000000
00010000
00000000
00000000
00000000
00000100
00001000
00000100
00010000
,
00001000
00000000
00000000
00000000
01000000
00010000
01000000
00010000
01000000
00000000
00000000
00000000
00001000
00010000
00001000
00100000
,
00001000
00020000
20030000
30200000
,
00320000
00000000
02030000
00000000
03000020
00000000
00001030
00000010
,
00001000
00000000
00000010
00000000
MM002200
00003300
00000001
00000000
00001000
00000000
00000100
00000000
0MM02020
00003030
00000100
00000000
,
00001000
00000000
00000001
00000000
00MM2200
00003300
00000010
00000000
00001000
00000000
00000100
00000000
00M220M0
00033000
00000100
00000000
,
01000000
00000000
00000100
00000000
00M220M0
00033000
00000100
00000000
01000000
00000000
00M220M0
00033000
01000000
00000000
00010000
00000000
,
10000000
00000000
00010000
00000000
20200MM0
30300000
00010000
00000000
10000000
00000000
01000000
00000000
202000MM
30300000
01000000
00000000
,
10000000
00000000
00000000
00000000
0202M0M0
03030000
10000000
00000000
00010000
00000000
20200M0M
30300000
00010000
00000000
10000000
00000000
,
0022MM00
00330000
10000000
00000000
00010000
00000000
220000MM
33000000
00010000
00000000
01000000
00000000
00M220M0
00033000
01000000
00000000
,
00000100
00000000
00M220M0
00033000
00000100
00000000
00100000
00000000
0M022M00
00033000
00100000
00000000
00000010
00000000
0M022M00
00033000
,
00000010
00000000
01000000
00000000
00M220M0
00033000
01000000
00000000
00000100
00000000
00M220M0
00033000
00000100
00000000
00001000
00000000
,
0MM00202
00000303
00000010
00000000
M0000200
00000000
00000000
00000000
020MM300
00000000
00000000
00000000
0300040M
00000000
M4000000
00000000
,
0000000M
M0000000
0000000M
M0000000
0000000M
M0000000
0000000M
M0000000
,
0000000M
M0000000
0000000M
M0000000
0000000M
M0000000
0000000M
M0000000
,
0000000M
M0000000
0000000M
M0000000
0000000M
M0000000
0000000M
M0000000
,
0000000M
M0000000
0000000M
M0000000
0000000M
M0000000
0000100M
M0000000
,
0000000M
M0000000
0000100M
M0000000
0000000M
M0000000
0000000M
M0010000
,
00000001
M0000000
0000000M
10000000
0000100M
M0000000
0000000M
M0000000
,
0000000M
M0000000
0000000M
M0000000
0000000M
M0000000
0000000M
M0000000
,
0000000M
M0000000
0000000M
M0000000
0300030M
00000000
0M011M00
00000000
,
00010000
01000000
1000000M
00000000
101000M0
00000000
01010M00
00000000
,
00001000
00010000
00M00010
00000100
0M000001
00000000
000M1001
00000000
,
00000001
00000100
M0001000
00000000
0M011000
00000000
00101M00
00000000
,
10000000
00000000
00000000
00000000
00010000
00000000
00000000
00000000
0010000M
00000000
00000000
00000000
00010000
00000000
00100000
00000000
000010M0
00000000
00000000
00000000
00000000
00000000
00000000
00000000
00014M00
00000000
00000000
00000000
00000000
00000000
00000000
00003000
,
00001000
00000100
000M0001
00000000
00M00011
00000000
0M001100
00000100
,
00000000
00010000
000010M0
01000000
00010M00
00000000
1100000M
00000000
,
10000000
01000000
00010M00
00001000
00M10000
00000000
0M010010
00000000
,
00001000
00000000
00000000
00000000
00000001
00000000
00000000
00000000
M0000100
00000000
00000000
00000000
00000010
00000000
00000000
00000000
0M040000
00000000
00000000
00000000
00000100
00000000
00000000
00030000
00M11000
00000000
00000000
00000000
00000000
00000000
00000000
00000000
,
00010000
01000000
1000000M
00000000
110000M0
00000000
00110M00
00010000
,
00000000
00000000
01000000
00000000
0010M000
00000000
00000000
00010000
00M01000
00000000
00000000
00000000
0M011000
00000000
00000000
00000000
,
00001000
00000100
M0000001
00000010
0M000100
00000000
000M0011
00000000
,
00001000
00000000
00000001
00000000
00M00010
00000000
00000100
00001000
000001M0
00000000
00010000
00000000
0001100M
00000000
00001000
00000000
,
00000000
01000000
001000M0
10000000
00100M00
01000000
0001M000
01000000
,
00000000
00001000
00M10000
00000100
0M010000
00000000
M0011000
00000000
,
00001000
00000000
00010000
00000000
00M00100
00000000
00001000
00000000
0M000001
00000000
00000000
00000000
000M0010
00000001
00000010
00000100
,
00001000
00000100
00010000
00000100
0001000M
00001000
010000M0
00001000
01000M00
00010000
0100M000
00100000
200M000M
00000000
00000000
00000000
,
00000000
00000000
30000000
00000000
00000000
00000000
00000000
00020000
,
00030000
00000000
00000000
00000000
00MM1000
00000000
00000000
00000000
00000M11
00000000
00000000
00000000
MM001000
00000001
00000010
00000100
,
00001000
00000000
00000100
00000000
0MM10000
00001000
00010000
00001000
01000000
00000000
00010000
00000000
10000MM0
00010000
01000000
00001000
,
00010000
00000000
000100MM
00000000
00001000
01000000
00001000
01000000
00001000
00000000
01000000
00000000
000100MM
10000000
00100000
01000000
,
00010000
00000000
01000000
00000000
00001MM0
00010000
00001000
01000000
00001000
00000000
00010000
00000000
0MM00100
00010000
00000100
00001000
,
00000001
00000000
MM000001
00000000
00001000
00000010
00001000
00000010
00010000
00000000
00001000
00000000
00000000
00000000
00000000
00000000
,
0M11M000
1M1M0000
M1M10000
0MM11000
,
00MM1100
00000000
00000100
00000000
0000MM11
00000000
00000000
00000000
00001100
00000000
00000000
00000000
000M0001
00001000
00000010
00001000
,
00000001
00000000
00000100
00000000
00000001
00001000
00000100
00010000
00001000
00000000
00010000
00000000
0MM02020
00003030
00010000
00000000
,
0MM02020
00003030
00010000
00000000
00000100
00000000
00001000
00000000
00020MMM
00000000
00030000
00000000
00100000
00010000
00100000
00010000
,
10000000
00010000
10000000
00010000
01000000
00010000
01000000
00010000
01000000
00001000
01000000
00001000
00010000
00001000
00010000
00001000
,
00010000
00000100
00010000
00000100
00001000
00000100
00001000
00000100
00001000
00000001
00001000
00000001
00000100
00000001
00000100
00000001
,
00001000
00000001
00001000
00000001
00001000
00000100
00001000
00000100
00010000
00000100
00010000
00000100
00010000
00001000
00010000
00001000
,
01000000
00001000
01000000
00001000
00020000
00000000
00000000
00000000
00030000
00000000
00000000
00000000
00001000
00010000
00000100
00010000
,
00001000
01000000
00001000
00010000
00000100
00010000
00001000
01000000
00001000
00010000
00000100
00010000
00001000
01000000
00010000
01000000
,
00001000
00010000
00000100
00001000
00000100
00010000
00001000
01000000
00010000
01000000
00001000
00010000
00000010
00010000
00001000
00100000
,
00001000
00010000
00000010
00010000
00001000
00100000
00001000
00010000
00000010
00010000
00001000
00100000
00010000
00100000
00001000
00010000
,
00000010
00001000
00000010
00010000
00001000
00100000
00010000
00100000
00001000
00000000
00020000
00000000
00030000
00000000
00000000
00001000
,
00010000
00000100
00001000
00000001
00000010
00000001
00001000
00000100
00010000
00001000
01000000
00010000
10000000
00100000
10000000
00010000
,
01000000
00001000
00010000
00000100
00001000
00000001
00000010
00000001
00001000
00000100
00010000
00001000
M1000000
00100000
01000000
00010000
,
M1000000
00001000
00010000
00000100
0000100M
00000100
00000010
00000100
0000100M
00000100
00010000
00001000
010000M0
00010000
10000000
01000000
,
00100M00
00010000
01000000
00001000
00M10000
00000010
00001000
00000100
0M000010
00000001
00001000
00000010
MM000100
00000000
00000000
00000000
,
00000000
00000000
00000000
00000000
00000001
00001000
00000100
00010000
00001000
01000000
00010000
10000000
02000000
00000000
00000000
00000000
,
00000000
00000000
00000000
03000000
02200000
00000000
00000000
00000000
,
00000000
00000000
03300000
00000000
;
