#TITLE:Vault;
#SUBTITLE:;
#ARTIST:Pendulum;
#TITLETRANSLIT:;
#SUBTITLETRANSLIT:;
#ARTISTTRANSLIT:;
#CREDIT:;
#BANNER:vaultbn.png;
#BACKGROUND:vaultbg.png;
#LYRICSPATH:;
#CDTITLE:;
#MUSIC:vault.ogg;
#OFFSET:1.156;
#SAMPLESTART:66.435;
#SAMPLELENGTH:22.070;
#SELECTABLE:YES;
#BPMS:0.000=174.000;
#STOPS:;
#BGCHANGES:;
// cache tags:
#FIRSTBEAT:4.000;
#LASTBEAT:984.000;
#SONGFILENAME:Songs/Pendulum/Vault/vault.sm;
#HASMUSIC:1;
#HASBANNER:1;
#MUSICLENGTH:340.845;
// end cache tags

//---------------dance-single - I. Pyles----------------
#NOTES:
     dance-single:
     I. Pyles:
     Beginner:
     1:
     0.026,0.035,0.000,0.000,0.000,61.000,0.000,0.000,0.000,0.000:
0000
0000
0000
0000
,
0100
0000
0000
0000
,
0000
0000
0000
0000
,
0000
0000
0000
0000
,
0000
0000
0000
0000
,
0100
0000
0000
0000
,
0000
0000
0000
0000
,
0000
0000
0000
0000
,
0000
0000
0000
0000
,
0010
0000
0000
0000
,
0000
0000
0000
0000
,
0000
0000
0000
0000
,
0000
0000
0000
0000
,
0010
0000
0000
0000
,
0000
0000
0000
0000
,
0000
0000
0000
0000
,
0000
0000
0000
0000
,
1000
0000
0000
0000
,
0000
0000
0000
0000
,
0000
0000
0000
0000
,
0000
0000
0000
0000
,
1000
0000
0000
0000
,
0000
0000
0000
0000
,
0000
0000
0000
0000
,
0000
0000
0000
0000
,
1000
0000
0000
0000
,
0000
0000
0000
0000
,
0000
0000
0000
0000
,
0000
0000
0000
0000
,
0010
0000
0000
0000
,
0000
0000
0000
0000
,
0000
0000
0000
0000
,
0000
0000
0000
0000
,
1000
0000
0000
0000
,
0000
0000
0000
0000
,
0000
0000
0000
0000
,
0000
0000
0000
0000
,
0100
0000
0000
0000
,
0000
0000
0000
0000
,
0000
0000
0000
0000
,
0000
0000
0000
0000
,
1000
0000
0000
0000
,
0000
0000
0000
0000
,
0000
0000
0000
0000
,
0000
0000
0000
0000
,
0010
0000
0000
0000
,
0000
0000
0000
0000
,
0000
0000
0000
0000
,
0000
0000
0000
0000
,
0010
0000
0000
0000
,
0000
0000
0000
0000
,
0000
0000
0000
0000
,
0000
0000
0000
0000
,
0100
0000
0000
0000
,
0000
0000
0000
0000
,
0000
0000
0000
0000
,
0000
0000
0000
0000
,
0100
0000
0000
0000
,
0000
0000
0000
0000
,
0000
0000
0000
0000
,
0000
0000
0000
0000
,
0100
0000
0000
0000
,
0000
0000
0000
0000
,
0000
0000
0000
0000
,
0000
0000
0000
0000
,
0100
0000
0000
0000
,
0000
0000
0000
0000
,
0000
0000
0000
0000
,
0000
0000
0000
0000
,
0010
0000
0000
0000
,
0000
0000
0000
0000
,
0000
0000
0000
0000
,
0000
0000
0000
0000
,
0010
0000
0000
0000
,
0000
0000
0000
0000
,
0000
0000
0000
0000
,
0000
0000
0000
0000
,
0010
0000
0000
0000
,
0000
0000
0000
0000
,
0000
0000
0000
0000
,
0000
0000
0000
0000
,
0010
0000
0000
0000
,
0000
0000
0000
0000
,
0000
0000
0000
0000
,
0000
0000
0000
0000
,
0010
0000
0000
0000
,
0000
0000
0000
0000
,
0000
0000
0000
0000
,
0000
0000
0000
0000
,
0010
0000
0000
0000
,
0000
0000
0000
0000
,
0000
0000
0000
0000
,
0000
0000
0000
0000
,
1000
0000
0000
0000
,
0000
0000
0000
0000
,
0000
0000
0000
0000
,
0000
0000
0000
0000
,
0010
0000
0000
0000
,
0000
0000
0000
0000
,
0000
0000
0000
0000
,
0000
0000
0000
0000
,
0100
0000
0000
0000
,
0000
0000
0000
0000
,
0000
0000
0000
0000
,
0000
0000
0000
0000
,
0100
0000
0000
0000
,
0000
0000
0000
0000
,
0000
0000
0000
0000
,
0000
0000
0000
0000
,
1000
0000
0000
0000
,
0000
0000
0000
0000
,
0000
0000
0000
0000
,
0000
0000
0000
0000
,
0001
0000
0000
0000
,
0000
0000
0000
0000
,
0000
0000
0000
0000
,
0000
0000
0000
0000
,
1000
0000
0000
0000
,
0000
0000
0000
0000
,
0000
0000
0000
0000
,
0000
0000
0000
0000
,
0100
0000
0000
0000
,
0000
0000
0000
0000
,
0000
0000
0000
0000
,
0000
0000
0000
0000
,
0100
0000
0000
0000
,
0000
0000
0000
0000
,
0000
0000
0000
0000
,
0000
0000
0000
0000
,
0001
0000
0000
0000
,
0000
0000
0000
0000
,
0000
0000
0000
0000
,
0000
0000
0000
0000
,
0001
0000
0000
0000
,
0000
0000
0000
0000
,
0000
0000
0000
0000
,
0000
0000
0000
0000
,
0010
0000
0000
0000
,
0000
0000
0000
0000
,
0000
0000
0000
0000
,
0000
0000
0000
0000
,
0010
0000
0000
0000
,
0000
0000
0000
0000
,
0000
0000
0000
0000
,
0000
0000
0000
0000
,
0100
0000
0000
0000
,
0000
0000
0000
0000
,
0000
0000
0000
0000
,
0000
0000
0000
0000
,
0100
0000
0000
0000
,
0000
0000
0000
0000
,
0000
0000
0000
0000
,
0000
0000
0000
0000
,
0001
0000
0000
0000
,
0000
0000
0000
0000
,
0000
0000
0000
0000
,
0000
0000
0000
0000
,
1000
0000
0000
0000
,
0000
0000
0000
0000
,
0000
0000
0000
0000
,
0000
0000
0000
0000
,
0100
0000
0000
0000
,
0000
0000
0000
0000
,
0000
0000
0000
0000
,
0000
0000
0000
0000
,
0010
0000
0000
0000
,
0000
0000
0000
0000
,
0000
0000
0000
0000
,
0000
0000
0000
0000
,
1000
0000
0000
0000
,
0000
0000
0000
0000
,
0000
0000
0000
0000
,
0000
0000
0000
0000
,
1000
0000
0000
0000
,
0000
0000
0000
0000
,
0000
0000
0000
0000
,
0000
0000
0000
0000
,
1000
0000
0000
0000
,
0000
0000
0000
0000
,
0000
0000
0000
0000
,
0000
0000
0000
0000
,
0010
0000
0000
0000
,
0000
0000
0000
0000
,
0000
0000
0000
0000
,
0000
0000
0000
0000
,
0100
0000
0000
0000
,
0000
0000
0000
0000
,
0000
0000
0000
0000
,
0000
0000
0000
0000
,
1000
0000
0000
0000
,
0000
0000
0000
0000
,
0000
0000
0000
0000
,
0000
0000
0000
0000
,
0010
0000
0000
0000
,
0000
0000
0000
0000
,
0000
0000
0000
0000
,
0000
0000
0000
0000
,
0100
0000
0000
0000
,
0000
0000
0000
0000
,
0000
0000
0000
0000
,
0000
0000
0000
0000
,
0010
0000
0000
0000
,
0000
0000
0000
0000
,
0000
0000
0000
0000
,
0000
0000
0000
0000
,
0100
0000
0000
0000
,
0000
0000
0000
0000
,
0000
0000
0000
0000
,
0000
0000
0000
0000
,
0100
0000
0000
0000
,
0000
0000
0000
0000
,
0000
0000
0000
0000
,
0000
0000
0000
0000
,
0100
0000
0000
0000
,
0000
0000
0000
0000
,
0000
0000
0000
0000
,
0000
0000
0000
0000
,
1000
0000
0000
0000
,
0000
0000
0000
0000
,
0000
0000
0000
0000
,
0000
0000
0000
0000
,
1000
0000
0000
0000
,
0000
0000
0000
0000
,
0000
0000
0000
0000
,
0000
0000
0000
0000
,
0100
0000
0000
0000
,
0000
0000
0000
0000
,
0000
0000
0000
0000
,
0000
0000
0000
0000
,
1000
0000
0000
0000
,
0000
0000
0000
0000
,
0000
0000
0000
0000
,
0000
0000
0000
0000
,
1000
0000
0000
0000
,
0000
0000
0000
0000
,
0000
0000
0000
0000
,
0000
0000
0000
0000
,
0010
0000
0000
0000
,
0000
0000
0000
0000
,
1000
0000
0000
0000
;

//---------------dance-single - I. Pyles----------------
#NOTES:
     dance-single:
     I. Pyles:
     Easy:
     9:
     0.590,0.866,0.056,0.543,0.285,1201.000,19.000,185.000,102.000,1.000:
0000
0000
0000
0000
,
1000
0001
0100
0001
1000
0001
0010
0001
,
1000
0001
0100
0001
1000
0001
0010
0001
,
1000
0001
0100
0001
1000
0001
0010
0001
,
1000
0001
0100
0001
1000
0100
M010
0001
,
M100
001M
M100
001M
M100
001M
M100
001M
,
M100
001M
M100
001M
M100
001M
M100
001M
,
M100
001M
M100
001M
M100
001M
M100
001M
,
M100
001M
M100
001M
M100
0001
M010
0100
,
1000
0100
1000
0001
1000
0010
1000
0001
,
1000
0100
1000
0001
1000
0010
1000
0001
,
1000
0100
1000
0001
1000
0010
1000
0001
,
1000
0100
1000
0001
1000
0010
M100
0001
,
M010
010M
M010
010M
M010
010M
M010
010M
,
M010
010M
M010
010M
M010
010M
M010
010M
,
M010
010M
M010
010M
M010
010M
M010
010M
,
M010
010M
M010
010M
M010
0001
M100
0020
,
0000
0000
0000
0000
,
0000
0000
0000
2030
3002
0023
0032
2003
,
0000
0000
0000
0000
,
0000
0000
0000
0000
0000
0000
0000
0000
0000
0000
0000
0000
0000
0000
0000
0000
3020
0000
0000
0000
0000
0000
0000
0000
0230
0000
0000
0000
0000
0000
0000
0000
0320
0000
0000
0000
0000
0000
0000
0000
2030
0000
0000
0000
0000
0000
0000
0000
0000
0000
0000
0000
0000
0000
0000
3000
1000
0000
0000
0000
0000
0000
0000
0000
,
0200
0000
0000
0000
,
0000
0000
0320
0032
0023
0230
2300
3002
,
0000
0000
0000
0000
,
0000
0000
0203
0320
2030
3002
0023
0230
,
0000
0000
0000
0000
,
0000
0000
0000
2300
3002
0203
0302
2003
,
0000
0000
0000
0000
,
0000
0000
0000
0000
0000
0000
0000
0000
0000
0000
0000
0000
0000
0000
0000
0000
3200
0000
0000
0000
0000
0000
0000
0000
0320
0000
0000
0000
0000
0000
0000
0000
0230
0000
0000
0000
0000
0000
0000
0000
2300
0000
0000
0000
0000
0000
0000
0000
0000
0000
0000
0000
0000
0000
0000
3000
1000
0000
0000
0000
0000
0000
0000
0000
,
0020
0000
0000
0000
,
0000
0000
0230
0302
0203
0320
2030
3200
,
0311
0000
0000
0001
1000
0001
1000
0000
0000
0001
0010
0001
0010
0000
0000
0001
,
1000
0001
1000
0000
0000
0001
0100
0001
0100
0000
0001
1000
0001
1000
0001
0000
,
1000
0000
0000
1000
0000
0000
0001
0000
0000
0010
0000
0000
0100
0000
0000
0010
,
0100
0000
0000
0000
0010
0000
0000
0010
0000
0000
0001
0000
0100
0000
0000
0000
,
0001
0000
0000
0001
0000
0000
1000
0000
0000
0100
0000
0000
0010
0000
0000
0100
,
0010
0010
0001
0000
0000
1000
0002
0000
,
2003
0000
0000
0000
,
0000
0000
3002
0203
0320
0230
0302
0023
,
0000
0000
0000
0000
,
0000
0000
0230
2300
3002
2003
3200
2300
,
3001
0000
0000
0001
0000
0000
1000
0000
0000
0100
0000
0000
0010
0000
0000
0100
,
0010
0000
0000
0000
0100
0000
0000
0100
0000
0000
1000
0000
0010
0000
0000
0000
,
1000
0000
0000
1000
0000
0000
0001
0000
0000
0010
0000
0000
0100
0000
0000
0010
,
0100
0100
1000
0000
0000
2000
0000
0000
,
3020
0000
0000
0000
,
0000
0000
0230
0302
0203
0320
2030
3200
,
0000
0000
0000
0000
,
0000
0000
0320
0032
0023
0230
2300
3002
,
1003
0000
0000
1000
0000
0000
0001
0000
0000
0010
0000
0000
0100
0000
0000
0010
,
0100
0000
0000
0000
0010
0000
0000
0010
0000
0000
0001
0000
0100
0000
0000
0000
,
0001
0000
0000
0001
0000
0000
1000
0000
0000
0100
0000
0000
0010
0000
0000
0100
,
0010
0010
0001
0000
0000
0002
0000
0000
,
0203
0000
0000
0000
,
0000
0000
0320
2030
3002
2003
3020
0230
,
0000
0000
0000
0000
,
0000
0000
0302
0023
0230
0320
0032
2003
,
3001
0000
0000
0001
0000
0000
1000
0000
0000
0100
0000
0000
0010
0000
0000
0100
,
0010
0000
0000
0000
0100
0000
0000
0100
0000
0000
1000
0000
0010
0000
0000
0000
,
1000
0000
0000
1000
0000
0000
0001
0000
0000
0010
0000
0000
0100
0000
0000
0010
,
0100
0100
1000
0000
0000
2000
0000
0000
,
3020
0000
0000
0000
,
0000
0000
0230
0302
0023
0230
2300
3002
,
0000
0000
0000
0000
,
0000
0000
2003
3200
0320
0032
0203
0320
,
1030
0000
0000
1000
0000
0000
0001
0000
0000
0010
0000
0000
0100
0000
0000
0010
,
0100
0000
0000
0000
0010
0000
0000
0010
0000
0000
0001
0000
0100
0000
0000
0000
,
0001
0000
0000
0001
0000
0000
1000
0000
0000
0010
0000
0000
0100
0000
0000
0010
,
0100
0000
0000
0000
,
1000
0000
0000
1000
0000
0000
0001
0000
0000
0100
0000
0000
0010
0000
0000
0100
,
0010
0000
0000
0000
0100
0000
0000
0100
0000
0000
0001
0000
0010
0000
0000
0000
,
0001
0000
0000
0001
0000
0000
1000
0000
0000
0100
0000
0000
0010
0000
0000
0100
,
0010
0000
0000
0000
,
0001
1000
0001
1000
,
0001
1000
0001
1000
,
0001
1000
0001
1000
0001
1000
0001
1000
,
0001
1000
0001
1000
0001
1000
0001
1000
,
0004
4000
0000
0000
0000
0000
0000
0000
0000
0000
0000
0000
0000
0000
0000
0000
,
0000
0000
0000
0000
0000
0000
0000
3003
,
0011
0000
0000
0001
1000
0001
1000
0000
0000
0001
0010
0001
0010
0000
0000
0001
,
1000
0001
1000
0000
0000
0001
0100
0001
0100
0000
0001
1000
0001
1000
0001
0000
,
2000
0000
3002
0000
,
0023
0000
0230
0000
,
2300
0000
0000
3002
,
0203
0000
0320
0000
,
2030
0000
3002
0000
,
0203
0000
0320
0000
,
1030
0001
1000
0001
1000
0000
0000
0000
0000
0000
1000
0000
0001
0000
0000
0000
,
0010
0000
0100
1000
0100
0000
0010
0001
0000
0001
1000
0000
0010
0000
0000
0000
,
0100
0000
0001
1000
0000
1000
0001
0000
0001
1000
0000
1000
,
0001
0000
0001
1000
0000
1000
0001
0000
0001
1000
0000
0001
,
0100
0000
0010
0000
0000
0100
0010
0000
,
1000
0000
1000
0000
0001
0000
0000
0000
0000
1000
0001
0000
1000
0000
0000
0000
,
0001
0010
0100
0000
0100
0010
0001
0001
,
1000
0010
0100
0000
0100
0001
1000
0000
,
0010
0000
0100
0000
0000
0010
0100
0000
,
0001
0000
0001
0000
1000
0000
0000
0000
0000
0001
1000
0000
0001
0000
0000
0000
,
2000
0000
3002
0000
,
0023
0000
0230
0000
,
2300
0000
0000
3002
,
0203
0000
0320
0000
,
2030
0000
3002
0000
,
0203
0000
0320
0000
,
1030
0001
1000
0001
1000
0000
0000
0000
0000
0000
1000
0000
0001
0000
0000
0000
,
0010
0000
0100
1000
0100
0000
0010
0001
0000
0001
1000
0000
0010
0000
0000
0000
,
1000
0100
0010
0000
0010
0100
1000
1000
,
0001
0100
0010
0000
0010
1000
0001
0000
,
0100
0000
0010
0000
0000
0100
0010
0000
,
1000
0000
1000
0000
0001
0000
0000
0000
0000
1000
0001
0000
1000
0000
0000
0000
,
1000
0100
0010
0000
0010
0100
1000
1000
,
0001
0100
0010
0000
0010
1000
0001
0000
,
1000
0000
0001
0010
0100
0000
0000
0000
1000
0000
0001
0100
0010
0000
0000
0000
,
1000
0000
0001
0010
0100
0000
0000
0000
1000
0000
0001
0100
0010
0000
0000
0000
,
2000
0000
3002
0000
,
0023
0000
0230
0000
,
2300
0000
0000
3002
,
0203
0000
0320
0000
,
2030
0000
3002
0000
,
0203
0000
0320
0000
,
1030
0001
1000
0001
1000
0000
0000
0000
0000
0000
1000
0000
0001
0000
0000
0000
,
0010
0000
0100
1000
0100
0000
0010
0001
0000
0001
1000
0000
0100
0000
0000
0000
,
0010
0000
0001
1000
0000
1000
0001
0000
0001
1000
0000
1000
,
0001
0000
0000
0000
0001
0000
1000
0000
0000
0000
1000
0000
0020
0000
0000
0030
0000
0000
0020
0000
0000
0030
0000
0000
,
0100
0000
0010
0000
0000
0100
0010
0000
,
1000
0000
1000
0000
0001
0000
0000
0000
0000
1000
0001
0000
1000
0000
0000
0000
,
0001
0010
0100
0000
0100
0010
0001
0001
,
1000
0010
0100
0000
0100
0001
1000
0000
,
1000
0000
0001
1000
0000
0001
0010
0000
0001
1000
0000
1000
,
0010
0000
0000
0000
1000
0000
0001
0000
0000
0000
1000
0000
0200
0000
0000
0300
0000
0000
0200
0000
0000
0300
0000
0000
,
2000
0000
3002
0000
,
0023
0000
0230
0000
,
2300
0000
0000
3002
,
0203
0000
0320
0000
,
2030
0000
3002
0000
,
0203
0000
0320
0000
,
1030
0001
1000
0001
1000
0000
0000
0000
0000
0000
1000
0000
0001
0000
0000
0000
,
0010
0000
0100
1000
0100
0000
0010
0001
0000
0001
1000
0000
0100
0000
0000
0000
,
1000
0100
0010
0000
0010
0100
1000
1000
,
0001
0100
0010
0000
0010
1000
0001
0000
,
0100
0000
0010
0000
0000
0100
0010
0000
,
1000
0000
1000
0000
0001
0000
0000
0000
0000
1000
0001
0000
1000
0000
0000
0000
,
1000
0100
0010
0000
0010
0100
1000
1000
,
0001
0100
0010
0000
0010
1000
0001
0000
,
1000
0000
0001
0010
0100
0000
0000
0000
1000
0000
0001
0100
0010
0000
0000
0000
,
1000
0000
0001
0010
0100
0000
0000
0000
1000
0000
0001
0100
0010
0000
0000
0000
,
1000
0000
0000
1000
0000
0000
0001
0000
0000
0010
0000
0000
0100
0000
0000
0010
,
0100
0000
0000
0000
0010
0000
0000
0010
0000
0000
0001
0000
0100
0000
0000
0000
,
0001
0000
0000
0001
0000
0000
1000
0000
0000
0010
0000
0000
0100
0000
0000
0010
,
0100
0100
0001
0000
0000
0001
1000
0000
,
1000
1000
0001
0000
0000
1000
1001
0000
,
0001
0001
1000
0000
0000
0001
1001
0000
,
1000
1000
0001
0000
0000
1000
1001
0000
,
1000
1000
0010
0000
0000
0100
0001
0000
,
1000
0000
0000
1000
0000
0000
0001
0000
0000
0010
0000
0000
0100
0000
0000
0010
,
0100
0000
0000
0000
0010
0000
0000
0010
0000
0000
0001
0000
0100
0000
0000
0000
,
0001
0000
0000
0001
0000
0000
1000
0000
0000
0010
0000
0000
0100
0000
0000
0010
,
0100
0100
0001
0000
0000
0001
1000
0000
,
1000
1000
0001
0000
0000
1000
1001
0000
,
0001
0001
1000
0000
0000
0001
1001
0000
,
1000
1000
0001
0000
0000
1000
1001
0000
,
1000
0000
1000
0000
0010
0000
0100
0001
0000
0001
1000
0000
1001
0000
0000
0000
,
1000
0000
0000
1000
0000
0000
0001
0000
0000
0010
0000
0000
0100
0000
0000
0010
,
0100
0000
0000
0000
0010
0000
0000
0010
0000
0000
0001
0000
0100
0000
0000
0000
,
0001
0000
0000
0001
0000
0000
1000
0000
0000
0010
0000
0000
0100
0000
0000
0010
,
0100
0100
0001
0000
0000
0001
1000
0000
,
1000
1000
0001
0000
0000
1000
1001
0000
,
0001
0001
1000
0000
0000
0001
1001
0000
,
1000
1000
0001
0000
0000
1000
1001
0000
,
1000
1000
0010
0000
0000
0100
0001
0000
,
1000
0000
0000
1000
0000
0000
0001
0000
0000
0010
0000
0000
0100
0000
0000
0010
,
0100
0000
0000
0000
0010
0000
0000
0010
0000
0000
0001
0000
0100
0000
0000
0000
,
0001
0000
0000
0001
0000
0000
1000
0000
0000
0010
0000
0000
0100
0000
0000
0010
,
0100
0100
0001
0000
0000
0001
1000
0000
,
1000
1000
0001
0000
0000
1000
1001
0000
,
0001
0001
1000
0000
0000
0001
1001
0000
,
1000
1000
0001
0000
0000
1000
1001
0000
,
1000
0000
1000
0000
0010
0000
0100
0001
0000
0001
1000
0000
1001
0000
0000
0000
,
1000
0000
0000
1000
0000
0000
0001
0000
0000
0010
0000
0000
0100
0000
0000
0010
,
0100
0000
0000
0000
0010
0000
0000
0010
0000
0000
0001
0000
0100
0000
0000
0000
,
0001
0000
0000
0001
0000
0000
1000
0000
0000
0010
0000
0000
0100
0000
0000
0010
,
0100
0000
0000
0000
,
1000
0000
0000
1000
0000
0000
0001
0000
0000
0100
0000
0000
0010
0000
0000
0100
,
0010
0000
0000
0000
0100
0000
0000
0100
0000
0000
0001
0000
0010
0000
0000
0000
,
0001
0000
0000
0001
0000
0000
1000
0000
0000
0100
0000
0000
0010
0000
0000
0100
,
0010
0000
0000
0000
,
0001
1000
0001
1000
,
0001
1000
0001
1000
,
0001
1000
0001
1000
0001
1000
0001
1000
,
0001
1000
0001
1000
0001
1000
0001
1000
,
0004
4000
0000
0000
0000
0000
0000
0000
0000
0000
0000
0000
0000
0000
0000
0000
,
0000
0000
0000
0000
0000
0000
0000
3003
,
0011
0000
0000
0001
1000
0001
1000
0000
0000
0001
0010
0001
0010
0000
0000
0001
,
1000
0001
1000
0000
0000
0001
0100
0001
0100
0000
0001
1000
0001
1000
0001
0000
,
2000
0000
3002
0000
,
0023
0000
0230
0000
,
2300
0000
0000
3002
,
0203
0000
0320
0000
,
2030
0000
3002
0000
,
0203
0000
0320
0000
,
1030
0001
1000
0001
1000
0000
0000
0000
0000
0000
1000
0000
0001
0000
0000
0000
,
0010
0000
0100
1000
0100
0000
0010
0001
0000
0001
1000
0000
0010
0000
0000
0000
,
1000
0100
0010
0000
0010
0100
1000
1000
,
0001
0100
0010
0000
0010
1000
0001
0000
,
0100
0000
0010
0000
0000
0100
0010
0000
,
1000
0000
1000
0000
0001
0000
0000
0000
0000
1000
0001
0000
1000
0000
0000
0000
,
1000
0100
0010
0000
0010
0100
1000
1000
,
0001
0100
0010
0000
0010
1000
0001
0000
,
0100
0000
0010
0000
0000
0100
0010
0000
,
1000
0000
1000
0000
0001
0000
0000
0000
0000
1000
0001
0000
1000
0000
0000
0000
,
0002
0000
2003
0000
,
3200
0000
0320
0000
,
0032
0000
0000
2003
,
3020
0000
0230
0000
,
0302
0000
2003
0000
,
3020
0000
0230
0000
,
0301
1000
0001
1000
0001
0000
0000
0000
0000
0000
0001
0000
1000
0000
0000
0000
,
0100
0000
0010
0001
0010
0000
0100
1000
0000
1000
0001
0000
0100
0000
0000
0000
,
0001
0010
0100
0000
0100
0010
0001
0001
,
1000
0010
0100
0000
0100
0001
1000
0000
,
0010
0000
0100
0000
0000
0010
0100
0000
,
0001
0000
0001
0000
1000
0000
0000
0000
0000
0001
1000
0000
0001
0000
0000
0000
,
0001
0010
0100
0000
0100
0010
0001
0001
,
1000
0010
0100
0000
0100
0001
1000
0000
,
0001
0000
1000
0010
0100
0000
0000
0000
0001
0000
1000
0100
0010
0000
0000
0000
,
0001
0000
1000
0010
0100
0000
0000
0000
0001
0000
1000
0100
0010
0000
0000
0000
,
0002
0000
2003
0000
,
3200
0000
0320
0000
,
0032
0000
0000
2003
,
3020
0000
0230
0000
,
0302
0000
2003
0000
,
3020
0000
0230
0000
,
0301
1000
0001
1000
0001
0000
0000
0000
0000
0000
0001
0000
1000
0000
0000
0000
,
0100
0000
0010
0001
0010
0000
0100
1000
0000
1000
0001
0000
0100
0000
0000
0000
,
0001
0010
0100
0000
0100
0010
0001
0001
,
1000
0010
0100
0000
0100
0001
1000
0000
,
0010
0000
0100
0000
0000
0010
0100
0000
,
0001
0000
0001
0000
1000
0000
0000
0000
0000
0001
1000
0000
0001
0000
0000
0000
,
0001
0010
0100
0000
0100
0010
0001
0001
,
1000
0010
0100
0000
0100
0001
1000
0000
,
0200
0000
0000
0000
,
0020
0000
0000
0000
,
0330
M000
0M00
00M0
000M
M000
0M00
00M0
,
000M
M000
0M00
00M0
000M
M000
0M00
00M0
,
000M
M000
0M00
00M0
000M
M000
0M00
00M0
,
000M
M000
0M00
00M0
000M
M000
0M00
00M0
,
000M
M000
0M00
00M0
000M
M000
0M00
00M0
,
000M
0000
0000
0000
;

//---------------dance-single - I. Pyles----------------
#NOTES:
     dance-single:
     I. Pyles:
     Medium:
     11:
     0.842,1.000,0.109,0.320,0.635,1856.000,37.000,109.000,109.000,5.000:
0000
0000
0000
0000
,
1000
0001
0100
0001
1000
0001
0010
0001
,
1000
0001
0100
0001
1000
0001
0010
0001
,
1000
0001
0100
0001
1000
0001
0010
0001
,
1000
0001
0100
0001
1000
0100
M010
0001
,
M100
001M
M100
001M
M100
001M
M100
001M
,
M100
001M
M100
001M
M100
001M
M100
001M
,
M100
001M
M100
001M
M100
001M
M100
001M
,
M100
001M
M100
001M
M100
0001
M010
0100
,
1000
0100
1000
0001
1000
0010
1000
0001
,
1000
0100
1000
0001
1000
0010
1000
0001
,
1000
0100
1000
0001
1000
0010
1000
0001
,
1000
0100
1000
0001
1000
0010
M100
0001
,
M010
010M
M010
010M
M010
010M
M010
010M
,
M010
010M
M010
010M
M010
010M
M010
010M
,
M010
010M
M010
010M
M010
010M
M010
010M
,
M010
010M
M010
010M
M010
0001
M100
0020
,
0000
0000
0000
0000
,
0000
0000
0000
2030
3002
0023
0032
2003
,
0000
0000
0000
0000
,
0000
0000
0000
0000
0000
0000
0000
0000
0000
0000
0000
0000
0000
0000
0000
0000
3020
0000
0000
0000
0000
0000
0000
0000
0230
0000
0000
0000
0000
0000
0000
0000
0320
0000
0000
0000
0000
0000
0000
0000
2030
0000
0000
0000
0000
0000
0000
0000
0000
0000
0000
0000
0000
0000
0000
3000
1000
0000
0000
0000
0000
0000
0000
0000
,
0200
0000
0000
0000
,
0000
0000
0320
0032
0023
0230
2300
3002
,
0000
0000
0000
0000
,
0000
0000
0203
0320
2030
3002
0023
0230
,
0000
0000
0000
0000
,
0000
0000
0000
2300
3002
0203
0302
2003
,
0000
0000
0000
0000
,
0000
0000
0000
0000
0000
0000
0000
0000
0000
0000
0000
0000
0000
0000
0000
0000
3200
0000
0000
0000
0000
0000
0000
0000
0320
0000
0000
0000
0000
0000
0000
0000
0230
0000
0000
0000
0000
0000
0000
0000
2300
0000
0000
0000
0000
0000
0000
0000
0000
0000
0000
0000
0000
0000
0000
3000
1000
0000
0000
0000
0000
0000
0000
0000
,
0020
0000
0000
0000
,
0000
0000
0230
0302
0203
0320
2030
3200
,
0311
0000
0000
0001
0010
0001
0100
0000
0000
0001
0010
0001
1000
0000
0000
0001
,
0100
0001
0010
0000
0000
0001
0100
0001
1000
0000
0010
1000
0100
0010
0001
1000
,
0100
0000
0100
0000
0010
0000
0001
1000
0001
1000
0100
0000
0010
0000
0100
1000
,
0001
0000
0001
0000
0100
0000
0010
1000
0010
1000
0001
0000
1001
0000
0000
0000
,
1000
0000
1000
0000
0100
0000
0010
0001
0010
0001
1000
0000
0100
0000
1000
0001
,
0010
0000
0010
0000
0001
0000
1000
0010
0100
0001
1000
0000
0020
0000
0000
0000
,
2030
0000
0000
0000
,
0000
0000
3002
0203
0320
0230
0302
0023
,
0000
0000
0000
0000
,
0000
0000
0230
2300
3002
2003
3200
2300
,
3001
0000
0001
0000
1000
0000
0010
0100
0010
0100
0001
0000
1000
0000
0001
0100
,
0010
0000
0010
0000
0100
0000
0010
1000
0010
1000
0001
0000
1001
0000
0000
0000
,
1000
0000
1000
0000
0001
0000
0010
0100
0010
0100
1000
0000
0001
0000
1000
0100
,
0010
0000
0010
0000
0100
0000
1000
0010
0100
0001
2000
0000
0000
0000
0000
0000
,
3020
0000
0000
0000
,
0000
0000
0230
0302
0203
0320
2030
3200
,
0000
0000
0000
0000
,
0000
0000
0320
0032
0023
0230
2300
3002
,
0013
0000
0010
0000
0100
0000
1000
0001
1000
0001
0100
0000
0010
0000
0100
0001
,
1000
0000
1000
0000
0100
0000
0010
0001
0010
0001
1000
0000
1001
0000
0000
0000
,
0001
0000
0001
0000
0100
0000
0010
1000
0010
1000
0001
0000
0100
0000
0001
1000
,
0010
0000
0010
0000
0100
0000
0001
0010
0100
1000
0020
0000
0000
0000
0000
0000
,
0230
0000
0000
0000
,
0000
0000
0320
2030
3002
2003
3020
0230
,
0000
0000
0000
0000
,
0000
0000
0302
0023
0230
0320
0032
2003
,
3001
0000
0001
0000
1000
0000
0100
0010
0100
0010
0001
0000
1000
0000
0001
0010
,
0100
0000
0100
0000
0010
0000
0100
1000
0100
1000
0001
0000
1001
0000
0000
0000
,
1000
0000
1000
0000
0001
0000
0100
0010
0100
0010
1000
0000
0001
0000
1000
0010
,
0100
0000
0100
0000
0010
0000
1000
0100
0010
0001
2000
0000
0000
0000
0000
0000
,
3020
0000
0000
0000
,
0000
0000
0230
0302
0023
0230
2300
3002
,
0000
0000
0000
0000
,
0000
0000
2003
3200
0320
0032
0203
0320
,
1030
0000
0000
1000
0000
0000
0001
0000
0000
0010
0000
0000
0100
0000
0000
0010
,
0100
0000
0000
0000
0010
0000
0000
0010
0000
0000
0001
0000
0100
0000
0000
0000
,
0001
0000
0000
0001
0000
0000
1000
0000
0000
0010
0000
0000
0100
0000
0000
0010
,
0100
0000
0000
0000
,
1000
0000
0000
1000
0000
0000
0001
0000
0000
0100
0000
0000
0010
0000
0000
0100
,
0010
0000
0000
0000
0100
0000
0000
0100
0000
0000
0001
0000
0010
0000
0000
0000
,
0001
0000
0000
0001
0000
0000
1000
0000
0000
0100
0000
0000
0010
0000
0000
0100
,
0010
0000
0000
0000
,
0001
1000
0001
1000
,
0001
1000
0001
1000
,
0001
1000
0001
1000
0001
1000
0001
1000
,
0001
1000
0001
1000
0001
1000
0001
1000
,
0001
0010
0100
1000
0001
0010
0100
1000
0001
0100
0010
1000
0001
0100
0010
1000
,
0004
4000
0000
0000
0000
0000
0000
0000
0000
0000
0000
0000
0000
0000
0000
0000
0000
0000
0000
0000
0000
3003
0000
0000
,
0011
0000
0000
0001
0010
0001
0100
0000
0000
0001
0010
0001
1000
0000
0000
0001
,
0100
0001
0010
0000
0000
0001
0100
0001
1000
0000
0010
1000
0100
0010
0001
1000
,
0001
0000
1000
0010
1000
0000
0001
0000
1000
0100
1000
0100
1000
0000
0001
0000
,
1000
0100
1000
0100
1000
0000
0001
1000
0001
1000
0100
1000
0001
0000
0100
0000
,
0010
0000
1000
0001
1000
0000
0010
1000
0010
1000
0001
1000
0010
0000
0100
0000
,
0001
0000
1000
0100
1000
0000
0001
0100
0001
0100
0010
0100
0001
0000
1000
0000
,
0001
0000
1000
0100
1000
0000
0001
0000
1000
0010
1000
0010
1000
0000
0001
0000
,
1000
0010
1000
0010
1000
0000
0001
1000
0001
1000
0010
1000
0001
0000
1000
0000
,
0001
1000
0001
1000
0001
0000
0000
0000
0000
0000
0001
0000
1000
0000
0000
0000
,
0100
0000
0010
0001
0010
0000
0100
1000
0000
1000
0001
0000
0100
0000
0000
0000
,
0010
0000
0000
00M0
0001
0000
1000
0000
0000
0000
0001
0000
0010
0000
0000
00M0
1000
0000
0001
0000
0000
0000
1000
0000
,
0010
0000
0000
00M0
0001
0000
1000
0000
0000
0000
0001
0000
0010
0000
0000
00M0
1000
0000
0001
0000
0000
0000
0100
0000
,
0010
0000
0100
0000
0000
0010
0100
0000
,
0001
0000
0001
0000
1000
0000
0000
0000
0000
0001
1000
0000
0001
0000
0000
0000
,
1000
0100
0010
0000
0010
0100
1000
1000
,
0001
0100
0010
0000
0010
1000
0001
0000
,
0100
0000
0010
0000
0000
0100
0010
0000
,
1000
0000
1000
0000
0001
0000
0000
0000
0000
1000
0001
0000
1000
0000
0000
0000
,
0001
0000
1000
0010
1000
0000
0001
0000
1000
0100
1000
0100
1000
0000
0001
0000
,
1000
0100
1000
0100
1000
0000
0001
1000
0001
1000
0100
1000
0001
0000
0100
0000
,
0010
0000
1000
0001
1000
0000
0010
1000
0010
1000
0001
1000
0010
0000
0100
0000
,
0001
0000
1000
0100
1000
0000
0001
0100
0001
0100
0010
0100
0001
0000
1000
0000
,
0001
0000
1000
0100
1000
0000
0001
0000
1000
0010
1000
0010
1000
0000
0001
0000
,
1000
0010
1000
0010
1000
0000
0001
1000
0001
1000
0010
1000
0001
0000
1000
0000
,
0001
1000
0001
1000
0001
0000
0000
0000
0000
0000
0001
0000
1000
0000
0000
0000
,
0100
0000
0010
0001
0010
0000
0100
1000
0000
1000
0001
0000
0100
0000
0000
0000
,
0001
0010
0100
0000
0100
0010
0001
0001
,
1000
0010
0100
0000
0100
0001
1000
0000
,
0010
0000
0100
0000
0000
0010
0100
0000
,
0001
0000
0001
0000
1000
0000
0000
0000
0000
0001
1000
0000
0001
0000
0000
0000
,
0001
0010
0100
0000
0100
0010
0001
0001
,
1000
0010
0100
0000
0100
0001
1000
0000
,
0001
0000
1000
0100
0010
0000
0000
0000
0001
0000
1000
0010
0100
0000
0000
0000
,
0001
0000
1000
0100
0010
0000
0000
0000
0001
0000
1000
0010
0100
0000
0000
0000
,
0001
0000
1000
0010
1000
0000
0001
0000
1000
0100
1000
0100
1000
0000
0001
0000
,
1000
0100
1000
0100
1000
0000
0001
1000
0001
1000
0100
1000
0001
0000
0100
0000
,
0010
0000
1000
0001
1000
0000
0010
1000
0010
1000
0001
1000
0010
0000
0100
0000
,
0001
0000
1000
0100
1000
0000
0001
0100
0001
0100
0010
0100
0001
0000
1000
0000
,
0001
0000
1000
0100
1000
0000
0001
0000
1000
0010
1000
0010
1000
0000
0001
0000
,
1000
0010
1000
0010
1000
0000
0001
1000
0001
1000
0010
1000
0001
0000
1000
0000
,
0001
1000
0001
1000
0001
0000
0000
0000
0000
0000
0001
0000
1000
0000
0000
0000
,
0100
0000
0010
0001
0010
0000
0100
1000
0000
1000
0001
0000
0010
0000
0000
0000
,
0100
0000
0000
0M00
0001
0000
1000
0000
0000
0000
0001
0000
0100
0000
0000
0M00
1000
0000
0001
0000
0000
0000
1000
0000
,
0100
0000
0000
0M00
0001
0000
1000
0000
0000
0000
0001
0000
2022
0000
0000
3033
0000
0000
2022
0000
0000
3033
0000
0000
,
0010
0000
0100
0000
0000
0010
0100
0000
,
0001
0000
0001
0000
1000
0000
0000
0000
0000
0001
1000
0000
0001
0000
0000
0000
,
1000
0100
0010
0000
0010
0100
1000
1000
,
0001
0100
0010
0000
0010
1000
0001
0000
,
0001
0000
1000
0001
0000
1000
0100
0000
1000
0001
0000
0001
,
0100
0000
0000
0000
0001
0000
1000
0000
0000
0000
0001
0000
2022
0000
0000
3033
0000
0000
2022
0000
0000
3033
0000
0000
,
0001
0000
1000
0010
1000
0000
0001
0000
1000
0100
1000
0100
1000
0000
0001
0000
,
1000
0100
1000
0100
1000
0000
0001
1000
0001
1000
0100
1000
0001
0000
0100
0000
,
0010
0000
1000
0001
1000
0000
0010
1000
0010
1000
0001
1000
0010
0000
0100
0000
,
0001
0000
1000
0100
1000
0000
0001
0100
0001
0100
0010
0100
0001
0000
1000
0000
,
0001
0000
1000
0100
1000
0000
0001
0000
1000
0010
1000
0010
1000
0000
0001
0000
,
1000
0010
1000
0010
1000
0000
0001
1000
0001
1000
0010
1000
0001
0000
1000
0000
,
0001
1000
0001
1000
0001
0000
0000
0000
0000
0000
0001
0000
1000
0000
0000
0000
,
0100
0000
0010
0001
0010
0000
0100
1000
0000
1000
0001
0000
0010
0000
0000
0000
,
0001
0010
0100
0000
0100
0010
0001
0001
,
1000
0010
0100
0000
0100
0001
1000
0000
,
0010
0000
0100
0000
0000
0010
0100
0000
,
0001
0000
0001
0000
1000
0000
0000
0000
0000
0001
1000
0000
0001
0000
0000
0000
,
0001
0010
0100
0000
0100
0010
0001
0001
,
1000
0010
0100
0000
0100
0001
1000
0000
,
0001
0000
1000
0100
0010
0000
0000
0000
0001
0000
1000
0010
0100
0000
0000
0000
,
0001
0000
1000
0100
0010
0000
0000
0000
0001
0000
1000
0010
0100
0000
0000
0000
,
0001
0000
0001
0000
0010
0000
0100
1000
0100
1000
0001
0000
0010
0000
0001
1000
,
0100
0000
0100
0000
0010
0000
0100
1000
0100
1000
0001
0000
1001
0000
0000
0000
,
1000
0000
1000
0000
0010
0000
0100
0001
0100
0001
1000
0000
0010
0000
1000
0001
,
0100
0000
0100
0000
0001
0000
0010
0001
0010
0001
1000
0000
1001
0000
0000
0000
,
0001
0000
0001
0000
1000
0000
0010
0100
0010
1000
0001
0000
1001
0000
0000
0000
,
1000
0000
1000
0000
0001
0000
0010
0100
0010
0001
1000
0000
1001
0000
0000
0000
,
0001
0000
0001
0000
1000
0000
0010
0100
0010
1000
0001
0000
1001
0000
0000
0000
,
1000
0000
1000
0000
0100
0000
0010
0001
1000
0001
0010
0000
0110
0000
0000
0000
,
0001
0000
0001
0000
1000
0000
0010
0100
0010
0100
0001
0000
1000
0000
0001
0100
,
0010
0000
0010
0000
0100
0000
0010
1000
0010
1000
0001
0000
1001
0000
0000
0000
,
1000
0000
1000
0000
0001
0000
0010
0100
0010
0100
1000
0000
0001
0000
1000
0100
,
0010
0000
0010
0000
0001
0000
0100
0001
0100
0001
1000
0000
1001
0000
0000
0000
,
0001
0000
0001
0000
1000
0000
0100
0010
0100
1000
0001
0000
1001
0000
0000
0000
,
1000
0000
1000
0000
0001
0000
0100
0010
0100
0001
1000
0000
1001
0000
0000
0000
,
0001
0000
0001
0000
1000
0000
0100
0010
0100
1000
0001
0000
1001
0000
0000
0000
,
0001
0000
0001
0000
0100
0000
0010
1000
0000
1000
0001
0000
1001
0000
0000
0000
,
1000
0000
1000
0000
0100
0000
0010
0001
0010
0001
1000
0000
0100
0000
1000
0001
,
0010
0000
0010
0000
0100
0000
0010
0001
0010
0001
1000
0000
1001
0000
0000
0000
,
0001
0000
0001
0000
0100
0000
0010
1000
0010
1000
0001
0000
0100
0000
0001
1000
,
0010
0000
0010
0000
1000
0000
0100
1000
0100
1000
0001
0000
1001
0000
0000
0000
,
1000
0000
1000
0000
0001
0000
0100
0010
0100
0001
1000
0000
1001
0000
0000
0000
,
0001
0000
0001
0000
1000
0000
0100
0010
0100
1000
0001
0000
1001
0000
0000
0000
,
1000
0000
1000
0000
0001
0000
0100
0010
0100
0001
1000
0000
1001
0000
0000
0000
,
0001
0000
0001
0000
0010
0000
0100
1000
0001
1000
0100
0000
0110
0000
0000
0000
,
1000
0000
1000
0000
0001
0000
0100
0010
0100
0010
1000
0000
0001
0000
1000
0010
,
0100
0000
0100
0000
0010
0000
0100
0001
0100
0001
1000
0000
1001
0000
0000
0000
,
0001
0000
0001
0000
1000
0000
0100
0010
0100
0010
0001
0000
1000
0000
0001
0010
,
0100
0000
0100
0000
1000
0000
0010
1000
0010
1000
0001
0000
1001
0000
0000
0000
,
1000
0000
1000
0000
0001
0000
0010
0100
0010
0001
1000
0000
1001
0000
0000
0000
,
0001
0000
0001
0000
1000
0000
0010
0100
0010
1000
0001
0000
1001
0000
0000
0000
,
1000
0000
1000
0000
0001
0000
0010
0100
0010
0001
1000
0000
1001
0000
0000
0000
,
1000
0000
1000
0000
0010
0000
0100
0001
0000
0001
1000
0000
1001
0000
0000
0000
,
0001
0000
0000
0001
0000
0000
1000
0000
0000
0100
0000
0000
0010
0000
0000
0100
,
0010
0000
0000
0000
0100
0000
0000
0100
0000
0000
1000
0000
0010
0000
0000
0000
,
1000
0000
0000
1000
0000
0000
0001
0000
0000
0100
0000
0000
0010
0000
0000
0100
,
0010
0000
0000
0000
,
0001
0000
0000
0001
0000
0000
1000
0000
0000
0010
0000
0000
0100
0000
0000
0010
,
0100
0000
0000
0000
0010
0000
0000
0010
0000
0000
1000
0000
0100
0000
0000
0000
,
1000
0000
0000
1000
0000
0000
0001
0000
0000
0010
0000
0000
0100
0000
0000
0010
,
0100
0000
0000
0000
,
1000
0001
1000
0001
,
1000
0001
1000
0001
,
1000
0001
1000
0001
1000
0001
1000
0001
,
1000
0001
1000
0001
1000
0001
1000
0001
,
1000
0100
0010
0001
1000
0100
0010
0001
1000
0010
0100
0001
1000
0010
0100
0001
,
4000
0004
0000
0000
0000
0000
0000
0000
0000
0000
0000
0000
0000
0000
0000
0000
0000
0000
0000
0000
0000
3003
0000
0000
,
1100
0000
0000
1000
0100
1000
0010
0000
0000
1000
0100
1000
0001
0000
0000
1000
,
0010
1000
0100
0000
0000
1000
0010
1000
0001
0000
0100
0001
0010
0100
1000
0001
,
1000
0000
0001
0100
0001
0000
1000
0000
0001
0010
0001
0010
0001
0000
1000
0000
,
0001
0010
0001
0010
0001
0000
1000
0001
1000
0001
0010
0001
1000
0000
0010
0000
,
0100
0000
0001
1000
0001
0000
0100
0001
0100
0001
1000
0001
0100
0000
0010
0000
,
1000
0000
0001
0010
0001
0000
1000
0010
1000
0010
0100
0010
1000
0000
0001
0000
,
1000
0000
0001
0010
0001
0000
1000
0000
0001
0100
0001
0100
0001
0000
1000
0000
,
0001
0100
0001
0100
0001
0000
1000
0001
1000
0001
0100
0001
1000
0000
0001
0000
,
1000
0001
1000
0001
1000
0000
0000
0000
0000
0000
1000
0000
0001
0000
0000
0000
,
0010
0000
0100
1000
0100
0000
0010
0001
0000
0001
1000
0000
0010
0000
0000
0000
,
1000
0100
0010
0000
0010
0100
1000
1000
,
0001
0100
0010
0000
0010
1000
0001
0000
,
0100
0000
0010
0000
0000
0100
0010
0000
,
1000
0000
1000
0000
0001
0000
0000
0000
0000
1000
0001
0000
1000
0000
0000
0000
,
1000
0100
0010
0000
0010
0100
1000
1000
,
0001
0100
0010
0000
0010
1000
0001
0000
,
0100
0000
0010
0000
0000
0100
0010
0000
,
1000
0000
1000
0000
0001
0000
0000
0000
0000
1000
0001
0000
1000
0000
0000
0000
,
1000
0000
0001
0100
0001
0000
1000
0000
0001
0010
0001
0010
0001
0000
1000
0000
,
0001
0010
0001
0010
0001
0000
1000
0001
1000
0001
0010
0001
1000
0000
0010
0000
,
0100
0000
0001
1000
0001
0000
0100
0001
0100
0001
1000
0001
0100
0000
0010
0000
,
1000
0000
0001
0010
0001
0000
1000
0010
1000
0010
0100
0010
1000
0000
0001
0000
,
1000
0000
0001
0010
0001
0000
1000
0000
0001
0100
0001
0100
0001
0000
1000
0000
,
0001
0100
0001
0100
0001
0000
1000
0001
1000
0001
0100
0001
1000
0000
0001
0000
,
1000
0001
1000
0001
1000
0000
0000
0000
0000
0000
1000
0000
0001
0000
0000
0000
,
0010
0000
0100
1000
0100
0000
0010
0001
0000
0001
1000
0000
0010
0000
0000
0000
,
1000
0100
0010
0000
0010
0100
1000
1000
,
0001
0100
0010
0000
0010
1000
0001
0000
,
0100
0000
0010
0000
0000
0100
0010
0000
,
1000
0000
1000
0000
0001
0000
0000
0000
0000
1000
0001
0000
1000
0000
0000
0000
,
1000
0100
0010
0000
0010
0100
1000
1000
,
0001
0100
0010
0000
0010
1000
0001
0000
,
1000
0000
0001
0100
0010
0000
0000
0000
1000
0000
0001
0010
0100
0000
0000
0000
,
1000
0000
0001
0100
0010
0000
0000
0000
1000
0000
0001
0010
0100
0000
0000
0000
,
1000
0000
0001
0100
0001
0000
1000
0000
0001
0010
0001
0010
0001
0000
1000
0000
,
0001
0010
0001
0010
0001
0000
1000
0001
1000
0001
0010
0001
1000
0000
0010
0000
,
0100
0000
0001
1000
0001
0000
0100
0001
0100
0001
1000
0001
0100
0000
0010
0000
,
1000
0000
0001
0010
0001
0000
1000
0010
1000
0010
0100
0010
1000
0000
0001
0000
,
1000
0000
0001
0010
0001
0000
1000
0000
0001
0100
0001
0100
0001
0000
1000
0000
,
0001
0100
0001
0100
0001
0000
1000
0001
1000
0001
0100
0001
1000
0000
0001
0000
,
1000
0001
1000
0001
1000
0000
0000
0000
0000
0000
1000
0000
0001
0000
0000
0000
,
0010
0000
0100
1000
0100
0000
0010
0001
0000
0001
1000
0000
0010
0000
0000
0000
,
1000
0100
0010
0000
0010
0100
1000
1000
,
0001
0100
0010
0000
0010
1000
0001
0000
,
0100
0000
0010
0000
0000
0100
0010
0000
,
1000
0000
1000
0000
0001
0000
0000
0000
0000
1000
0001
0000
1000
0000
0000
0000
,
1000
0100
0010
0000
0010
0100
1000
1000
,
0001
0100
0010
0000
0010
1000
0001
0000
,
0020
0000
0000
0000
,
0200
0000
0000
0000
,
0330
000M
00M0
0M00
M000
000M
00M0
0M00
,
M000
000M
00M0
0M00
M000
000M
00M0
0M00
,
M000
000M
00M0
0M00
M000
000M
00M0
0M00
,
M000
000M
00M0
0M00
M000
000M
00M0
0M00
,
M000
000M
00M0
0M00
M000
000M
00M0
0M00
,
M000
0000
0000
0000
;

//---------------dance-single - I. Pyles----------------
#NOTES:
     dance-single:
     I. Pyles:
     Hard:
     13:
     1.000,1.000,0.109,0.320,1.000,2394.000,37.000,109.000,109.000,5.000:
0000
0000
0000
0000
,
1000
0001
0100
0001
1000
0001
0010
0001
,
1000
0001
0100
0001
1000
0001
0010
0001
,
1000
0001
0100
0001
1000
0001
0010
0001
,
1000
0001
0100
0001
1000
0100
M010
0001
,
M100
001M
M100
001M
M100
001M
M100
001M
,
M100
001M
M100
001M
M100
001M
M100
001M
,
M100
001M
M100
001M
M100
001M
M100
001M
,
M100
001M
M100
001M
M100
0001
M010
0100
,
1000
0100
1000
0001
1000
0010
1000
0001
,
1000
0100
1000
0001
1000
0010
1000
0001
,
1000
0100
1000
0001
1000
0010
1000
0001
,
1000
0100
1000
0001
1000
0010
M100
0001
,
M010
010M
M010
010M
M010
010M
M010
010M
,
M010
010M
M010
010M
M010
010M
M010
010M
,
M010
010M
M010
010M
M010
010M
M010
010M
,
M010
010M
M010
010M
M010
0001
M100
0020
,
0000
0000
0000
0000
,
0000
0000
0000
2030
3002
0023
0032
2003
,
0000
0000
0000
0000
,
0000
0000
0000
0000
0000
0000
0000
0000
0000
0000
0000
0000
0000
0000
0000
0000
3020
0000
0000
0000
0000
0000
0000
0000
0230
0000
0000
0000
0000
0000
0000
0000
0320
0000
0000
0000
0000
0000
0000
0000
2030
0000
0000
0000
0000
0000
0000
0000
0000
0000
0000
0000
0000
0000
0000
3000
1000
0000
0000
0000
0000
0000
0000
0000
,
0200
0000
0000
0000
,
0000
0000
0320
0032
0023
0230
2300
3002
,
0000
0000
0000
0000
,
0000
0000
0203
0320
2030
3002
0023
0230
,
0000
0000
0000
0000
,
0000
0000
0000
2300
3002
0203
0302
2003
,
0000
0000
0000
0000
,
0000
0000
0000
0000
0000
0000
0000
0000
0000
0000
0000
0000
0000
0000
0000
0000
3200
0000
0000
0000
0000
0000
0000
0000
0320
0000
0000
0000
0000
0000
0000
0000
0230
0000
0000
0000
0000
0000
0000
0000
2300
0000
0000
0000
0000
0000
0000
0000
0000
0000
0000
0000
0000
0000
0000
3000
1000
0000
0000
0000
0000
0000
0000
0000
,
0020
0000
0000
0000
,
0000
0000
0230
0302
0203
0320
2030
3200
,
0311
0000
0000
0001
0010
0001
0100
0000
0000
0001
0010
0001
1000
0000
0000
0001
,
0100
0001
0010
0000
0000
0001
0100
0001
1000
0000
0010
1000
0100
0010
0001
1000
,
0100
0000
0100
0000
0010
0000
0001
1000
0001
1000
0100
0000
0010
0000
0100
1000
,
0001
0000
0001
0000
0100
0000
0010
1000
0010
1000
0001
0000
1001
0000
0000
0000
,
1000
0000
1000
0000
0100
0000
0010
0001
0010
0001
1000
0000
0100
0000
1000
0001
,
0010
0000
0010
0000
0001
0000
1000
0010
0100
0001
1000
0000
0020
0000
0000
0000
,
2030
0000
0000
0000
,
0000
0000
3002
0203
0320
0230
0302
0023
,
0000
0000
0000
0000
,
0000
0000
0230
2300
3002
2003
3200
2300
,
3001
0000
0001
0000
1000
0000
0010
0100
0010
0100
0001
0000
1000
0000
0001
0100
,
0010
0000
0010
0000
0100
0000
0010
1000
0010
1000
0001
0000
1001
0000
0000
0000
,
1000
0000
1000
0000
0001
0000
0010
0100
0010
0100
1000
0000
0001
0000
1000
0100
,
0010
0000
0010
0000
0100
0000
1000
0010
0100
0001
2000
0000
0000
0000
0000
0000
,
3020
0000
0000
0000
,
0000
0000
0230
0302
0203
0320
2030
3200
,
0000
0000
0000
0000
,
0000
0000
0320
0032
0023
0230
2300
3002
,
0013
0000
0010
0000
0100
0000
1000
0001
1000
0001
0100
0000
0010
0000
0100
0001
,
1000
0000
1000
0000
0100
0000
0010
0001
0010
0001
1000
0000
1001
0000
0000
0000
,
0001
0000
0001
0000
0100
0000
0010
1000
0010
1000
0001
0000
0100
0000
0001
1000
,
0010
0000
0010
0000
0100
0000
0001
0010
0100
1000
0020
0000
0000
0000
0000
0000
,
0230
0000
0000
0000
,
0000
0000
0320
2030
3002
2003
3020
0230
,
0000
0000
0000
0000
,
0000
0000
0302
0023
0230
0320
0032
2003
,
3001
0000
0001
0000
1000
0000
0100
0010
0100
0010
0001
0000
1000
0000
0001
0010
,
0100
0000
0100
0000
0010
0000
0100
1000
0100
1000
0001
0000
1001
0000
0000
0000
,
1000
0000
1000
0000
0001
0000
0100
0010
0100
0010
1000
0000
0001
0000
1000
0010
,
0100
0000
0100
0000
0010
0000
1000
0100
0010
0001
2000
0000
0000
0000
0000
0000
,
3020
0000
0000
0000
,
0000
0000
0230
0302
0023
0230
2300
3002
,
0000
0000
0000
0000
,
0000
0000
2003
3200
0320
0032
0203
0320
,
1030
0000
0000
1000
0000
0000
0001
0000
0000
0010
0000
0000
0100
0000
0000
0010
,
0100
0000
0000
0000
0010
0000
0000
0010
0000
0000
0001
0000
0100
0000
0000
0000
,
0001
0000
0000
0001
0000
0000
1000
0000
0000
0010
0000
0000
0100
0000
0000
0010
,
0100
0000
0000
0000
,
1000
0000
0000
1000
0000
0000
0001
0000
0000
0100
0000
0000
0010
0000
0000
0100
,
0010
0000
0000
0000
0100
0000
0000
0100
0000
0000
0001
0000
0010
0000
0000
0000
,
0001
0000
0000
0001
0000
0000
1000
0000
0000
0100
0000
0000
0010
0000
0000
0100
,
0010
0000
0000
0000
,
0001
1000
0001
1000
,
0001
1000
0001
1000
,
0001
1000
0001
1000
0001
1000
0001
1000
,
0001
1000
0001
1000
0001
1000
0001
1000
,
0001
0010
0100
1000
0001
0010
0100
1000
0001
0100
0010
1000
0001
0100
0010
1000
,
0004
4000
0000
0000
0000
0000
0000
0000
0000
0000
0000
0000
0000
0000
0000
0000
0000
0000
0000
0000
0000
3003
0000
0000
,
0011
0000
0000
0001
0010
0001
0100
0000
0000
0001
0010
0001
1000
0000
0000
0001
,
0100
0001
0010
0000
0000
0001
0100
0001
1000
0000
0010
1000
0100
0010
0001
1000
,
0001
0000
1000
0010
1000
0000
0001
0000
1000
0100
1000
0100
1000
0000
0001
0000
,
1000
0100
1000
0100
1000
0000
0001
1000
0001
1000
0100
1000
0001
0000
0100
0000
,
0010
0000
1000
0001
1000
0000
0010
1000
0010
1000
0001
1000
0010
0000
0100
0000
,
0001
0000
1000
0100
1000
0000
0001
0100
0001
0100
0010
0100
0001
0000
1000
0000
,
0001
0000
1000
0100
1000
0000
0001
0000
1000
0010
1000
0010
1000
0000
0001
0000
,
1000
0010
1000
0010
1000
0000
0001
1000
0001
1000
0010
1000
0001
0000
1000
0000
,
0100
0010
0001
1000
0100
0010
0001
1000
0100
0010
0001
1000
0100
0010
0001
1000
,
0010
0100
0001
1000
0010
0100
0001
1000
0010
0100
0001
1000
0010
0100
0001
1000
,
0010
0000
0000
00M0
0001
0000
1000
0000
0000
0000
0001
0000
0010
0000
0000
00M0
1000
0000
0001
0000
0000
0000
1000
0000
,
0010
0000
0000
00M0
0001
0000
1000
0000
0000
0000
0001
0000
0010
0000
0000
00M0
1000
0000
0001
0000
0000
0000
0100
0000
,
0010
1000
0001
1000
0100
1000
0001
0100
0001
0010
0001
1000
0001
1000
0100
1000
,
0010
1000
0001
1000
0100
1000
0001
0100
0001
0010
0001
1000
0001
1000
0100
1000
,
0001
0100
0001
1000
0001
0010
0001
1000
0010
1000
0100
1000
0001
0100
0010
0100
,
0001
0010
0001
1000
0001
0100
0001
1000
0100
1000
0010
1000
0001
0010
0100
1000
,
0010
1000
0001
1000
0100
1000
0001
0100
0001
0010
0001
1000
0001
1000
0100
1000
,
0010
1000
0001
1000
0100
1000
0001
0100
0001
1000
0100
1000
0001
0100
0001
1000
,
0001
0000
1000
0010
1000
0000
0001
0000
1000
0100
1000
0100
1000
0000
0001
0000
,
1000
0100
1000
0100
1000
0000
0001
1000
0001
1000
0100
1000
0001
0000
0100
0000
,
0010
0000
1000
0001
1000
0000
0010
1000
0010
1000
0001
1000
0010
0000
0100
0000
,
0001
0000
1000
0100
1000
0000
0001
0100
0001
0100
0010
0100
0001
0000
1000
0000
,
0001
0000
1000
0100
1000
0000
0001
0000
1000
0010
1000
0010
1000
0000
0001
0000
,
1000
0010
1000
0010
1000
0000
0001
1000
0001
1000
0010
1000
0001
0000
1000
0000
,
0010
0100
0001
1000
0010
0100
0001
1000
0010
0100
0001
1000
0010
0100
0001
1000
,
0100
0010
0001
1000
0100
0010
0001
1000
0100
0010
0001
1000
0100
0010
0001
1000
,
0001
0100
0001
1000
0001
0010
0001
1000
0010
1000
0100
1000
0001
0100
0010
0100
,
0001
0010
0001
1000
0001
0100
0001
1000
0100
1000
0010
1000
0001
0010
0100
1000
,
0010
1000
0001
1000
0100
1000
0001
0100
0001
0010
0001
1000
0001
1000
0100
1000
,
0010
1000
0001
1000
0100
1000
0001
0100
0001
1000
0100
1000
0001
0100
0001
1000
,
0001
0100
0001
1000
0001
0010
0001
1000
0010
1000
0100
1000
0001
0100
0010
0100
,
0001
0010
0001
1000
0001
0100
0001
1000
0100
1000
0010
1000
0001
0010
0100
1000
,
0001
0000
1000
0100
0010
0000
0000
0000
0001
0000
1000
0010
0100
0000
0000
0000
,
0001
0000
1000
0100
0010
0000
0000
0000
0001
0000
1000
0010
0100
0000
0000
0000
,
0001
0000
1000
0010
1000
0000
0001
0000
1000
0100
1000
0100
1000
0000
0001
0000
,
1000
0100
1000
0100
1000
0000
0001
1000
0001
1000
0100
1000
0001
0000
0100
0000
,
0010
0000
1000
0001
1000
0000
0010
1000
0010
1000
0001
1000
0010
0000
0100
0000
,
0001
0000
1000
0100
1000
0000
0001
0100
0001
0100
0010
0100
0001
0000
1000
0000
,
0001
0000
1000
0100
1000
0000
0001
0000
1000
0010
1000
0010
1000
0000
0001
0000
,
1000
0010
1000
0010
1000
0000
0001
1000
0001
1000
0010
1000
0001
0000
1000
0000
,
0100
0010
0001
1000
0100
0010
0001
1000
0100
0010
0001
1000
0100
0010
0001
1000
,
0010
0100
0001
1000
0010
0100
0001
1000
0010
0100
0001
1000
0010
0100
0001
1000
,
0100
0000
0000
0M00
0001
0000
1000
0000
0000
0000
0001
0000
0100
0000
0000
0M00
1000
0000
0001
0000
0000
0000
1000
0000
,
0100
0000
0000
0M00
0001
0000
1000
0000
0000
0000
0001
0000
2022
0000
0000
3033
0000
0000
2022
0000
0000
3033
0000
0000
,
0001
1000
0001
1000
0010
1000
0001
0010
0001
0100
0001
1000
0001
1000
0010
1000
,
0100
1000
0001
1000
0010
1000
0001
0010
0001
0100
0001
1000
0001
1000
0010
1000
,
0001
0010
0001
1000
0001
0100
0001
1000
0100
1000
0010
1000
0001
0010
0100
0010
,
0001
0100
0001
1000
0001
0010
0001
1000
0010
1000
0100
1000
0001
0100
0010
1000
,
0001
0000
1000
0001
0000
1000
0100
0000
1000
0001
0000
0001
,
0100
0000
0000
0000
0001
0000
1000
0000
0000
0000
0001
0000
2022
0000
0000
3033
0000
0000
2022
0000
0000
3033
0000
0000
,
0001
0000
1000
0010
1000
0000
0001
0000
1000
0100
1000
0100
1000
0000
0001
0000
,
1000
0100
1000
0100
1000
0000
0001
1000
0001
1000
0100
1000
0001
0000
0100
0000
,
0010
0000
1000
0001
1000
0000
0010
1000
0010
1000
0001
1000
0010
0000
0100
0000
,
0001
0000
1000
0100
1000
0000
0001
0100
0001
0100
0010
0100
0001
0000
1000
0000
,
0001
0000
1000
0100
1000
0000
0001
0000
1000
0010
1000
0010
1000
0000
0001
0000
,
1000
0010
1000
0010
1000
0000
0001
1000
0001
1000
0010
1000
0001
0000
1000
0000
,
0100
0010
0001
1000
0100
0010
0001
1000
0100
0010
0001
1000
0100
0010
0001
1000
,
0010
0100
0001
1000
0010
0100
0001
1000
0010
0100
0001
1000
0010
0100
0001
1000
,
0001
0010
0001
1000
0001
0100
0001
1000
0100
1000
0010
1000
0001
0010
0100
0010
,
0001
0100
0001
1000
0001
0010
0001
1000
0010
1000
0100
1000
0001
0100
0010
1000
,
0100
1000
0001
1000
0010
1000
0001
0010
0001
0100
0001
1000
0001
1000
0010
1000
,
0100
1000
0001
1000
0010
1000
0001
0010
0001
1000
0010
1000
0001
0010
0001
1000
,
0001
0010
0001
1000
0001
0100
0001
1000
0100
1000
0010
1000
0001
0010
0100
0010
,
0001
0100
0001
1000
0001
0010
0001
1000
0010
1000
0100
1000
0001
0100
0010
1000
,
0001
0000
1000
0100
0010
0000
0000
0000
0001
0000
1000
0010
0100
0000
0000
0000
,
0001
0000
1000
0100
0010
0000
0000
0000
0001
0000
1000
0010
0100
0000
0000
0000
,
0001
0000
0001
0000
0010
0000
0100
1000
0100
1000
0001
0000
0010
0000
0001
1000
,
0100
0000
0100
0000
0010
0000
0100
1000
0100
1000
0001
0000
1001
0000
0000
0000
,
1000
0000
1000
0000
0010
0000
0100
0001
0100
0001
1000
0000
0010
0000
1000
0001
,
0100
0000
0100
0000
0001
0000
0010
0001
0010
0001
1000
0000
1001
0000
0000
0000
,
0001
0000
0001
0000
1000
0000
0010
0100
0010
1000
0001
0000
1001
0000
0000
0000
,
1000
0000
1000
0000
0001
0000
0010
0100
0010
0001
1000
0000
1001
0000
0000
0000
,
0001
0000
0001
0000
1000
0000
0010
0100
0010
1000
0001
0000
1001
0000
0000
0000
,
1000
0000
1000
0000
0100
0000
0010
0001
1000
0001
0010
0000
0110
0000
0000
0000
,
0001
0000
0001
0000
1000
0000
0010
0100
0010
0100
0001
0000
1000
0000
0001
0100
,
0010
0000
0010
0000
0100
0000
0010
1000
0010
1000
0001
0000
1001
0000
0000
0000
,
1000
0000
1000
0000
0001
0000
0010
0100
0010
0100
1000
0000
0001
0000
1000
0100
,
0010
0000
0010
0000
0001
0000
0100
0001
0100
0001
1000
0000
1001
0000
0000
0000
,
0001
0000
0001
0000
1000
0000
0100
0010
0100
1000
0001
0000
1001
0000
0000
0000
,
1000
0000
1000
0000
0001
0000
0100
0010
0100
0001
1000
0000
1001
0000
0000
0000
,
0001
0000
0001
0000
1000
0000
0100
0010
0100
1000
0001
0000
1001
0000
0000
0000
,
0001
0000
0001
0000
0100
0000
0010
1000
0000
1000
0001
0000
1001
0000
0000
0000
,
1000
0000
1000
0000
0100
0000
0010
0001
0010
0001
1000
0000
0100
0000
1000
0001
,
0010
0000
0010
0000
0100
0000
0010
0001
0010
0001
1000
0000
1001
0000
0000
0000
,
0001
0000
0001
0000
0100
0000
0010
1000
0010
1000
0001
0000
0100
0000
0001
1000
,
0010
0000
0010
0000
1000
0000
0100
1000
0100
1000
0001
0000
1001
0000
0000
0000
,
1000
0000
1000
0000
0001
0000
0100
0010
0100
0001
1000
0000
1001
0000
0000
0000
,
0001
0000
0001
0000
1000
0000
0100
0010
0100
1000
0001
0000
1001
0000
0000
0000
,
1000
0000
1000
0000
0001
0000
0100
0010
0100
0001
1000
0000
1001
0000
0000
0000
,
0001
0000
0001
0000
0010
0000
0100
1000
0001
1000
0100
0000
0110
0000
0000
0000
,
1000
0000
1000
0000
0001
0000
0100
0010
0100
0010
1000
0000
0001
0000
1000
0010
,
0100
0000
0100
0000
0010
0000
0100
0001
0100
0001
1000
0000
1001
0000
0000
0000
,
0001
0000
0001
0000
1000
0000
0100
0010
0100
0010
0001
0000
1000
0000
0001
0010
,
0100
0000
0100
0000
1000
0000
0010
1000
0010
1000
0001
0000
1001
0000
0000
0000
,
1000
0000
1000
0000
0001
0000
0010
0100
0010
0001
1000
0000
1001
0000
0000
0000
,
0001
0000
0001
0000
1000
0000
0010
0100
0010
1000
0001
0000
1001
0000
0000
0000
,
1000
0000
1000
0000
0001
0000
0010
0100
0010
0001
1000
0000
1001
0000
0000
0000
,
1000
0000
1000
0000
0010
0000
0100
0001
0000
0001
1000
0000
1001
0000
0000
0000
,
0001
0000
0000
0001
0000
0000
1000
0000
0000
0100
0000
0000
0010
0000
0000
0100
,
0010
0000
0000
0000
0100
0000
0000
0100
0000
0000
1000
0000
0010
0000
0000
0000
,
1000
0000
0000
1000
0000
0000
0001
0000
0000
0100
0000
0000
0010
0000
0000
0100
,
0010
0000
0000
0000
,
0001
0000
0000
0001
0000
0000
1000
0000
0000
0010
0000
0000
0100
0000
0000
0010
,
0100
0000
0000
0000
0010
0000
0000
0010
0000
0000
1000
0000
0100
0000
0000
0000
,
1000
0000
0000
1000
0000
0000
0001
0000
0000
0010
0000
0000
0100
0000
0000
0010
,
0100
0000
0000
0000
,
1000
0001
1000
0001
,
1000
0001
1000
0001
,
1000
0001
1000
0001
1000
0001
1000
0001
,
1000
0001
1000
0001
1000
0001
1000
0001
,
1000
0100
0010
0001
1000
0100
0010
0001
1000
0010
0100
0001
1000
0010
0100
0001
,
4000
0004
0000
0000
0000
0000
0000
0000
0000
0000
0000
0000
0000
0000
0000
0000
0000
0000
0000
0000
0000
3003
0000
0000
,
1100
0000
0000
1000
0100
1000
0010
0000
0000
1000
0100
1000
0001
0000
0000
1000
,
0010
1000
0100
0000
0000
1000
0010
1000
0001
0000
0100
0001
0010
0100
1000
0001
,
1000
0000
0001
0100
0001
0000
1000
0000
0001
0010
0001
0010
0001
0000
1000
0000
,
0001
0010
0001
0010
0001
0000
1000
0001
1000
0001
0010
0001
1000
0000
0010
0000
,
0100
0000
0001
1000
0001
0000
0100
0001
0100
0001
1000
0001
0100
0000
0010
0000
,
1000
0000
0001
0010
0001
0000
1000
0010
1000
0010
0100
0010
1000
0000
0001
0000
,
1000
0000
0001
0010
0001
0000
1000
0000
0001
0100
0001
0100
0001
0000
1000
0000
,
0001
0100
0001
0100
0001
0000
1000
0001
1000
0001
0100
0001
1000
0000
0001
0000
,
0100
0010
1000
0001
0100
0010
1000
0001
0100
0010
1000
0001
0100
0010
1000
0001
,
0010
0100
1000
0001
0010
0100
1000
0001
0010
0100
1000
0001
0010
0100
1000
0001
,
1000
0010
1000
0001
1000
0100
1000
0001
0100
0001
0010
0001
1000
0010
0100
0010
,
1000
0100
1000
0001
1000
0010
1000
0001
0010
0001
0100
0001
1000
0100
0010
0001
,
0100
0001
1000
0001
0010
0001
1000
0010
1000
0100
1000
0001
1000
0001
0010
0001
,
0100
0001
1000
0001
0010
0001
1000
0010
1000
0100
1000
0001
1000
0001
0010
0001
,
1000
0010
1000
0001
1000
0100
1000
0001
0100
0001
0010
0001
1000
0010
0100
0010
,
1000
0100
1000
0001
1000
0010
1000
0001
0010
0001
0100
0001
1000
0100
0010
0001
,
0100
0001
1000
0001
0010
0001
1000
0010
1000
0100
1000
0001
1000
0001
0010
0001
,
0100
0001
1000
0001
0010
0001
1000
0010
1000
0001
0010
0001
1000
0010
1000
0001
,
1000
0000
0001
0100
0001
0000
1000
0000
0001
0010
0001
0010
0001
0000
1000
0000
,
0001
0010
0001
0010
0001
0000
1000
0001
1000
0001
0010
0001
1000
0000
0010
0000
,
0100
0000
0001
1000
0001
0000
0100
0001
0100
0001
1000
0001
0100
0000
0010
0000
,
1000
0000
0001
0010
0001
0000
1000
0010
1000
0010
0100
0010
1000
0000
0001
0000
,
1000
0000
0001
0010
0001
0000
1000
0000
0001
0100
0001
0100
0001
0000
1000
0000
,
0001
0100
0001
0100
0001
0000
1000
0001
1000
0001
0100
0001
1000
0000
0001
0000
,
0100
0010
1000
0001
0100
0010
1000
0001
0100
0010
1000
0001
0100
0010
1000
0001
,
0010
0100
1000
0001
0010
0100
1000
0001
0010
0100
1000
0001
0010
0100
1000
0001
,
1000
0010
1000
0001
1000
0100
1000
0001
0100
0001
0010
0001
1000
0010
0100
0010
,
1000
0100
1000
0001
1000
0010
1000
0001
0010
0001
0100
0001
1000
0100
0010
0001
,
0100
0001
1000
0001
0010
0001
1000
0010
1000
0100
1000
0001
1000
0001
0010
0001
,
0100
0001
1000
0001
0010
0001
1000
0010
1000
0001
0010
0001
1000
0010
1000
0001
,
1000
0010
1000
0001
1000
0100
1000
0001
0100
0001
0010
0001
1000
0010
0100
0010
,
1000
0100
1000
0001
1000
0010
1000
0001
0010
0001
0100
0001
1000
0100
0010
0001
,
1000
0000
0001
0100
0010
0000
0000
0000
1000
0000
0001
0010
0100
0000
0000
0000
,
1000
0000
0001
0100
0010
0000
0000
0000
1000
0000
0001
0010
0100
0000
0000
0000
,
1000
0000
0001
0100
0001
0000
1000
0000
0001
0010
0001
0010
0001
0000
1000
0000
,
0001
0010
0001
0010
0001
0000
1000
0001
1000
0001
0010
0001
1000
0000
0010
0000
,
0100
0000
0001
1000
0001
0000
0100
0001
0100
0001
1000
0001
0100
0000
0010
0000
,
1000
0000
0001
0010
0001
0000
1000
0010
1000
0010
0100
0010
1000
0000
0001
0000
,
1000
0000
0001
0010
0001
0000
1000
0000
0001
0100
0001
0100
0001
0000
1000
0000
,
0001
0100
0001
0100
0001
0000
1000
0001
1000
0001
0100
0001
1000
0000
0001
0000
,
0010
0100
1000
0001
0010
0100
1000
0001
0010
0100
1000
0001
0010
0100
1000
0001
,
0100
0010
1000
0001
0100
0010
1000
0001
0100
0010
1000
0001
0100
0010
1000
0001
,
1000
0100
1000
0001
1000
0010
1000
0001
0010
0001
0100
0001
1000
0100
0010
0100
,
1000
0010
1000
0001
1000
0100
1000
0001
0100
0001
0010
0001
1000
0010
0100
0001
,
0010
0001
1000
0001
0100
0001
1000
0100
1000
0010
1000
0001
1000
0001
0100
0001
,
0010
0001
1000
0001
0100
0001
1000
0100
1000
0010
1000
0001
1000
0001
0100
0001
,
1000
0100
1000
0001
1000
0010
1000
0001
0010
0001
0100
0001
1000
0100
0010
0100
,
1000
0010
1000
0001
1000
0100
1000
0001
0100
0001
0010
0001
1000
0010
0100
0001
,
0020
0000
0000
0000
,
0200
0000
0000
0000
,
0330
000M
00M0
0M00
M000
000M
00M0
0M00
,
M000
000M
00M0
0M00
M000
000M
00M0
0M00
,
M000
000M
00M0
0M00
M000
000M
00M0
0M00
,
M000
000M
00M0
0M00
M000
000M
00M0
0M00
,
M000
000M
00M0
0M00
M000
000M
00M0
0M00
,
M000
0000
0000
0000
;

//---------------dance-single - I. Pyles----------------
#NOTES:
     dance-single:
     I. Pyles:
     Challenge:
     15:
     1.000,1.000,0.109,0.155,1.000,2820.000,37.000,53.000,109.000,5.000:

0000
0000
0000
0000
,
1000
0001
0100
0001
1000
0001
0010
0001
,
1000
0001
0100
0001
1000
0001
0010
0001
,
1000
0001
0100
0001
1000
0001
0010
0001
,
1000
0001
0100
0001
1000
0100
M010
0001
,
M100
001M
M100
001M
M100
001M
M100
001M
,
M100
001M
M100
001M
M100
001M
M100
001M
,
M100
001M
M100
001M
M100
001M
M100
001M
,
M100
001M
M100
001M
M100
0001
M010
0100
,
1000
0100
1000
0001
1000
0010
1000
0001
,
1000
0100
1000
0001
1000
0010
1000
0001
,
1000
0100
1000
0001
1000
0010
1000
0001
,
1000
0100
1000
0001
1000
0010
M100
0001
,
M010
010M
M010
010M
M010
010M
M010
010M
,
M010
010M
M010
010M
M010
010M
M010
010M
,
M010
010M
M010
010M
M010
010M
M010
010M
,
M010
010M
M010
010M
M010
0001
M100
0020
,
0000
0000
0000
0000
,
0000
0000
0000
2030
3002
0023
0032
2003
,
0000
0000
0000
0000
,
0000
0000
0000
0000
0000
0000
0000
0000
0000
0000
0000
0000
0000
0000
0000
0000
3020
0000
0000
0000
0000
0000
0000
0000
0230
0000
0000
0000
0000
0000
0000
0000
0320
0000
0000
0000
0000
0000
0000
0000
2030
0000
0000
0000
0000
0000
0000
0000
0000
0000
0000
0000
0000
0000
0000
3000
1000
0000
0000
0000
0000
0000
0000
0000
,
0200
0000
0000
0000
,
0000
0000
0320
0032
0023
0230
2300
3002
,
0000
0000
0000
0000
,
0000
0000
0203
0320
2030
3002
0023
0230
,
0000
0000
0000
0000
,
0000
0000
0000
2300
3002
0203
0302
2003
,
0000
0000
0000
0000
,
0000
0000
0000
0000
0000
0000
0000
0000
0000
0000
0000
0000
0000
0000
0000
0000
3200
0000
0000
0000
0000
0000
0000
0000
0320
0000
0000
0000
0000
0000
0000
0000
0230
0000
0000
0000
0000
0000
0000
0000
2300
0000
0000
0000
0000
0000
0000
0000
0000
0000
0000
0000
0000
0000
0000
3000
1000
0000
0000
0000
0000
0000
0000
0000
,
0020
0000
0000
0000
,
0000
0000
0230
0302
0203
0320
2030
3200
,
0311
0000
0000
0001
0010
0001
0100
0000
0000
0001
0010
0001
1000
0000
0000
0001
,
0100
0001
0010
0000
0000
0001
0100
0001
1000
0000
0010
1000
0100
0010
0001
1000
,
0100
0000
0100
0000
0010
0000
0001
1000
0001
1000
0100
0000
0010
0000
0100
1000
,
0001
0000
0001
0000
0100
0000
0010
1000
0010
1000
0001
0000
1001
0000
0000
0000
,
1000
0000
1000
0000
0100
0000
0010
0001
0010
0001
1000
0000
0100
0000
1000
0001
,
0010
0000
0010
0000
0001
0000
1000
0010
0100
0001
1000
0000
0100
1000
0100
1000
,
0001
0100
0010
0100
0001
0100
0010
0100
0001
0100
0010
0100
0001
0100
0010
0100
,
0001
0100
0010
0100
0001
1000
0100
0010
0001
1000
0010
0100
0001
1000
0100
0010
,
0100
1000
0100
0010
0100
1000
0100
0010
0100
1000
0100
0010
0100
1000
0100
0010
,
0100
1000
0100
0010
0001
1000
0010
0100
0001
1000
0100
0010
0001
0100
0010
1000
,
0001
0000
0001
0000
1000
0000
0010
0100
0010
0100
0001
0000
1000
0000
0001
0100
,
0010
0000
0010
0000
0100
0000
0010
1000
0010
1000
0001
0000
1001
0000
0000
0000
,
1000
0000
1000
0000
0001
0000
0010
0100
0010
0100
1000
0000
0001
0000
1000
0100
,
0010
0000
0010
0000
0100
0000
1000
0010
0100
0001
1000
0100
1000
0100
1000
0100
,
0010
0001
0010
0100
0010
0001
0010
0100
0010
0001
0010
0100
0010
0001
0010
0100
,
0010
0001
0010
0100
1000
0010
0100
0010
1000
0100
0010
0001
1000
0010
0100
0001
,
1000
0100
1000
0001
1000
0100
1000
0001
1000
0100
1000
0001
1000
0100
1000
0001
,
1000
0100
1000
0001
1000
0100
0010
0001
0100
0010
1000
0001
0010
0001
1000
0001
,
0010
0000
0010
0000
0100
0000
1000
0001
1000
0001
0100
0000
0010
0000
0100
0001
,
1000
0000
1000
0000
0100
0000
0010
0001
0010
0001
1000
0000
1001
0000
0000
0000
,
0001
0000
0001
0000
0100
0000
0010
1000
0010
1000
0001
0000
0100
0000
0001
1000
,
0010
0000
0010
0000
0100
0000
0001
0010
0100
1000
0010
1000
0010
1000
0010
1000
,
0001
0010
0100
0010
0001
0010
0100
0010
0001
0010
0100
0010
0001
0010
0100
0010
,
0001
0010
0100
0010
0001
1000
0010
0100
0001
1000
0100
0010
0001
1000
0010
1000
,
0001
1000
0010
1000
0001
1000
0010
1000
0001
1000
0010
1000
0001
1000
0010
1000
,
0001
1000
0010
0100
0001
1000
0100
0010
0001
1000
0010
0100
0001
0010
0100
1000
,
0001
0000
0001
0000
1000
0000
0100
0010
0100
0010
0001
0000
1000
0000
0001
0010
,
0100
0000
0100
0000
0010
0000
0100
1000
0100
1000
0001
0000
1001
0000
0000
0000
,
1000
0000
1000
0000
0001
0000
0100
0010
0100
0010
1000
0000
0001
0000
1000
0010
,
0100
0000
0100
0000
0010
0000
1000
0100
0010
0001
1000
0010
1000
0010
1000
0010
,
0100
0001
0100
0010
0100
0001
0100
0010
0100
0001
0100
0010
0100
0001
0100
0010
,
0100
0001
0100
0010
1000
0100
0010
0100
1000
0010
0100
0001
1000
0100
0010
0001
,
1000
0100
1000
0001
1000
0100
1000
0001
1000
0100
1000
0001
1000
0100
1000
0001
,
1000
0100
1000
0001
1000
0010
0100
0001
0010
0100
0010
0001
0100
0010
1000
0001
,
1000
0000
0000
1000
0000
0000
0001
0000
0000
0010
0000
0000
0100
0000
0000
0010
,
0100
0000
0000
0000
0010
0000
0000
0010
0000
0000
0001
0000
0100
0000
0000
0000
,
0001
0000
0000
0001
0000
0000
1000
0000
0000
0010
0000
0000
0100
0000
0000
0010
,
0100
0000
0000
0000
,
1000
0000
0000
1000
0000
0000
0001
0000
0000
0100
0000
0000
0010
0000
0000
0100
,
0010
0000
0000
0000
0100
0000
0000
0100
0000
0000
0001
0000
0010
0000
0000
0000
,
0001
0000
0000
0001
0000
0000
1000
0000
0000
0100
0000
0000
0010
0000
0000
0100
,
0010
0000
0000
0000
,
0001
1000
0001
1000
,
0001
1000
0001
1000
,
0001
1000
0001
1000
0001
1000
0001
1000
,
0001
1000
0001
1000
0001
1000
0001
1000
,
0001
0010
0100
1000
0001
0010
0100
1000
0001
0100
0010
1000
0001
0100
0010
1000
,
0004
4000
0000
0000
0000
0000
0000
0000
0000
0000
0000
0000
0000
0000
0000
0000
0000
0000
0000
0000
0000
3003
0000
0000
,
0011
0000
0000
0001
0010
0001
0100
0000
0000
0001
0010
0001
1000
0000
0000
0001
,
0100
0001
0010
0000
0000
0001
0100
0001
1000
0000
0010
1000
0100
0010
0001
1000
,
0010
1000
0100
0010
0001
1000
0001
1000
0100
1000
0010
0100
0001
1000
0001
1000
,
0010
1000
0100
0010
0001
1000
0001
1000
0100
1000
0010
0100
0001
1000
0001
1000
,
0010
1000
0100
0010
0001
1000
0001
0100
0001
1000
0001
0010
0001
0100
0010
1000
,
0100
1000
0001
1000
0010
1000
0001
1000
0100
1000
0010
0100
0001
1000
0001
1000
,
0100
1000
0010
0100
0001
1000
0001
1000
0010
1000
0100
0010
0001
1000
0001
1000
,
0100
1000
0010
0100
0001
1000
0001
1000
0010
1000
0100
0010
0001
1000
0001
1000
,
0010
0100
0001
1000
0010
0100
0001
1000
0010
0100
0001
1000
0010
0100
0001
1000
,
0100
0010
0001
1000
0100
0010
0001
1000
0100
0010
0001
1000
0100
0010
0001
1000
,
0010
0000
0000
00M0
0001
0000
1000
0000
0000
0000
0001
0000
0010
0000
0000
00M0
1000
0000
0001
0000
0000
0000
1000
0000
,
0010
0000
0000
00M0
0001
0000
1000
0000
0000
0000
0001
0000
0010
0000
0000
00M0
1000
0000
0001
0000
0000
0000
0100
0000
,
0010
1000
0001
1000
0100
1000
0001
0100
0001
0010
0001
1000
0001
1000
0100
1000
,
0010
1000
0001
1000
0100
1000
0001
0100
0001
0010
0001
1000
0001
1000
0100
1000
,
0001
0100
0001
1000
0001
0010
0001
1000
0010
1000
0100
1000
0001
0100
0010
0100
,
0001
0010
0001
1000
0001
0100
0001
1000
0100
1000
0010
1000
0001
0010
0100
1000
,
0010
1000
0001
1000
0100
1000
0001
0100
0001
0010
0001
1000
0001
1000
0100
1000
,
0010
1000
0001
1000
0100
1000
0001
0100
0001
1000
0100
1000
0001
0100
0001
1000
,
0010
1000
0100
0010
0001
1000
0001
1000
0100
1000
0010
0100
0001
1000
0001
1000
,
0010
1000
0100
0010
0001
1000
0001
1000
0100
1000
0010
0100
0001
1000
0001
1000
,
0010
1000
0100
0010
0001
1000
0001
0100
0001
1000
0001
0010
0001
0100
0010
1000
,
0100
1000
0001
1000
0010
1000
0001
1000
0100
1000
0010
0100
0001
1000
0001
1000
,
0100
1000
0010
0100
0001
1000
0001
1000
0010
1000
0100
0010
0001
1000
0001
1000
,
0100
1000
0010
0100
0001
1000
0001
1000
0010
1000
0100
0010
0001
1000
0001
1000
,
0010
0100
0001
1000
0010
0100
0001
1000
0010
0100
0001
1000
0010
0100
0001
1000
,
0100
0010
0001
1000
0100
0010
0001
1000
0100
0010
0001
1000
0100
0010
0001
1000
,
0001
0100
0001
1000
0001
0010
0001
1000
0010
1000
0100
1000
0001
0100
0010
0100
,
0001
0010
0001
1000
0001
0100
0001
1000
0100
1000
0010
1000
0001
0010
0100
1000
,
0010
1000
0001
1000
0100
1000
0001
0100
0001
0010
0001
1000
0001
1000
0100
1000
,
0010
1000
0001
1000
0100
1000
0001
0100
0001
1000
0100
1000
0001
0100
0001
1000
,
0001
0100
0001
1000
0001
0010
0001
1000
0010
1000
0100
1000
0001
0100
0010
0100
,
0001
0010
0001
1000
0001
0100
0001
1000
0100
1000
0010
1000
0001
0010
0100
1000
,
0001
0100
0010
1000
0001
0010
0100
0000
1000
0010
0100
0001
1000
0100
0010
0000
,
0001
0100
0010
1000
0001
0010
0100
0000
1000
0010
0100
0001
1000
0100
0010
0000
,
0001
1000
0010
0100
0001
1000
0001
1000
0010
1000
0100
0010
0001
1000
0001
1000
,
0100
1000
0010
0100
0001
1000
0001
1000
0010
1000
0100
0010
0001
1000
0001
1000
,
0100
1000
0010
0100
0001
1000
0001
0010
0001
1000
0001
0100
0001
0010
0100
1000
,
0010
1000
0001
1000
0100
1000
0001
1000
0010
1000
0100
0010
0001
1000
0001
1000
,
0010
1000
0100
0010
0001
1000
0001
1000
0100
1000
0010
0100
0001
1000
0001
1000
,
0010
1000
0100
0010
0001
1000
0001
1000
0100
1000
0010
0100
0001
1000
0001
1000
,
0100
0010
0001
1000
0100
0010
0001
1000
0100
0010
0001
1000
0100
0010
0001
1000
,
0010
0100
0001
1000
0010
0100
0001
1000
0010
0100
0001
1000
0010
0100
0001
1000
,
0100
0000
0000
0M00
0001
0000
1000
0000
0000
0000
0001
0000
0100
0000
0000
0M00
1000
0000
0001
0000
0000
0000
1000
0000
,
0100
0000
0000
0M00
0001
0000
1000
0000
0000
0000
0001
0000
2022
0000
0000
3033
0000
0000
2022
0000
0000
3033
0000
0000
,
0001
1000
0001
1000
0010
1000
0001
0010
0001
0100
0001
1000
0001
1000
0010
1000
,
0100
1000
0001
1000
0010
1000
0001
0010
0001
0100
0001
1000
0001
1000
0010
1000
,
0001
0010
0001
1000
0001
0100
0001
1000
0100
1000
0010
1000
0001
0010
0100
0010
,
0001
0100
0001
1000
0001
0010
0001
1000
0010
1000
0100
1000
0001
0100
0010
1000
,
0001
0000
1000
0001
0000
1000
0100
0000
1000
0001
0000
0001
,
0100
0000
0000
0000
0001
0000
1000
0000
0000
0000
0001
0000
2022
0000
0000
3033
0000
0000
2022
0000
0000
3033
0000
0000
,
0001
1000
0010
0100
0001
1000
0001
1000
0010
1000
0100
0010
0001
1000
0001
1000
,
0100
1000
0010
0100
0001
1000
0001
1000
0010
1000
0100
0010
0001
1000
0001
1000
,
0100
1000
0010
0100
0001
1000
0001
0010
0001
1000
0001
0100
0001
0010
0100
1000
,
0010
1000
0001
1000
0100
1000
0001
1000
0010
1000
0100
0010
0001
1000
0001
1000
,
0010
1000
0100
0010
0001
1000
0001
1000
0100
1000
0010
0100
0001
1000
0001
1000
,
0010
1000
0100
0010
0001
1000
0001
1000
0100
1000
0010
0100
0001
1000
0001
1000
,
0100
0010
0001
1000
0100
0010
0001
1000
0100
0010
0001
1000
0100
0010
0001
1000
,
0010
0100
0001
1000
0010
0100
0001
1000
0010
0100
0001
1000
0010
0100
0001
1000
,
0001
0010
0001
1000
0001
0100
0001
1000
0100
1000
0010
1000
0001
0010
0100
0010
,
0001
0100
0001
1000
0001
0010
0001
1000
0010
1000
0100
1000
0001
0100
0010
1000
,
0100
1000
0001
1000
0010
1000
0001
0010
0001
0100
0001
1000
0001
1000
0010
1000
,
0100
1000
0001
1000
0010
1000
0001
0010
0001
1000
0010
1000
0001
0010
0001
1000
,
0001
0010
0001
1000
0001
0100
0001
1000
0100
1000
0010
1000
0001
0010
0100
0010
,
0001
0100
0001
1000
0001
0010
0001
1000
0010
1000
0100
1000
0001
0100
0010
1000
,
0001
0010
0100
1000
0001
0100
0010
0000
1000
0100
0010
0001
1000
0010
0100
0000
,
0001
0010
0100
1000
0001
0100
0010
0000
1000
0010
0100
0001
1000
0100
0010
0000
,
0001
0000
0001
0000
0010
0000
0100
1000
0100
1000
0001
0000
0010
0000
0001
1000
,
0100
0000
0100
0000
0010
0000
0100
1000
0100
1000
0001
0000
1001
0000
0000
0000
,
1000
0000
1000
0000
0010
0000
0100
0001
0100
0001
1000
0000
0010
0000
1000
0001
,
0100
0000
0100
0000
0001
0000
0010
0001
0010
0001
1000
0000
1001
0000
0000
0000
,
0001
0000
0001
0000
1000
0000
0010
0100
0010
1000
0001
0000
1001
0000
0000
0000
,
1000
0000
1000
0000
0001
0000
0010
0100
0010
0001
1000
0000
1001
0000
0000
0000
,
0001
0000
0001
0000
1000
0000
0010
0100
0010
1000
0001
0000
1001
0000
0000
0000
,
1000
0000
1000
0000
0100
0000
0010
0001
1000
0001
0010
0000
0110
0000
0000
0000
,
0001
0000
0001
0000
1000
0000
0010
0100
0010
0100
0001
0000
1000
0000
0001
0100
,
0010
0000
0010
0000
0100
0000
0010
1000
0010
1000
0001
0000
1001
0000
0000
0000
,
1000
0000
1000
0000
0001
0000
0010
0100
0010
0100
1000
0000
0001
0000
1000
0100
,
0010
0000
0010
0000
0001
0000
0100
0001
0100
0001
1000
0000
1001
0000
0000
0000
,
0001
0000
0001
0000
1000
0000
0100
0010
0100
1000
0001
0000
1001
0000
0000
0000
,
1000
0000
1000
0000
0001
0000
0100
0010
0100
0001
1000
0000
1001
0000
0000
0000
,
0001
0000
0001
0000
1000
0000
0100
0010
0100
1000
0001
0000
1001
0000
0000
0000
,
0001
0000
0001
0000
0100
0000
0010
1000
0000
1000
0001
0000
1001
0000
0000
0000
,
1000
0000
1000
0000
0100
0000
0010
0001
0010
0001
1000
0000
0100
0000
1000
0001
,
0010
0000
0010
0000
0100
0000
0010
0001
0010
0001
1000
0000
1001
0000
0000
0000
,
0001
0000
0001
0000
0100
0000
0010
1000
0010
1000
0001
0000
0100
0000
0001
1000
,
0010
0000
0010
0000
1000
0000
0100
1000
0100
1000
0001
0000
1001
0000
0000
0000
,
1000
0000
1000
0000
0001
0000
0100
0010
0100
0001
1000
0000
1001
0000
0000
0000
,
0001
0000
0001
0000
1000
0000
0100
0010
0100
1000
0001
0000
1001
0000
0000
0000
,
1000
0000
1000
0000
0001
0000
0100
0010
0100
0001
1000
0000
1001
0000
0000
0000
,
0001
0000
0001
0000
0010
0000
0100
1000
0001
1000
0100
0000
0110
0000
0000
0000
,
1000
0000
1000
0000
0001
0000
0100
0010
0100
0010
1000
0000
0001
0000
1000
0010
,
0100
0000
0100
0000
0010
0000
0100
0001
0100
0001
1000
0000
1001
0000
0000
0000
,
0001
0000
0001
0000
1000
0000
0100
0010
0100
0010
0001
0000
1000
0000
0001
0010
,
0100
0000
0100
0000
1000
0000
0010
1000
0010
1000
0001
0000
1001
0000
0000
0000
,
1000
0000
1000
0000
0001
0000
0010
0100
0010
0001
1000
0000
1001
0000
0000
0000
,
0001
0000
0001
0000
1000
0000
0010
0100
0010
1000
0001
0000
1001
0000
0000
0000
,
1000
0000
1000
0000
0001
0000
0010
0100
0010
0001
1000
0000
1001
0000
0000
0000
,
1000
0000
1000
0000
0010
0000
0100
0001
0000
0001
1000
0000
1001
0000
0000
0000
,
0001
0000
0000
0001
0000
0000
1000
0000
0000
0100
0000
0000
0010
0000
0000
0100
,
0010
0000
0000
0000
0100
0000
0000
0100
0000
0000
1000
0000
0010
0000
0000
0000
,
1000
0000
0000
1000
0000
0000
0001
0000
0000
0100
0000
0000
0010
0000
0000
0100
,
0010
0000
0000
0000
,
0001
0000
0000
0001
0000
0000
1000
0000
0000
0010
0000
0000
0100
0000
0000
0010
,
0100
0000
0000
0000
0010
0000
0000
0010
0000
0000
1000
0000
0100
0000
0000
0000
,
1000
0000
0000
1000
0000
0000
0001
0000
0000
0010
0000
0000
0100
0000
0000
0010
,
0100
0000
0000
0000
,
1000
0001
1000
0001
,
1000
0001
1000
0001
,
1000
0001
1000
0001
1000
0001
1000
0001
,
1000
0001
1000
0001
1000
0001
1000
0001
,
1000
0100
0010
0001
1000
0100
0010
0001
1000
0010
0100
0001
1000
0010
0100
0001
,
4000
0004
0000
0000
0000
0000
0000
0000
0000
0000
0000
0000
0000
0000
0000
0000
0000
0000
0000
0000
0000
3003
0000
0000
,
1100
0000
0000
1000
0100
1000
0010
0000
0000
1000
0100
1000
0001
0000
0000
1000
,
0010
1000
0100
0000
0000
1000
0010
1000
0001
0000
0100
0001
0010
0100
1000
0001
,
0100
0001
0010
0100
1000
0001
1000
0001
0010
0001
0100
0010
1000
0001
1000
0001
,
0100
0001
0010
0100
1000
0001
1000
0001
0010
0001
0100
0010
1000
0001
1000
0001
,
0100
0001
0010
0100
1000
0001
1000
0010
1000
0001
1000
0100
1000
0010
0100
0001
,
0010
0001
1000
0001
0100
0001
1000
0001
0010
0001
0100
0010
1000
0001
1000
0001
,
0010
0001
0100
0010
1000
0001
1000
0001
0100
0001
0010
0100
1000
0001
1000
0001
,
0010
0001
0100
0010
1000
0001
1000
0001
0100
0001
0010
0100
1000
0001
1000
0001
,
0100
0010
1000
0001
0100
0010
1000
0001
0100
0010
1000
0001
0100
0010
1000
0001
,
0010
0100
1000
0001
0010
0100
1000
0001
0010
0100
1000
0001
0010
0100
1000
0001
,
1000
0010
1000
0001
1000
0100
1000
0001
0100
0001
0010
0001
1000
0010
0100
0010
,
1000
0100
1000
0001
1000
0010
1000
0001
0010
0001
0100
0001
1000
0100
0010
0001
,
0100
0001
1000
0001
0010
0001
1000
0010
1000
0100
1000
0001
1000
0001
0010
0001
,
0100
0001
1000
0001
0010
0001
1000
0010
1000
0100
1000
0001
1000
0001
0010
0001
,
1000
0010
1000
0001
1000
0100
1000
0001
0100
0001
0010
0001
1000
0010
0100
0010
,
1000
0100
1000
0001
1000
0010
1000
0001
0010
0001
0100
0001
1000
0100
0010
0001
,
0100
0001
1000
0001
0010
0001
1000
0010
1000
0100
1000
0001
1000
0001
0010
0001
,
0100
0001
1000
0001
0010
0001
1000
0010
1000
0001
0010
0001
1000
0010
1000
0001
,
0100
0001
0010
0100
1000
0001
1000
0001
0010
0001
0100
0010
1000
0001
1000
0001
,
0100
0001
0010
0100
1000
0001
1000
0001
0010
0001
0100
0010
1000
0001
1000
0001
,
0100
0001
0010
0100
1000
0001
1000
0010
1000
0001
1000
0100
1000
0010
0100
0001
,
0010
0001
1000
0001
0100
0001
1000
0001
0010
0001
0100
0010
1000
0001
1000
0001
,
0010
0001
0100
0010
1000
0001
1000
0001
0100
0001
0010
0100
1000
0001
1000
0001
,
0010
0001
0100
0010
1000
0001
1000
0001
0100
0001
0010
0100
1000
0001
1000
0001
,
0100
0010
1000
0001
0100
0010
1000
0001
0100
0010
1000
0001
0100
0010
1000
0001
,
0010
0100
1000
0001
0010
0100
1000
0001
0010
0100
1000
0001
0010
0100
1000
0001
,
1000
0010
1000
0001
1000
0100
1000
0001
0100
0001
0010
0001
1000
0010
0100
0010
,
1000
0100
1000
0001
1000
0010
1000
0001
0010
0001
0100
0001
1000
0100
0010
0001
,
0100
0001
1000
0001
0010
0001
1000
0010
1000
0100
1000
0001
1000
0001
0010
0001
,
0100
0001
1000
0001
0010
0001
1000
0010
1000
0001
0010
0001
1000
0010
1000
0001
,
1000
0010
1000
0001
1000
0100
1000
0001
0100
0001
0010
0001
1000
0010
0100
0010
,
1000
0100
1000
0001
1000
0010
1000
0001
0010
0001
0100
0001
1000
0100
0010
0001
,
1000
0010
0100
0001
1000
0100
0010
0000
0001
0100
0010
1000
0001
0010
0100
0000
,
1000
0100
0010
0001
1000
0010
0100
0000
0001
0010
0100
1000
0001
0100
0010
0000
,
1000
0001
0100
0010
1000
0001
1000
0001
0100
0001
0010
0100
1000
0001
1000
0001
,
0010
0001
0100
0010
1000
0001
1000
0001
0100
0001
0010
0100
1000
0001
1000
0001
,
0010
0001
0100
0010
1000
0001
1000
0100
1000
0001
1000
0010
1000
0100
0010
0001
,
0100
0001
1000
0001
0010
0001
1000
0001
0100
0001
0010
0100
1000
0001
1000
0001
,
0100
0001
0010
0100
1000
0001
1000
0001
0010
0001
0100
0010
1000
0001
1000
0001
,
0100
0001
0010
0100
1000
0001
1000
0001
0010
0001
0100
0010
1000
0001
1000
0001
,
0010
0100
1000
0001
0010
0100
1000
0001
0010
0100
1000
0001
0010
0100
1000
0001
,
0100
0010
1000
0001
0100
0010
1000
0001
0100
0010
1000
0001
0100
0010
1000
0001
,
1000
0100
1000
0001
1000
0010
1000
0001
0010
0001
0100
0001
1000
0100
0010
0100
,
1000
0010
1000
0001
1000
0100
1000
0001
0100
0001
0010
0001
1000
0010
0100
0001
,
0010
0001
1000
0001
0100
0001
1000
0100
1000
0010
1000
0001
1000
0001
0100
0001
,
0010
0001
1000
0001
0100
0001
1000
0100
1000
0010
1000
0001
1000
0001
0100
0001
,
1000
0100
1000
0001
1000
0010
1000
0001
0010
0001
0100
0001
1000
0100
0010
0100
,
1000
0010
1000
0001
1000
0100
1000
0001
0100
0001
0010
0001
1000
0010
0100
0001
,
0020
0000
0000
0000
,
0200
0000
0000
0000
,
0330
000M
00M0
0M00
M000
000M
00M0
0M00
,
M000
000M
00M0
0M00
M000
000M
00M0
0M00
,
M000
000M
00M0
0M00
M000
000M
00M0
0M00
,
M000
000M
00M0
0M00
M000
000M
00M0
0M00
,
M000
000M
00M0
0M00
M000
000M
00M0
0M00
,
M000
0000
0000
0000
;
