#TITLE:Beethoven Virus;
#SUBTITLE:;
#ARTIST:Banya;
#TITLETRANSLIT:;
#SUBTITLETRANSLIT:;
#ARTISTTRANSLIT:;
#CREDIT:;
#BANNER:beethovenvirus-bn.png;
#BACKGROUND:beethovenvirus-bg.png;
#LYRICSPATH:;
#CDTITLE:!Dan23!.png;
#MUSIC:Beethoven Virus.mp3;
#OFFSET:-0.210;
#SAMPLESTART:41.537;
#SAMPLELENGTH:12.000;
#SELECTABLE:YES;
#BPMS:0.000=162.000;
#STOPS:;
#BGCHANGES:;
// cache tags:
#FIRSTBEAT:12.000;
#LASTBEAT:262.500;
#SONGFILENAME:Songs/Fresh Flock of Fantastic Files F4/(Dan23) Beethoven Virus/Beethoven Virus.sm;
#HASMUSIC:1;
#HASBANNER:1;
#MUSICLENGTH:100.192;
// end cache tags

//---------------dance-single - ----------------
#NOTES:
     dance-single:
     :
     Hard:
     11:
     1.000,1.000,0.938,0.040,1.000,699.000,94.000,4.000,0.000,0.000:
0000
0000
0000
0000
,
0000
0000
0000
0000
,
0000
0000
0000
0000
,
1001
0000
1100
0000
0101
1001
0110
1010
,
1001
0000
0001
0000
0110
0000
0010
0100
0010
0000
1000
0000
1100
0000
0001
0010
,
0001
0000
1000
0000
1100
0000
0001
0000
0101
0000
1000
0010
0100
0001
0010
0100
,
1001
1000
1100
0001
0101
1000
0110
0010
,
1010
0000
1000
0010
0100
0000
0001
0000
1000
0000
0010
0000
0001
0100
0010
1000
,
0001
0000
1000
0000
0010
0000
0100
0000
1001
0000
1000
0000
0100
0010
0001
1000
,
0010
0000
0100
0000
0001
0000
1000
0000
0110
0000
1000
0000
0001
0010
0100
1000
,
0001
0000
1000
0000
0100
0000
1000
0010
1000
0000
0001
0000
0100
0000
0010
1000
,
0100
0000
0010
0000
0001
0000
0100
0000
1010
0000
0001
0100
0001
1000
0010
0100
,
1001
0000
0100
0000
0010
0000
1000
0100
1000
0000
0100
0000
0010
0000
0001
0100
,
0001
0000
1000
0000
1100
0000
0001
0000
0101
0000
1000
0100
0010
0100
1000
0001
,
0110
0001
1100
0001
0101
1000
1001
0100
,
1100
0000
0010
0100
0001
0000
1000
0000
1100
0000
0001
0000
1000
0100
1000
0100
,
0010
0000
0001
0000
0100
0000
0010
0000
1100
0000
0001
0000
0010
0100
0010
0100
,
1000
0000
0010
0000
0100
0000
0001
0000
1001
0000
0100
0000
1000
0010
0100
0010
,
1000
0000
0001
0000
0100
0000
0010
1000
0001
0000
0010
0000
0100
0000
1000
0001
,
1000
0000
0100
0000
0010
0000
0001
0000
1000
0000
0010
0100
0010
0100
0010
0100
,
1001
0010
0100
0001
0010
0100
1000
0010
0100
0001
1000
0100
1000
0001
0100
0001
,
1000
0100
0010
0001
0100
0010
1000
0001
0010
0001
0100
0010
0100
0001
1000
0100
,
1000
0010
0100
0001
0010
0100
1000
0010
0100
0001
0100
0001
0010
0100
1000
0010
,
0100
0001
1000
0100
1000
0100
0010
0001
0100
0010
0100
0001
1000
0100
0010
0001
,
0100
0010
1000
0100
1000
0100
0010
0001
0100
0010
1000
0100
0010
0100
1000
0001
,
0100
0010
0100
0001
0010
0100
1000
0100
0010
0001
0100
0010
0100
0001
1000
0010
,
0100
0001
1000
0100
0010
0001
0100
0010
1000
0100
1000
0001
0010
0100
1000
0010
,
0100
0001
1000
0100
0010
0001
0010
0100
1000
0100
0010
0001
0100
0010
1000
0100
,
1001
0000
0100
0000
1000
0000
0010
0100
0001
0000
1000
0000
1100
0000
0010
0000
,
0001
0010
0100
1000
0010
0100
0001
1000
0100
0010
0001
0100
0010
0100
0001
1000
,
0100
0000
0010
0000
0011
0000
0001
0010
0100
0000
1000
0000
1100
0000
0010
0000
,
0100
0001
0010
0100
1000
0100
0010
0001
0100
0010
0100
0001
1000
0100
0010
0001
,
0100
0000
0010
0000
1010
0000
0001
0100
0001
0010
0100
1000
0010
0100
0001
1000
,
0100
0000
0010
0001
0010
0000
0100
1000
0100
0000
0010
0000
0011
0000
0100
0000
,
1001
0000
0010
0000
0100
0000
0001
1000
0001
0000
1000
0000
1100
0000
0001
0000
,
1000
0100
1000
0100
0010
0001
0010
0001
0100
0010
1000
0001
0010
0100
1000
0001
,
1100
0000
0010
0100
0001
0000
1000
0100
1000
0000
0100
0010
0001
0000
1100
0000
,
0101
0000
1000
0010
0100
0000
0001
0010
0100
0000
1000
0100
0010
0000
0011
0000
,
1001
0000
0100
0010
0100
0000
1000
0010
0100
0000
0001
0010
0100
0000
1001
0000
,
0110
0001
1000
0100
0010
0001
0100
0010
1000
0100
1000
0001
0010
0100
1000
0001
,
0110
0000
1000
0010
0100
0000
0001
0010
0100
0000
1000
0001
0100
0000
1010
0000
,
0101
0000
1000
0100
0010
0000
0001
0010
0001
0000
0100
0010
1000
0000
0011
0000
,
0101
1000
0010
0100
0001
1000
0100
1000
0010
0100
0001
0010
0100
1000
0001
0100
,
1010
0101
1001
0110
2002
0000
0000
3003
,
0110
0000
1100
0000
0101
1010
0101
1001
,
0110
0000
0001
1000
0101
0000
0100
0000
1100
0000
0010
0100
1001
0000
0100
0000
,
0101
0000
0010
0100
0110
0000
1000
0000
1010
0000
0001
0010
0100
1000
0001
0100
,
1010
0001
0101
1000
1001
0100
0110
0001
,
1100
0000
0100
0010
0001
0000
1000
0000
1100
0000
0001
0000
0100
0010
0100
0010
,
0100
0000
0010
0000
1000
0000
0001
0000
1100
0000
0010
0000
0100
0001
0100
0001
,
0100
0000
0010
0000
1000
0000
0001
0000
0110
0000
1000
0000
0001
0010
0100
1000
,
0001
0000
1000
0000
0100
0000
0010
0001
0010
0000
0100
0000
1000
0000
0010
0100
,
0010
0000
0100
0000
0001
0000
1000
0000
0110
0000
0010
0100
0001
0010
0100
1000
,
0001
0000
1000
0100
0011
0000
0100
0000
0010
0000
0001
0010
1100
0000
0100
0000
,
1001
0000
0010
0100
1001
0000
0100
0000
1100
0000
0010
0100
0001
0100
0010
1000
,
0101
0001
1001
1000
1100
0010
0110
0001
,
1001
0000
0100
1000
0100
0000
0010
0000
0001
0000
1000
0000
0100
0010
0001
0010
,
0100
0000
1000
0000
0010
0000
0100
0000
1001
0000
0100
0000
0010
1000
0001
0100
,
0010
0000
1000
0000
0010
0000
0100
0000
1001
0000
0100
0000
1000
0100
1000
0100
,
0010
0000
0001
0000
0100
0000
0010
0100
0001
0000
1000
0000
0100
0000
0010
0001
,
1000
0000
0010
0000
0100
0000
0001
0000
1000
0000
0100
0010
0001
0010
0100
1000
,
1001
0000
0010
0000
0100
0000
0001
0000
1100
0000
0010
0000
0100
0001
0010
0100
,
1000
0000
0001
0000
0100
0000
0001
0000
1100
0000
0010
0000
0100
0001
1000
0100
,
0010
0000
0001
0000
0100
0000
0010
1000
0001
0000
1000
0000
0100
0000
0010
0001
,
1000
0000
0100
0000
0010
0000
0001
0000
1000
0100
0010
0001
0100
0010
1000
0001
,
0220
0000
0000
0000
0000
0330
0000
0000
;
