#TITLE:Final Battle;
#SUBTITLE:banjo-kazooie;
#ARTIST:Rareware;
#TITLETRANSLIT:;
#SUBTITLETRANSLIT:;
#ARTISTTRANSLIT:;
#CREDIT:;
#BANNER:finalbattle-bn.png;
#BACKGROUND:finalbattle-bg.png;
#LYRICSPATH:;
#CDTITLE:kyka06.png;
#MUSIC:FinalBattle.mp3;
#OFFSET:-0.340;
#SAMPLESTART:59.647;
#SAMPLELENGTH:12.500;
#SELECTABLE:YES;
#BPMS:0.000=180.010,64.000=182.010,72.000=180.010,148.000=179.010,156.000=180.010,180.000=90.005,206.000=180.010,214.000=89.005,218.000=178.010,226.000=91.005,238.000=178.010,254.000=89.005,258.000=91.005,270.000=178.010,286.000=182.010,294.000=180.010,326.000=90.005,374.000=180.010;
#STOPS:;
#BGCHANGES:;
// cache tags:
#FIRSTBEAT:0.000;
#LASTBEAT:438.000;
#SONGFILENAME:Songs/longs versions/BK - Final Battle/Final Battle.sm;
#HASMUSIC:1;
#HASBANNER:1;
#MUSICLENGTH:190.275;
// end cache tags

//---------------dance-single - ----------------
#NOTES:
     dance-single:
     :
     Hard:
     12:
     0.914,1.000,0.646,0.226,1.000,1051.000,123.000,43.000,0.000,0.000:
0001
0000
0001
0010
0001
0010
0001
0000
0010
1000
0010
1000
,
0010
0000
1000
0100
1000
0100
1000
0000
0001
1000
0001
1000
,
0101
1010
1010
0110
,
0101
0011
0110
1100
,
0011
0000
1000
0100
0010
0001
0100
0000
0010
1000
0000
0100
,
0010
0000
0001
0100
0010
1000
0100
0000
0000
0010
0000
0000
,
0001
0000
0100
0010
1000
0100
0010
0000
0001
1000
0000
0010
,
1000
0000
0100
0010
0001
0100
0010
0000
0000
0000
0000
0000
,
1000
0000
0100
0010
0001
0100
0010
0000
1000
0100
0000
0010
,
1000
0000
0100
1000
0000
0010
0100
0000
0001
0010
0000
0100
,
1000
0000
0100
0001
1000
0010
0100
0000
1000
0010
0000
0100
,
0001
0010
0100
1000
0100
0010
0001
0010
0100
1000
0010
0100
,
0001
0000
0010
0100
1000
0010
0100
0000
0001
0010
0000
0100
,
1000
0000
0010
0100
0000
0010
1000
0000
0001
0010
0000
0100
,
1000
0000
0010
0100
0001
0010
0100
0000
1000
0010
0000
0100
,
0001
1000
0010
1000
0001
0010
0100
1000
0010
0100
0001
0010
,
0100
0000
1000
0001
0100
0010
1000
0000
0001
0010
0000
0100
,
1000
0000
0010
0100
0001
0010
0100
0000
0000
1001
0000
0000
,
0010
0000
0100
0001
0010
0100
1000
0000
0010
0100
0000
0001
,
0010
0000
0100
1000
0100
0010
0011
0000
0000
0000
0000
0000
,
1100
0000
0010
0100
0001
0010
0100
0000
0100
1000
0000
0010
,
1000
0000
0001
0100
0000
1000
0001
0000
0100
0010
0000
1000
,
0001
0000
1000
0010
0100
0001
0010
0000
0100
1000
0000
0010
,
0100
0001
0010
0100
1000
0010
1000
0010
0100
0001
0010
0001
,
0011
0000
0100
0010
1000
0100
0010
0000
0010
0001
0000
0100
,
0001
0000
1000
0010
0000
0001
0100
0000
0010
0100
0000
0001
,
1000
0000
0001
0100
0010
1000
0100
0000
0010
0001
0000
0100
,
0010
1000
0100
0010
0001
0100
0001
0100
0010
1000
0100
1000
,
0010
0000
0000
0110
0000
1000
0001
0000
0000
0110
0000
0001
,
0010
0000
0000
0110
0000
1000
0001
0000
0000
0001
0100
0010
,
1000
0000
0000
0011
0000
0100
0001
0000
0000
1100
0000
0000
,
0010
0000
0100
0001
0000
0010
0200
0000
0000
0000
0000
0300
,
1000
0000
0000
0110
0000
0001
1000
0000
0000
0110
0000
1000
,
0100
0000
0000
0110
0000
0001
1000
0000
0000
1000
0010
0100
,
0001
0000
0000
1100
0000
0010
1000
0000
0000
0011
0000
0000
,
0100
0000
0010
1000
0000
0100
0010
0000
0000
0100
0000
0000
,
0001
0000
0000
0110
0000
1000
0001
0000
0000
0110
0000
0001
,
0010
0000
0000
0110
0000
1000
0001
0000
0000
0001
0100
0010
,
1000
0000
0000
0011
0000
0100
0001
0000
0000
1100
0000
0000
,
0010
0000
0100
0001
0000
0010
0200
0000
0000
0000
0000
0300
,
1000
0000
0000
0110
0000
0001
1000
0000
0000
0110
0000
1000
,
0100
0000
0000
0110
0000
0001
1000
0000
0000
1000
0010
0100
,
0001
0000
0000
1100
0000
0010
1000
0000
0000
0011
0000
0000
,
0100
0000
0010
1000
0000
0100
0010
0000
0000
1000
0000
0000
,
0001
0000
0100
0010
0000
1000
0001
0000
0000
0010
0000
0000
,
1001
0000
0000
0011
0011
0000
0000
1010
,
1010
0000
0000
0101
0101
0000
1001
0000
,
0011
0000
0000
0110
0110
0000
0000
1100
,
1100
0000
0000
0011
0011
0000
1001
0000
,
1010
0000
0000
0011
0011
0000
0000
1001
,
1001
0110
1001
0011
,
0220
0000
0000
0000
0000
0000
0000
0330
0001
0010
0001
0010
0001
0010
0001
0010
,
0001
0010
0001
0010
0001
0010
0001
0010
0001
0010
0001
0010
0001
0010
0001
0010
,
0001
0010
0001
0010
0001
0010
0001
0010
0001
0000
0000
0000
0000
0000
0110
0000
,
0110
0000
0000
0000
0000
0000
0011
0000
1000
0100
1000
0100
1000
0100
1000
0100
,
1000
0100
1000
0100
1000
0100
1000
0100
1000
0100
1000
0100
1000
0100
1000
0100
,
1000
0100
1000
0100
1000
0100
1000
0100
1000
0000
0000
0000
0000
0000
0110
0000
,
0110
0000
0000
1001
1001
0000
0110
1100
,
0011
0000
0000
0101
0011
0000
0000
0000
0000
0000
0000
0000
1010
0000
0011
0000
,
0110
0000
0000
0000
0000
0000
0000
0000
0000
0000
0000
0000
0011
0000
0000
0000
0000
0000
0110
0000
0000
1100
0000
0000
1001
0000
0000
0000
0000
0000
0000
0000
0000
0000
0000
0000
0010
0000
0000
0000
0100
0000
0000
0000
0001
0000
0000
0000
,
0200
0000
0000
0000
0000
0000
0320
0000
0000
1030
0100
0010
,
0002
0000
0000
0000
0000
0000
0203
0000
0000
0310
0100
0010
,
0200
0000
0000
0000
0000
0000
0302
0000
0000
1003
0100
1000
,
0200
0000
0000
0000
0000
0000
0000
0000
0000
0000
0000
0000
0000
0000
0000
0000
0000
0000
0000
0000
0300
0000
0000
0000
1001
0000
0000
0000
0000
0000
0000
0000
0000
0000
0000
0000
0022
0000
0000
0000
0000
0000
0000
0000
0000
0033
0000
0000
,
0110
0000
0000
0000
2200
0000
0000
3300
1001
0000
0000
0000
2002
0000
0000
3003
,
0011
0000
0000
0000
0220
0000
0000
0330
1001
0000
0000
0000
2200
0000
0000
3300
,
0110
0000
0000
0000
0022
0000
0000
0033
1001
0000
0000
0000
2002
0000
0000
3003
,
1100
0000
0000
0000
0220
0000
0000
0330
0001
0010
0001
0010
0001
0010
0001
0010
,
0001
0010
0001
0010
0001
0010
0001
0010
0001
0010
0001
0010
0001
0010
0001
0010
,
0001
0010
0001
0010
0001
0010
0001
0010
0001
0010
0001
0010
0001
0010
0001
0010
,
0001
0000
0000
0010
0000
0000
0001
0000
0000
0010
0000
0000
0001
0000
0000
0010
0000
0000
0001
0000
0000
0010
0000
0000
0001
0000
0010
0000
0001
0000
0010
0000
0001
0000
0010
0000
0001
0000
0010
0000
0001
0000
0010
0000
0001
0000
0010
0000
,
0001
0000
0010
0000
0001
0000
0010
0000
0001
0000
0010
0000
0001
0000
0010
0000
0001
0000
0010
0000
0001
0000
0010
0000
0001
0000
0000
0010
0000
0000
0001
0000
0000
0010
0000
0000
0001
0000
0000
0010
0000
0000
0001
0000
0000
0010
0000
0000
,
0001
0010
0001
0010
0001
0010
0001
0010
0001
0010
0001
0010
0001
0010
0001
0010
,
0001
0010
0001
0010
0001
0010
0001
0010
0001
0010
0001
0010
0001
0010
0001
0010
,
0001
0000
0000
0010
0000
0000
0001
0000
0000
0010
0000
0000
0001
0000
0000
0010
0000
0000
0001
0000
0000
0010
0000
0000
0001
0000
0010
0000
0001
0000
0010
0000
0001
0000
0010
0000
0001
0000
0010
0000
0001
0000
0010
0000
0001
0000
0010
0000
,
0001
0010
0001
0010
0001
0010
0001
0010
0001
0010
0001
0010
0001
0010
0001
0010
0001
0010
0001
0010
0001
0010
0001
0010
,
0001
0010
0001
0010
0001
0010
0001
0010
0001
0010
0001
0010
0001
0010
0001
0010
0001
0010
0001
0010
0001
0010
0001
0010
,
0001
0010
0001
0010
0001
0010
0001
0010
0001
0010
0001
0010
0001
0010
0001
0010
0001
0010
0001
0010
0001
0010
0001
0010
,
0001
0010
0001
0010
0001
0010
0001
0010
0001
0010
0001
0010
0001
0010
0001
0010
0001
0010
0001
0010
0001
0010
0001
0010
,
0001
0010
0001
0010
0001
0010
0001
0010
0001
0010
0001
0010
0001
0010
0001
0010
0001
0010
0001
0010
0001
0010
0001
0010
,
0001
0010
0001
0010
0001
0010
0001
0010
0001
0010
0001
0010
0001
0010
0001
0010
0001
0010
0001
0010
0001
0010
0001
0010
,
0001
0010
0001
0010
0001
0010
0001
0010
0001
0010
0001
0010
1001
0000
0000
0000
0000
0000
0101
0000
0000
0000
0000
0000
,
0101
1100
0101
0110
,
1010
0000
0101
0000
2001
3000
0210
0300
,
0012
0003
1200
0300
0021
0030
1002
0003
,
1200
0300
0021
0030
1001
0100
0011
0100
,
1010
0100
1010
0001
1100
0010
1100
0100
,
1001
0010
0011
0100
0110
1000
1001
0010
,
1001
0000
0000
0100
0000
0000
0011
0000
0000
0010
0000
0000
1000
0100
1000
0100
1000
0100
1000
0100
1000
0100
1000
0100
,
1000
0000
0000
0000
0000
0000
0000
0000
0100
0000
0000
0000
0000
0000
0000
0000
1000
0000
0000
0000
0000
0000
0000
0000
0100
0000
0000
0000
0000
0000
0000
0000
1000
0000
0000
0000
0000
0000
0000
0000
0100
0000
0000
0000
0000
0000
0000
0000
1000
0000
0000
0000
0000
0000
0000
0000
0100
0000
0000
0000
0000
0000
0000
0000
1000
0000
0000
0000
0000
0000
0000
0000
0100
0000
0000
0000
0000
0000
0000
0000
1000
0000
0000
0000
0000
0000
0000
0000
0100
0000
0000
0000
0000
0000
0000
0000
1001
0000
0000
0000
0000
0000
0000
0000
0000
0000
0000
0000
0001
0000
0000
0000
0000
0000
0010
0000
0000
0000
0000
0000
0001
0000
0000
0000
0000
0000
0010
0000
0000
0000
0000
0000
0001
0000
0000
0000
0000
0000
0010
0000
0000
0000
0000
0000
0002
0000
0000
0000
0000
0000
0000
0000
0000
0000
0000
0000
0000
0000
0000
0000
0000
0000
0000
0000
0000
0000
0000
0000
0000
0000
0000
0000
0000
0000
0000
0000
0000
0000
0000
0000
0000
0000
0000
0000
0000
0000
0003
0000
0000
0000
0000
0000
,
1000
0000
0010
0100
0010
0100
0010
0100
0020
0000
0000
0000
0000
0000
0000
0030
0001
0000
0010
0001
0010
0001
0010
0001
0020
0000
0000
0000
0000
0000
0030
0000
,
1000
0000
0001
0010
0001
0010
0001
0010
0002
0000
0000
0000
0000
0000
0000
0003
1000
0000
1000
0100
1000
0010
1000
0100
2000
0000
0000
0000
0000
0000
0000
3000
,
0001
0000
0010
0001
0100
0001
0010
0001
0200
0000
0000
0000
0000
0000
0000
0300
1000
0000
0100
1000
0100
1000
0100
1000
0200
0000
0000
0000
0000
0000
0300
0000
,
0001
0000
0000
0000
0000
0000
0000
0000
0000
0000
0000
0000
1000
0000
0000
0000
0000
0000
0100
0000
0000
0000
0000
0000
1000
0000
0000
0000
0000
0000
0100
0000
0000
0000
0000
0000
1000
0000
0000
0000
0000
0000
0010
0000
0000
0000
0000
0000
0200
0000
0000
0000
0000
0000
0000
0000
0000
0000
0000
0000
0000
0000
0000
0000
0000
0000
0000
0000
0000
0000
0000
0000
0000
0000
0000
0000
0000
0000
0000
0000
0000
0000
0000
0000
0000
0000
0000
0000
0000
0000
0300
0000
0000
0000
0000
0000
1100
0000
0000
0000
0000
0000
0000
0000
0000
0000
0000
0000
0000
0000
0000
0000
0000
0000
0000
0000
0000
0000
0000
0000
0000
0000
0000
0000
0000
0000
0000
0000
0001
0000
0000
0000
0000
0000
0000
0000
0000
0000
0000
0000
0000
0000
0000
0000
0010
0000
0000
0000
0000
0000
0000
0000
0000
0000
0000
0000
0000
0000
0000
0000
0100
0000
0000
0000
0000
0000
0000
0000
0000
0000
0000
0000
0000
0000
0000
0000
1000
0000
0000
0000
0000
0000
0000
0000
0000
0000
0000
0000
0000
0000
0000
0000
,
0010
0000
0100
0001
0000
0010
0100
0000
1000
0010
0100
0001
,
0010
0000
0000
0100
0000
0000
1000
0000
0010
0100
0001
0010
,
0100
0000
1000
0001
0000
0100
0001
0000
0010
0100
1000
0010
,
0100
0000
0000
0000
0000
0000
0001
0000
0010
0100
1000
0010
,
0100
0000
0001
0010
0000
0100
0001
0000
0010
0001
0000
0100
,
0010
0000
1000
0100
0000
0010
0001
0000
0010
1000
0001
0100
,
0010
0000
0001
0100
0000
0010
1000
0100
0010
0001
0010
0100
,
1000
0100
0010
0001
0100
0010
1000
0000
0100
0010
0001
0100
,
0010
0000
1000
0100
0000
0010
0001
0000
0100
0010
0000
0100
,
0001
0000
1000
0100
0000
0010
0001
0000
0100
0010
1000
0100
,
0010
0000
0001
0100
0000
0010
1000
0001
0100
0001
1000
0100
,
0010
0001
0100
0010
1000
0100
0010
1000
0100
0010
0001
0100
,
0010
1000
0100
1000
0010
1000
0100
1000
0010
0100
0001
0010
,
0100
1000
0010
0100
0001
1000
0001
0000
0000
0000
0000
0000
,
0001
0000
0010
0100
0010
0100
0010
0000
1000
0010
1000
0010
,
1000
0000
0100
0001
0100
0001
0100
0000
0000
0000
0000
0000
;

//---------------dance-single - ----------------
#NOTES:
     dance-single:
     :
     Medium:
     8:
     0.528,0.719,0.273,0.158,0.452,621.000,52.000,30.000,0.000,0.000:
0010
0000
0010
0000
0010
0000
0001
0000
0001
0000
0001
0000
,
0010
0000
0010
0000
0010
0000
1000
0000
1000
0000
1000
0000
,
0001
1000
0010
0100
,
0001
0010
0010
1000
,
0001
0100
0100
1000
,
0010
0100
0100
0010
,
0001
0010
0010
1000
,
1000
0000
0000
0010
1000
0001
0010
0000
0000
0000
0000
0000
,
1000
0010
0010
0100
,
1000
1000
0100
0010
,
1000
0001
0100
0010
,
0001
1000
0001
1000
0001
1000
0001
1000
0001
1000
0001
1000
,
0001
0100
0100
0010
,
1000
0100
1000
0010
,
1000
0100
0100
0010
,
0001
0010
0100
1000
0100
0010
0001
0010
0100
1000
0100
0010
,
0001
0001
1000
0010
,
1000
0100
0100
1001
,
0010
0001
1000
0100
,
0010
1000
0011
0000
,
1100
0100
0100
1000
,
1000
0100
0001
0010
,
0001
0010
0010
1000
,
0100
0010
0001
0100
0010
1000
0001
1000
0001
1000
0001
1000
,
0100
0010
0010
0001
,
0001
0010
0100
0100
,
1000
0100
0100
0001
,
0010
1000
0010
1000
0001
0100
0001
1000
0010
1000
0100
0010
,
0001
0110
0000
0110
,
0000
0110
0000
0101
,
0000
0011
0000
1100
,
0000
0101
0000
0110
,
0000
0110
0000
0110
,
0000
0110
0000
1010
,
0000
1100
0000
0011
,
0000
1010
0000
1100
,
0000
0110
0000
0110
,
0000
0110
0000
0101
,
0000
0011
0000
1100
,
0000
0101
0000
1001
,
0000
0110
0000
0110
,
0000
0110
0000
1001
,
0000
1100
0000
0011
,
0000
1010
0000
1010
,
0000
0110
0000
0110
,
1001
0000
0000
0001
0010
0000
0000
0010
,
1000
0000
0000
0100
0001
0000
0100
0000
,
0011
0000
0000
0010
0100
0000
0000
1000
,
0100
0000
0000
0010
0001
0000
1000
0000
,
1010
0000
0000
0001
0010
0000
0000
1000
,
0001
0100
0001
0001
,
0220
0000
0000
0000
0000
0000
0000
0330
0001
0000
1000
0000
0001
0000
1000
0000
,
0001
1000
0001
1000
0001
1000
0001
1000
,
0001
1000
0001
1000
0001
0000
0000
0100
,
0010
0000
0000
0001
1000
0001
1000
0001
,
1000
0001
1000
0001
1000
0001
1000
0001
,
1000
0001
1000
0001
1000
0000
0000
0100
,
0010
0000
0000
1000
0001
0000
0100
0001
,
0010
0000
0000
0100
0001
0000
0000
0000
0000
0000
0000
0000
1000
0000
0010
0000
,
0100
0000
0000
0000
0000
0000
0000
0000
0000
0000
0000
0000
0010
0000
0000
0000
0000
0000
0100
0000
0000
0001
0000
0000
1000
0000
0000
0000
0000
0000
0000
0000
0000
0000
0000
0000
0010
0000
0000
0000
0100
0000
0000
0000
0010
0000
0000
0000
,
0200
0000
0000
0000
0000
0000
0300
0000
0000
1000
0001
1000
,
0002
0000
0000
0000
0000
0000
0003
0000
0000
0010
0100
0010
,
0200
0000
0000
0000
0000
0000
0300
0000
0000
1000
0100
1000
,
0200
0000
0000
0000
0000
0300
2000
0000
0000
3002
0000
0000
,
0023
0230
2300
3002
,
0203
0320
0032
0203
,
0320
0032
0203
2300
,
3020
0000
0230
0000
1300
0001
1000
0001
,
1000
0001
1000
0001
1000
0001
1000
0001
,
1000
0001
1000
0010
1000
0010
1000
0010
,
1000
0000
0000
0010
0000
0000
1000
0000
0000
0010
0000
0000
1000
0000
0100
0000
1000
0000
0100
0000
1000
0000
0100
0000
,
1000
0000
0100
0000
1000
0000
0100
0000
1000
0000
0100
0000
1000
0000
0000
0001
0000
0000
1000
0000
0000
0001
0000
0000
,
1000
0001
1000
0001
1000
0001
1000
0001
,
1000
0001
1000
0010
1000
0010
1000
0010
,
1000
0000
0000
0010
0000
0000
1000
0000
0000
0010
0000
0000
1000
0000
0100
0000
1000
0000
0100
0000
1000
0000
0100
0000
,
1000
0100
1000
0100
1000
0100
1000
0100
1000
0100
1000
0100
,
1000
0100
1000
0100
1000
0100
1000
0100
1000
0100
1000
0100
,
1000
0100
1000
0100
1000
0100
1000
0100
1000
0100
1000
0100
,
1000
0100
1000
0100
1000
0100
1000
0100
1000
0100
1000
0100
,
1000
0100
1000
0100
1000
0100
1000
0100
1000
0100
1000
0100
,
1000
0100
1000
0100
1000
0100
1000
0100
1000
0100
1000
0100
,
1000
0000
0100
0000
1000
0000
0100
0000
1000
0000
0100
0000
1000
0000
0000
0001
0000
0000
0100
0000
0000
0001
0000
0000
,
0100
0001
0100
0001
0100
0001
0100
0010
,
1000
0010
0100
0001
1001
0000
0110
0000
,
0011
1100
0011
1001
,
1100
0000
0011
0000
1000
0001
0010
0001
,
1000
0010
1000
0010
1000
0100
1000
0100
,
1000
0001
0010
0001
0100
0010
1000
0001
,
1000
0000
0000
0001
0000
0000
0010
0000
0000
0001
0000
0000
1000
0000
0100
0000
1000
0000
0100
0000
1000
0000
0100
0000
,
1000
0000
0000
0000
0000
0000
0000
0000
0000
0000
0000
0000
0000
0000
0000
0000
0100
0000
0000
0000
0000
0000
0000
0000
0000
0000
0000
0000
0000
0000
0000
0000
1000
0000
0000
0000
0000
0000
0000
0000
0000
0000
0000
0000
0000
0000
0000
0000
0100
0000
0000
0000
0000
0000
0000
0000
0000
0000
0000
0000
0000
0000
0000
0000
1000
0000
0000
0000
0000
0000
0000
0000
0000
0000
0000
0000
0000
0000
0000
0000
0100
0000
0000
0000
0000
0000
0000
0000
0000
0000
0000
0000
0000
0000
0000
0000
1001
0000
0000
0000
0000
0000
0000
0000
0000
0000
0000
0000
0010
0000
0000
0000
0000
0000
0000
0000
0000
0000
0000
0000
0000
0000
0000
0000
0000
0000
0000
0000
0000
0000
0000
0000
0000
0000
0000
0000
0000
0000
0000
0000
0000
0000
0000
0000
0002
0000
0000
0000
0000
0000
0000
0000
0000
0000
0000
0000
0000
0000
0000
0000
0000
0000
0000
0000
0000
0000
0000
0000
0000
0000
0000
0000
0000
0000
0000
0000
0000
0000
0000
0000
0000
0000
0000
0000
0000
0000
0003
0000
0000
0000
0000
0000
,
1000
0000
0010
0000
0000
0000
0000
0000
0020
0000
0000
0000
0000
0000
0000
0030
0001
0000
1000
0000
0000
0000
0000
0000
0020
0000
0000
0000
0000
0000
0030
0000
,
1000
0000
0010
0000
0000
0000
0000
0000
0002
0000
0000
0000
0000
0000
0000
0003
1000
0000
0100
0000
0000
0000
0000
0000
2000
0000
0000
0000
0000
0000
0000
3000
,
0001
0000
0010
0000
0000
0000
0000
0000
0200
0000
0000
0000
0000
0000
0000
0300
1000
0000
0010
0000
0000
0000
0000
0000
0200
0000
0000
0000
0000
0000
0300
0000
,
0001
0000
1000
0000
0000
0000
0000
0000
0200
0000
0000
0000
0000
0000
0000
0300
1100
0000
0000
0000
0000
0000
0000
0000
0010
0000
0000
0000
0000
0000
0000
0000
,
0010
0001
0100
0010
,
0010
0100
1000
0100
,
0100
0000
0000
0001
0000
0000
0001
0000
0000
0100
0010
0100
,
0100
0000
0001
0100
,
0100
0010
0001
0001
,
0010
0100
0001
1000
,
0010
0000
0000
0100
0000
0000
1000
0100
0010
0001
0010
0100
,
1000
0100
0010
0001
0010
0100
1000
0000
0000
0010
0000
0000
,
0010
0100
0001
0010
,
0001
0100
0001
0010
,
0010
0000
0000
0100
0000
0000
1000
0100
0010
0001
0010
0100
,
1000
0100
0010
0001
0010
0100
1000
0100
0010
0001
0010
0100
,
1000
0100
0010
0001
0010
0100
1000
0100
0010
0001
0010
0100
,
1000
0100
0010
0001
0010
0100
1000
0000
0000
0000
0000
0000
,
0001
0000
0001
0000
0001
0000
0010
0000
0010
0000
0010
0000
,
1000
0000
1000
0000
1000
0000
0101
0000
0000
0000
0000
0000
;

//---------------dance-single - ----------------
#NOTES:
     dance-single:
     :
     Challenge:
     13:
     0.953,1.000,0.804,0.226,1.000,1073.000,153.000,43.000,0.000,0.000:
1000
0000
1000
0100
0010
1000
0010
0000
0100
0001
0010
1000
,
0100
0000
0001
0010
0100
0010
1000
0000
1000
0100
0001
1000
,
1010
0101
0101
0110
,
1010
1100
0110
0011
,
1100
0000
0001
0010
0100
1000
0010
0000
0100
0001
0000
0010
,
0100
0000
1000
0010
0100
0001
0010
0000
0000
0100
0000
0000
,
1000
0000
0010
0100
0001
0010
0100
0000
1000
0001
0000
0100
,
0001
0000
0010
0100
1000
0010
0100
0000
0000
0000
0000
0000
,
0001
0000
0010
0100
1000
0010
0100
0000
0001
0010
0000
0100
,
0001
0000
0010
0001
0000
0100
0010
0000
1000
0100
0000
0010
,
0001
0000
0010
1000
0001
0100
0010
0000
0001
0100
0000
0010
,
1000
0100
0010
0001
0010
0100
1000
0100
0010
0001
0100
0010
,
1000
0000
0100
0010
0001
0100
0010
0000
1000
0100
0000
0010
,
0001
0000
0100
0010
0000
0100
0001
0000
1000
0100
0000
0010
,
0001
0000
0100
0010
1000
0100
0010
0000
0001
0100
0000
0010
,
1000
0001
0100
0001
1000
0100
0010
0001
0100
0010
1000
0100
,
0010
0000
0001
1000
0010
0100
0001
0000
1000
0100
0000
0010
,
0001
0000
0100
0010
1000
0100
0010
0000
0000
1001
0000
0000
,
0100
0000
0010
1000
0100
0010
0001
0000
0100
0010
0000
1000
,
0100
0000
0010
0001
0010
0100
1100
0000
0000
0000
0000
0000
,
0011
0000
0100
0010
1000
0100
0110
0000
0010
0011
0000
0100
,
0101
0000
1000
0110
0000
0001
1100
0000
0010
0110
0000
0001
,
1100
0000
0001
0100
0010
1000
0100
0000
0010
0001
0000
0100
,
0010
1000
0100
0010
0001
0100
0001
0100
0010
1000
0100
1000
,
1100
0000
0010
0100
0001
0010
0110
0000
0100
1100
0000
0010
,
1010
0000
0001
0110
0000
1000
0011
0000
0100
0110
0000
1000
,
0011
0000
1000
0010
0100
0001
0010
0000
0100
1000
0000
0010
,
0100
0001
0010
0100
1000
0010
1000
0010
0100
0001
0010
0001
,
1000
0000
0000
0110
0000
0001
1000
0000
0000
0110
0000
1000
,
0100
0000
0000
0110
0000
0001
1000
0000
0000
1000
0010
0100
,
0001
0000
0000
1100
0000
0010
1000
0000
0000
0011
0000
0000
,
0100
0000
0010
1000
0000
0100
0020
0000
0000
0000
0000
0030
,
0001
0000
0000
0110
0000
1000
0001
0000
0000
0110
0000
0001
,
0010
0000
0000
0110
0000
1000
0001
0000
0000
0001
0100
0010
,
1000
0000
0000
0011
0000
0100
0001
0000
0000
1100
0000
0000
,
0010
0000
0100
0001
0000
0010
0100
0000
0000
0010
0000
0000
,
1000
0000
0000
0110
0000
0001
1000
0000
0000
0110
0000
1000
,
0100
0000
0000
0110
0000
0001
1000
0000
0000
1000
0010
0100
,
0001
0000
0000
1100
0000
0010
1000
0000
0000
0011
0000
0000
,
0100
0000
0010
1000
0000
0100
0020
0000
0000
0000
0000
0030
,
0001
0000
0000
0110
0000
1000
0001
0000
0000
0110
0000
0001
,
0010
0000
0000
0110
0000
1000
0001
0000
0000
0001
0100
0010
,
1000
0000
0000
0011
0000
0100
0001
0000
0000
1100
0000
0000
,
0010
0000
0100
0001
0000
0010
0100
0000
0000
0001
0000
0000
,
1000
0000
0010
0100
0000
0001
1000
0000
0000
0100
0000
0000
,
1001
0000
0000
1100
0110
0000
0000
0101
,
1001
0000
0000
1010
0110
0000
1001
0000
,
1100
0000
0000
0110
0101
0000
0000
0011
,
1100
0000
0000
1100
0110
0000
1001
0000
,
0101
0000
0000
1100
0110
0000
0000
1001
,
1100
0110
1001
1100
,
0220
0000
0000
0000
0000
0000
0000
0330
1000
0100
0010
0001
1000
0100
0010
0001
,
1000
0100
0010
0001
1000
0100
0010
0001
1000
0100
0010
0001
1000
0100
0010
0001
,
1000
0100
0010
0001
1000
0100
0010
0001
1000
0000
0000
0000
0000
0000
1001
0000
,
0110
0000
0000
0000
0000
0000
1100
0000
0001
0010
0100
1000
0001
0010
0100
1000
,
0001
0010
0100
1000
0001
0010
0100
1000
0001
0010
0100
1000
0001
0010
0100
1000
,
0001
0010
0100
1000
0001
0010
0100
1000
0001
0000
0000
0000
0000
0000
1010
0000
,
0110
0000
0000
0101
1001
1000
0110
0011
,
1100
0000
0010
1010
1100
0000
0100
0000
0001
0000
1000
0000
0101
0000
1100
0000
,
0110
0000
0000
0000
0000
0000
0001
0000
0000
0000
0000
0000
1100
0000
0000
0000
0000
0000
0110
0000
0000
0011
0000
0000
1001
0000
0000
0000
0000
0000
0000
0000
0000
0000
0000
0000
0100
0000
0000
0000
0010
0000
0000
0000
1000
0000
0000
0000
,
0020
0000
0000
0000
0000
0000
0230
0000
0000
0301
0010
0100
,
2000
0000
0000
0000
0000
0000
3020
0000
0000
0130
0010
0100
,
0020
0000
0000
0000
0000
0000
2030
0000
0000
3001
0010
0001
,
0020
0000
0000
0000
0000
0000
0000
0000
0000
0000
0000
0000
0000
0000
0000
0000
0000
0000
0000
0000
0030
0000
0000
0000
1001
0000
0000
0000
0000
0000
0000
0000
0000
0000
0000
0000
2200
0000
0000
0000
0000
0000
0000
0000
0000
3300
0000
0000
,
0110
0000
0000
0000
0022
0000
0000
0033
1001
0000
0000
0000
2002
0000
0000
3003
,
1100
0000
0000
0000
0220
0000
0000
0330
1001
0000
0000
0000
0022
0000
0000
0033
,
0110
0000
0000
0000
2200
0000
0000
3300
1001
0000
0000
0000
2002
0000
0000
3003
,
0011
0000
0000
0000
0220
0000
0000
0330
1000
0100
0010
0001
1000
0100
0010
0001
,
1000
0100
0010
0001
1000
0100
0010
0001
1000
0100
0010
0001
1000
0100
0010
0001
,
1000
0100
0010
0001
1000
0100
0010
0001
1000
0100
0010
0001
1000
0100
0010
0001
,
1000
0000
0000
0100
0000
0000
0010
0000
0000
0001
0000
0000
1000
0000
0000
0100
0000
0000
0010
0000
0000
0001
0000
0000
1000
0000
0100
0000
0010
0000
0001
0000
1000
0000
0100
0000
0010
0000
0001
0000
1000
0000
0100
0000
0010
0000
0001
0000
,
1000
0000
0100
0000
0010
0000
0001
0000
1000
0000
0100
0000
0010
0000
0001
0000
1000
0000
0100
0000
0010
0000
0001
0000
0100
0000
0000
0001
0000
0000
1000
0000
0000
0010
0000
0000
0100
0000
0000
0001
0000
0000
1000
0000
0000
0010
0000
0000
,
0100
0001
1000
0010
0100
0001
1000
0010
0100
0001
1000
0010
0100
0001
1000
0010
,
0100
0001
1000
0010
0100
0001
1000
0010
0100
0001
1000
0010
0100
0001
1000
0010
,
0100
0000
0000
0001
0000
0000
1000
0000
0000
0010
0000
0000
0100
0000
0000
0001
0000
0000
1000
0000
0000
0010
0000
0000
0100
0000
0001
0000
1000
0000
0010
0000
0100
0000
0001
0000
1000
0000
0010
0000
0100
0000
0001
0000
1000
0000
0010
0000
,
0100
0001
1000
0010
0100
0001
1000
0010
0100
0001
1000
0010
0100
0001
1000
0010
0100
0001
1000
0010
0100
0001
1000
0010
,
0100
0001
1000
0010
0100
0001
1000
0010
0100
0001
1000
0010
0100
0001
1000
0010
0100
0001
1000
0010
0100
0001
1000
0010
,
0100
0001
1000
0010
0100
0001
1000
0010
0100
0001
1000
0010
0100
0001
1000
0010
0100
0001
1000
0010
0100
0001
1000
0010
,
0100
0001
1000
0010
0100
0001
1000
0010
0100
0001
1000
0010
0100
0001
1000
0010
0100
0001
1000
0010
0100
0001
1000
0010
,
0100
0001
1000
0010
0100
0001
1000
0010
0100
0001
1000
0010
0100
0001
1000
0010
0100
0001
1000
0010
0100
0001
1000
0010
,
0100
0001
1000
0010
0100
0001
1000
0010
0100
0001
1000
0010
0100
0001
1000
0010
0100
0001
1000
0010
0100
0001
1000
0010
,
0100
0001
1000
0010
0100
0001
1000
0010
0100
0001
1000
0010
1001
0000
0000
0100
0000
0000
1010
0000
0000
0100
0000
0000
,
1010
0100
0011
0100
1010
1000
0110
0010
,
0101
0100
1010
0100
1002
0103
0120
0130
,
2100
3100
0021
0031
1200
1300
2001
3010
,
0021
0130
1200
0301
1001
0110
1100
0011
,
0101
1010
0101
1100
0011
0101
0011
0110
,
1001
0110
1100
0011
0110
0101
1001
0110
,
1001
0000
0000
0110
0000
0000
1100
0000
0000
0110
0000
0000
1000
0100
0001
1000
0010
0001
1000
0100
0001
1000
0010
0001
,
1000
0000
0000
0000
0000
0000
0000
0000
0100
0000
0000
0000
0000
0000
0000
0000
0001
0000
0000
0000
0000
0000
0000
0000
0100
0000
0000
0000
0000
0000
0000
0000
1000
0000
0000
0000
0000
0000
0000
0000
0010
0000
0000
0000
0000
0000
0000
0000
0001
0000
0000
0000
0000
0000
0000
0000
0010
0000
0000
0000
0000
0000
0000
0000
1000
0000
0000
0000
0000
0000
0000
0000
0100
0000
0000
0000
0000
0000
0000
0000
0010
0000
0000
0000
0000
0000
0000
0000
0001
0000
0000
0000
0000
0000
0000
0000
1001
0000
0000
0000
0000
0000
0000
0000
0000
0000
0000
0000
1000
0000
0000
0000
0000
0000
0100
0000
0000
0000
0000
0000
0010
0000
0000
0000
0000
0000
0001
0000
0000
0000
0000
0000
1000
0000
0000
0000
0000
0000
0100
0000
0000
0000
0000
0000
0020
0000
0000
0000
0000
0000
0000
0000
0000
0000
0000
0000
0000
0000
0000
0000
0000
0000
0000
0000
0000
0000
0000
0000
0000
0000
0000
0000
0000
0000
0000
0000
0000
0000
0000
0000
0000
0000
0000
0000
0000
0000
0000
0000
0000
0000
0000
0000
,
1030
0000
0001
0010
0100
0010
0001
0010
0200
0000
0000
0000
0000
0000
0000
0300
1000
0000
0100
1000
0100
1000
0100
1000
0200
0000
0000
0000
0000
0000
0300
0000
,
0011
0000
1000
0100
1000
0100
0010
0001
0200
0000
0000
0000
0000
0000
0000
0300
0101
0000
0001
0010
1000
0100
0001
0010
2000
0000
0000
0000
0000
0000
0000
0000
,
3001
0000
0100
1000
0010
1000
0100
1000
0020
0000
0000
0000
0000
0000
0000
0030
0001
0000
0010
0001
0010
0001
0010
0001
0020
0000
0000
0000
0000
0000
0030
0000
,
1100
0000
0000
0000
0000
0000
0000
0000
0000
0000
0000
0000
0001
0000
0000
0000
0000
0000
0010
0000
0000
0000
0000
0000
0001
0000
0000
0000
0000
0000
0010
0000
0000
0000
0000
0000
1000
0000
0000
0000
0000
0000
0100
0000
0000
0000
0000
0000
0020
0000
0000
0000
0000
0000
0000
0000
0000
0000
0000
0000
0000
0000
0000
0000
0000
0000
0000
0000
0000
0000
0000
0000
0000
0000
0000
0000
0000
0000
0000
0000
0000
0000
0000
0000
0000
0000
0000
0000
0000
0000
0030
0000
0000
0000
0000
0000
0011
0000
0000
0000
0000
0000
0000
0000
0000
0000
0000
0000
0000
0000
0000
0000
0000
0000
0000
0000
0000
0000
0000
0000
0000
0000
0000
0000
0000
0000
0000
0000
1000
0000
0000
0000
0000
0000
0000
0000
0000
0000
0000
0000
0000
0000
0000
0000
0100
0000
0000
0000
0000
0000
0000
0000
0000
0000
0000
0000
0000
0000
0000
0000
0010
0000
0000
0000
0000
0000
0000
0000
0000
0000
0000
0000
0000
0000
0000
0000
0001
0000
0000
0000
0000
0000
0000
0000
0000
0000
0000
0000
0000
0000
0000
0000
,
0100
0000
0010
1000
0000
0100
0010
0000
0001
0100
0010
1000
,
0100
0000
0000
0010
0000
0000
0001
0000
0100
0010
1000
0100
,
0010
0000
0001
1000
0000
0010
1000
0000
0100
0010
0001
0100
,
0010
0000
0000
0000
0000
0000
1000
0000
0100
0010
0001
0100
,
0010
0000
1000
0100
0000
0010
1000
0000
0100
1000
0000
0010
,
0100
0000
0001
0010
0000
0100
1000
0000
0100
0001
1000
0010
,
0100
0000
1000
0010
0000
0100
0001
0010
0100
1000
0100
0010
,
0001
0010
0100
1000
0010
0100
0001
0000
0010
0100
1000
0010
,
0100
0000
0001
0010
0000
0100
1000
0000
0010
0100
0000
0010
,
1000
0000
0001
0010
0000
0100
1000
0000
0010
0100
0001
0010
,
0100
0000
1000
0010
0000
0100
0001
1000
0010
1000
0001
0010
,
0100
1000
0010
0100
0001
0010
0100
0001
0010
0100
1000
0010
,
0100
0001
0010
0001
0100
0001
0010
0001
0100
0010
1000
0100
,
0010
0001
0100
0010
1000
0001
1000
0000
0000
0000
0000
0000
,
1000
0000
0100
0010
0001
0100
0010
0000
1000
0100
0010
0001
,
0100
0000
0010
1000
0100
0010
1001
0000
0000
0000
0000
0000
;

//---------------dance-single - ----------------
#NOTES:
     dance-single:
     :
     Easy:
     6:
     0.369,0.489,0.121,0.158,0.000,438.000,23.000,30.000,0.000,0.000:
0101
0000
1010
0000
,
0110
0000
1001
0000
,
1010
0001
0100
0010
,
1000
0100
0100
0001
,
1000
0010
0010
0001
,
0100
0010
0010
0100
,
1000
0100
0100
0001
,
0001
0100
0100
0000
,
0001
0100
0100
0010
,
0001
0001
0010
0100
,
0001
1000
0010
0100
,
1000
0001
1000
0001
,
1000
0010
0010
0100
,
0001
0010
0001
0100
,
0001
0010
0010
0100
,
1000
0001
1000
0001
,
1000
1000
0001
0100
,
0001
0010
0010
1001
,
0100
1000
0001
0010
,
0100
0001
1100
0000
,
0011
0010
0010
0001
,
0001
0010
1000
0100
,
1000
0100
0100
0001
,
0010
0010
1000
0001
,
0010
0100
0100
1000
,
1000
0100
0010
0010
,
0001
0010
0010
1000
,
0100
0001
1000
0001
,
1000
0010
0000
0100
,
0000
0010
0000
1000
,
0000
0100
0000
0001
,
0000
1000
0000
0010
,
0000
0100
0000
0010
,
0000
0100
0000
0001
,
0000
0010
0000
1000
,
0000
0001
0000
0001
,
0000
0010
0000
0100
,
0000
0010
0000
0010
,
0000
1000
0000
0001
,
0000
1000
0000
0001
,
0000
0100
0000
0010
,
0000
0100
0000
0001
,
0000
0010
0000
1000
,
0000
0100
0000
0001
,
0000
0100
0000
0010
,
1100
0000
0110
0000
,
1001
0000
1000
0010
,
1100
0000
0110
0000
,
0011
0000
1000
0001
,
0101
0000
0101
0000
,
1000
0010
1000
1000
,
0220
0000
0000
0000
0000
0000
0000
0330
1000
0000
0000
0000
0001
0000
0000
0000
,
1000
0001
1000
0001
,
1000
0001
1000
0000
,
0110
0000
0001
1000
,
0001
1000
0001
1000
,
0001
1000
0001
0010
,
0100
1000
1000
0010
,
0100
1000
0001
0001
,
0010
0100
0001
0100
,
0020
0000
0030
0001
,
2000
0000
3000
0100
,
0020
0000
0030
0001
,
0020
0000
0000
0000
0000
0030
0002
0000
0000
2003
0000
0000
,
3200
0320
0032
2003
,
3020
0230
2300
3020
,
0230
2300
3020
0032
,
0203
0320
0031
1000
,
0001
0100
0001
0010
,
0100
1000
0001
0100
,
0010
0000
0100
0000
0001
1000
0010
1000
,
0001
1000
0010
1000
0001
0000
0100
0000
,
1000
0010
0100
0001
,
1000
0001
0100
0010
,
0001
0000
1000
0000
0001
1000
0010
1000
,
0001
1000
0010
1000
0001
1000
0010
1000
,
0001
1000
0010
1000
0001
1000
0010
1000
,
0001
1000
0010
1000
0001
1000
0010
1000
,
0001
1000
0010
1000
0001
1000
0010
1000
,
0001
1000
0010
1000
0001
1000
0010
1000
,
0001
1000
0010
1000
0001
1000
0010
1000
,
0001
1000
0010
1000
0001
0000
1000
0000
,
0001
1000
0001
1000
,
0001
0010
0001
0100
,
1000
0001
1000
1000
,
0001
0000
0001
1000
0001
0100
0001
0010
,
0001
0100
0001
1000
0001
0100
0001
0010
,
0001
0100
0001
1000
0001
0100
0001
0010
,
0001
0100
0001
1000
0001
0100
0001
0010
,
0001
0000
0000
0000
0100
0000
0000
0000
0001
0000
0000
0000
1000
0000
0000
0000
0001
0000
0000
0000
0000
0000
0000
0000
2000
0000
0000
0000
0000
0000
0000
3000
,
0001
0000
0000
0000
0000
0000
0000
0000
0200
0000
0000
0000
0000
0000
0000
0300
1000
0000
0000
0000
0000
0000
0000
0000
0200
0000
0000
0000
0000
0000
0300
0000
,
0001
0000
0000
0000
0000
0000
0000
0000
2000
0000
0000
0000
0000
0000
0000
3000
0001
0000
0000
0000
0000
0000
0000
0000
0002
0000
0000
0000
0000
0000
0000
0003
,
1000
0000
0000
0000
0000
0000
0000
0000
0020
0000
0000
0000
0000
0000
0000
0030
0001
0000
0000
0000
0000
0000
0000
0000
0020
0000
0000
0000
0000
0000
0030
0000
,
1000
0000
0000
0000
0000
0000
0000
0000
0020
0000
0000
0000
0000
0000
0000
0030
0011
0000
0000
0000
0000
0000
0000
0000
0100
0000
0000
0000
0000
0000
0000
0000
,
0100
1000
0010
0100
,
0100
0010
0001
0010
,
0010
1000
1000
0010
,
0010
0000
1000
0010
,
0010
0100
1000
1000
,
0100
0010
1000
0001
,
0100
0010
0001
1000
,
0001
1000
0001
0100
,
0100
0010
1000
0100
,
1000
0010
1000
0100
,
0100
0000
0010
0000
0001
1000
0001
1000
,
0001
1000
0001
1000
0001
1000
0001
1000
,
0001
1000
0001
1000
0001
1000
0001
1000
,
0001
1000
0001
1000
0001
0000
0000
0000
,
0101
0000
1100
0000
,
0011
0000
1010
0000
;
