#TITLE:Vertex α;
#SUBTITLE:;
#ARTIST:Silvia;
#TITLETRANSLIT:Vertex Alpha;
#SUBTITLETRANSLIT:;
#ARTISTTRANSLIT:;
#CREDIT:;
#BANNER:bn.png;
#BACKGROUND:bg.png;
#LYRICSPATH:;
#CDTITLE:cdtitle.png;
#MUSIC:vertex_alpha.mp3;
#OFFSET:-1.600;
#SAMPLESTART:84.000;
#SAMPLELENGTH:15.000;
#SELECTABLE:YES;
#BPMS:0.000=180.000,320.000=90.000,352.000=180.000;
#STOPS:415.000=2.660
;
#BGCHANGES:;
// cache tags:
#FIRSTBEAT:0.000;
#LASTBEAT:679.000;
#SONGFILENAME:Songs/toune 3/Vertex_alpha/vertex_alpha.sm;
#HASMUSIC:1;
#HASBANNER:1;
#MUSICLENGTH:249.188;
// end cache tags

//---------------dance-single - ----------------
#NOTES:
     dance-single:
     :
     Challenge:
     8:
     0.597,0.579,0.229,0.185,0.024,939.000,57.000,46.000,0.000,0.000:
2000
0000
0000
0000
,
0000
0000
3200
0000
,
0320
0000
0000
0000
,
0000
0000
0032
0000
,
0203
0000
0000
0000
,
0000
0000
0302
0000
,
2003
0000
0000
0000
,
0002
0000
0000
3003
,
0010
0010
1000
1000
,
0100
0100
0001
0001
,
0010
0010
0001
0001
,
0100
0100
1000
1000
,
0010
1000
0100
1000
,
0010
0001
0100
0001
,
1000
0100
0001
1001
,
0001
0100
1000
1001
,
1001
0100
0000
0010
0000
0001
0000
0100
,
0000
1000
0000
0010
0000
0100
0001
0010
,
0000
1000
0000
0100
0000
1000
0000
0001
,
0000
0100
0000
0010
0000
0001
1000
0100
,
0000
0010
0000
1000
0000
0001
0000
0010
,
0000
0001
0000
0100
0000
1000
0000
0001
,
0000
0010
0000
1000
0000
0100
0000
0001
,
0000
0100
0000
0001
0000
1000
0000
0110
,
1000
0100
1000
0001
0000
0001
1000
0010
,
1000
0100
1000
0001
1000
0010
0100
0010
,
1000
0001
1000
0100
0000
0100
0010
0001
,
1000
0010
1000
0100
0010
0001
0100
0001
,
0001
0010
0100
1000
0000
1000
0010
0100
,
0010
1000
0100
1000
0001
0100
0001
0010
,
0001
0100
0010
1000
0001
0010
0100
1000
,
0001
0001
0100
0100
0010
0010
1001
0000
,
0100
0010
0001
0100
0001
0010
0100
0000
,
0100
0010
1000
0100
1000
0010
0100
0000
,
0001
0010
0100
0001
0100
0010
0001
0000
,
1000
0010
0100
1000
0100
0010
1000
0000
,
0001
1000
0100
0010
0100
1000
0001
0000
,
1000
0001
0010
0100
0010
0001
1000
0000
,
0010
0100
0100
0000
0010
0100
0100
0000
,
1000
0100
0010
0001
1000
1000
1000
1000
,
0010
0100
1000
0010
1000
0100
0010
0000
,
0010
0100
0001
0010
0001
0100
0010
0000
,
1000
0100
0010
1000
0010
0100
1000
0000
,
0001
0100
0010
0001
0010
0100
0001
0000
,
1000
0001
0010
0100
0010
0001
1000
0000
,
0001
1000
0100
0010
0100
1000
0001
0000
,
0100
0010
0010
0000
0100
0010
0010
0000
,
0001
0010
0100
1000
0001
0001
0001
0001
,
1000
0100
0010
0001
0100
1000
0001
0000
,
0100
0001
0010
0100
0001
1000
0010
0000
,
0001
0100
0010
1000
0100
0001
1000
0000
,
0100
1000
0010
0100
1000
0001
0010
0000
,
0100
0010
1000
0001
0010
1000
0100
0000
,
1000
0001
0100
0010
0001
1000
0100
0000
,
0010
1000
0001
0010
0100
0001
0001
0000
,
1000
0100
0001
0000
0010
0010
0010
0010
,
0001
0010
0100
1000
0010
0001
1000
0000
,
0010
1000
0100
0010
1000
0001
0100
0000
,
1000
0010
0100
0001
0010
1000
0001
0000
,
0010
0001
0100
0010
0001
1000
0100
0000
,
0010
0100
0001
1000
0100
0001
0010
0000
,
0001
1000
0010
0100
1000
0001
0010
0000
,
0100
0001
1000
0100
0010
1000
1000
0000
,
0001
0010
1000
0000
0100
0100
0100
0100
,
1000
1100
0010
0011
,
0001
0110
1100
1001
,
0001
0101
0010
1010
,
1000
0110
0101
1001
,
0100
0101
0010
0011
,
0100
1100
0001
1010
,
1001
1100
0011
1001
,
0110
0000
1001
0000
0100
0001
1001
0000
,
0001
0101
0010
1010
,
1000
0110
0101
1001
,
1000
1100
0010
0011
,
0001
0110
1100
1001
,
0100
1100
0010
1010
,
0100
0101
1000
0011
,
1001
0101
1010
1001
,
0110
0000
1001
0000
0100
1000
1001
0000
,
0100
0000
0000
0001
0000
0000
0010
0000
0001
0000
0000
1000
0000
0000
0100
0000
,
1000
0000
0000
0010
0000
0000
1000
0000
0002
0000
0000
0000
2003
0000
0000
0000
,
3001
0000
0000
0100
0000
0000
0001
0000
0010
0000
0000
0100
0000
0000
0010
0000
,
0100
0000
0000
1000
0000
0000
0001
0000
2000
0000
0000
0000
3020
0000
0000
0000
,
0130
0000
0000
1000
0000
0000
0010
0000
1000
0000
0000
0001
0000
0000
0010
0000
,
0010
0000
0000
1000
0000
0000
0100
0000
2000
0000
0000
0000
3002
0000
0000
0000
,
1003
0000
0000
0100
0000
0000
1000
0000
0010
0000
0000
0100
0000
0000
0010
0000
,
0100
0000
0000
0001
0000
0000
1000
0000
2002
0000
0000
0000
0000
0000
0000
3003
,
1000
0010
1000
0100
0000
0010
1000
0100
,
0000
1000
0001
0100
0000
1000
0001
0100
,
0000
0010
0001
0100
0000
0010
0001
0100
,
0000
0001
1000
0100
0000
0001
1000
0100
,
0000
1000
0010
0100
0000
1000
0010
0100
,
0000
0010
1000
0001
0000
0010
1000
0001
,
0000
0100
0010
1000
0000
0100
0010
1000
,
0000
0001
0010
0100
0001
0000
1001
0000
,
0001
0010
0001
0100
0000
0010
0001
0100
,
0000
0001
1000
0100
0000
0001
1000
0100
,
0000
0010
1000
0100
0000
0010
1000
0100
,
0000
1000
0001
0100
0000
1000
0001
0100
,
0000
0001
0010
0100
0000
0001
0010
0100
,
0000
0010
0001
1000
0000
0010
0001
1000
,
0000
0100
0010
0001
0000
0100
0010
0001
,
0000
1000
0010
0100
1000
0000
2002
3003
,
0010
1000
0100
1000
0010
0001
0010
0001
,
0010
1000
0100
1000
0001
0010
0001
0010
,
1000
0100
0010
0001
0100
0001
0010
0001
,
0100
1000
0010
0100
0010
0010
1001
0000
,
0010
0001
0100
0001
0010
1000
0010
1000
,
0010
0001
0100
0001
1000
0010
1000
0010
,
0001
0100
0010
1000
0100
1000
0010
1000
,
0100
0001
0010
0100
0010
0010
1001
0000
,
0100
0001
0010
0001
0100
1000
0100
1000
,
0100
0001
0010
0001
1000
0100
1000
0100
,
0001
0010
0100
1000
0010
1000
0100
1000
,
0010
0001
0100
0010
0100
0100
1001
0000
,
0100
1000
0010
1000
0100
0001
0100
0001
,
0100
1000
0010
1000
0001
0100
0001
0100
,
1000
0010
0100
0001
0010
0001
0100
0001
,
0010
1000
0100
0010
0100
0100
1001
0000
,
1000
0100
0010
0000
0010
0001
0100
0010
,
1000
0100
1000
0000
1000
0010
0100
0010
,
1000
0100
0001
0000
0001
0100
0010
0001
,
0100
0010
1000
0001
2000
0000
3100
0000
,
0001
0100
0010
0000
0010
1000
0100
0010
,
0001
0100
0001
0000
0001
0010
0100
0010
,
0001
0100
1000
0000
1000
0100
0010
1000
,
0100
0010
0001
1000
0002
0000
0103
0000
,
0001
0010
0100
0000
0100
1000
0010
0100
,
0001
0010
0001
0000
0001
0100
0010
0100
,
0001
0010
1000
0000
1000
0010
0100
1000
,
0010
0100
0001
1000
0002
0000
0013
0000
,
1000
0010
0100
0000
0100
0001
0010
0100
,
1000
0010
1000
0000
1000
0100
0010
0100
,
1000
0010
0001
0000
0001
0010
0100
0001
,
0010
0100
1000
0001
2000
0000
3010
0000
,
0001
0010
0001
1000
0000
1000
0001
0100
,
0001
0010
0001
1000
0001
0100
0010
0100
,
0001
1000
0001
0010
0000
0010
0100
1000
,
0001
0100
0001
0010
0100
1000
0010
1000
,
1000
0100
0010
0001
0000
0001
0100
0010
,
0100
0001
0010
0001
1000
0010
1000
0100
,
1000
0010
0100
0001
1000
0100
0010
0001
,
1000
1000
0010
0010
0100
0100
1001
0000
,
1000
0100
1000
0001
0000
0001
1000
0010
,
1000
0100
1000
0001
1000
0010
0100
0010
,
1000
0001
1000
0100
0000
0100
0010
0001
,
1000
0010
1000
0100
0010
0001
0100
0001
,
0001
0010
0100
1000
0000
1000
0010
0100
,
0010
1000
0100
1000
0001
0100
0001
0010
,
0001
0100
0010
1000
0001
0010
0100
1000
,
0001
0001
0100
0100
0010
0010
1001
0000
,
2000
0000
0000
0000
,
0002
0003
3020
0000
,
0230
0000
0000
0000
,
2000
3000
0302
0000
,
0023
0000
0000
0000
,
0200
0300
0032
0000
,
0203
0000
0000
0000
,
0020
0000
0300
0000
,
0032
0000
0000
0000
,
2000
3000
0203
0000
,
0320
0000
0000
0000
,
0002
0003
2030
0000
,
3200
0000
0000
0000
,
0020
0030
2300
0000
,
3020
0000
0000
0000
,
0200
0000
0000
0330
,
2002
0000
0000
0000
,
0000
0000
0000
3003
;
