#TITLE:Marble Gallery;
#SUBTITLE:Castlevania - Symphony of the night;
#ARTIST:Michiru Yamane/Remixed by The KB;
#TITLETRANSLIT:;
#SUBTITLETRANSLIT:;
#ARTISTTRANSLIT:;
#CREDIT:;
#BANNER:Marble Gallery.png;
#BACKGROUND:Marble Gallery-bg.png;
#LYRICSPATH:;
#CDTITLE:cdtitle4.png;
#MUSIC:Marble Gallery.mp3;
#OFFSET:-1.843;
#SAMPLESTART:23.400;
#SAMPLELENGTH:13.000;
#SELECTABLE:YES;
#DISPLAYBPM:200.000;
#BPMS:0.000=200.000,216.000=196.000,219.000=194.000,220.000=190.000,225.833=200.000,408.000=196.000,411.000=194.000,412.000=190.000;
#STOPS:;
#BGCHANGES:;
// cache tags:
#FIRSTBEAT:0.000;
#LASTBEAT:416.750;
#SONGFILENAME:Songs/VGMP 2/Marble Gallery (Linus)/Marble Gallery.sm;
#HASMUSIC:1;
#HASBANNER:1;
#MUSICLENGTH:130.990;
// end cache tags

//---------------dance-single - ----------------
#NOTES:
     dance-single:
     :
     Hard:
     12:
     1.000,1.000,0.992,0.405,1.000,821.000,130.000,53.000,0.000,14.000:
1002
0000
0000
1003
0000
0100
0000
0000
0100
0001
0000
0000
,
1000
0000
0000
0010
0000
0000
0102
0000
0000
1003
0000
0010
,
0000
0000
0010
0001
0000
0000
1000
0000
0000
0010
0000
0000
,
1002
0000
0000
1003
0000
0100
0000
0000
0100
0001
0000
0000
,
1000
0000
0000
0010
0000
0000
0102
0000
0000
1003
0000
0010
,
0000
0000
0010
0001
0000
0100
1100
0100
0100
0110
0001
0010
,
1100
0000
0000
0000
1000
0000
0010
0100
0001
0000
0001
0000
0100
0000
0000
0000
1000
0000
0010
0000
0100
0000
0010
0000
,
0000
0100
1000
0000
0001
0000
0001
0100
0001
0000
0100
0000
0010
0000
1000
0000
0001
0000
0010
0100
0010
0000
1000
0000
,
1000
0000
0100
0000
0010
0000
0001
0000
0010
1000
0100
0000
0010
0100
0001
0000
1000
0000
0010
0100
1000
0000
0010
0000
,
0001
0000
0100
0000
0100
0000
0100
1000
0100
0000
0000
0000
0001
0000
0100
0000
0000
0000
1000
0000
0001
0000
0010
0000
,
0010
0100
1000
0000
0010
0000
0010
0100
0001
0000
0100
0000
0100
0000
1000
0000
0010
0000
0010
1000
0100
0000
0001
0000
,
0010
0000
0100
0000
0100
0000
0100
0000
0010
0000
0000
0000
0010
1000
0001
0000
0010
0000
0100
1000
0001
0000
0010
0000
,
1100
0000
0000
0000
0100
0000
0000
0000
0000
0000
0000
0000
0000
1000
0000
0000
0000
0000
0000
0000
1000
0000
0000
0000
0000
0000
0000
0000
0000
0000
0000
0000
1000
0000
0000
0000
0002
0000
0000
0000
0000
0000
0000
0000
0000
0000
0000
0000
,
0203
0000
0000
0000
0000
0000
0000
0000
0000
0000
0000
0000
0320
0000
0000
0000
0000
0000
0000
0000
0000
0000
0000
0000
1030
0000
0000
0000
0000
0000
0000
0000
0000
0000
0000
0000
0000
1000
0000
0000
0000
0000
0000
0000
1000
0000
0000
0000
,
0000
0000
1000
0002
0000
0000
0203
0000
0000
0320
0000
0000
,
1030
0000
0000
0000
0000
0000
0000
0000
0000
0000
0000
0000
0000
1000
0000
0000
0000
0000
0000
0000
1000
0000
0000
0000
0000
0000
0000
0000
0000
0000
0000
0000
1000
0000
0000
0000
0002
0000
0000
0000
0000
0000
0000
0000
0000
0000
0000
0000
,
0203
0000
0000
0000
0000
0000
0000
0000
0000
0000
0000
0000
0320
0000
0000
0000
0000
0000
0000
0000
0000
0000
0000
0000
1030
0000
0000
0000
0000
0000
0000
0000
0000
0000
0000
0000
0000
1000
0000
0000
0000
0000
0000
0000
1000
0000
0000
0000
,
0000
0000
0000
0000
0000
0000
0000
0000
1000
0000
0000
0000
0002
0000
0000
0000
0000
0000
0000
0000
0000
0000
0000
0000
1203
0010
0000
0000
0000
0000
0001
0000
0000
0000
0000
0000
1320
0000
0000
0000
0000
0000
1000
0000
0000
0000
0000
0000
,
0131
0000
0000
0010
0001
0000
1000
0000
0000
0010
0000
0000
0000
0000
0000
0000
0000
0000
1000
0100
0000
0000
0000
0000
,
0001
0000
0000
0100
0000
0000
1001
0000
0000
0010
0000
0000
1001
0000
0000
0000
0010
0000
0000
0000
0000
0000
0000
0001
,
1000
0000
0000
0000
0001
0000
0100
0010
0000
0000
0000
0000
0001
0000
0000
0000
0000
0000
0001
0000
0000
0000
0000
0000
,
1000
0000
0000
0100
0000
0000
0010
1000
0000
0001
0000
0000
0000
0000
0000
0000
0000
0000
0001
0000
0000
0000
0000
0000
,
0010
0000
0100
0000
0000
0000
0000
0000
0000
0000
0000
0000
0100
0000
0000
0000
0000
0000
0000
0000
0000
0000
0000
0000
1100
0000
0000
0000
0000
0000
0010
0000
0000
0000
0000
0000
0000
1000
0001
0000
0000
0000
0000
0000
1000
0000
0000
0000
,
0000
0000
1000
0002
0000
0000
0203
0000
0000
0320
0000
0000
,
0131
0000
0000
0010
0100
0000
1000
0000
0000
0010
1000
0000
0100
0000
0000
0000
0000
0000
1000
0001
0000
0010
1000
0000
,
0000
0000
0000
0100
0000
0000
1010
0000
0001
0010
0000
0000
1001
0000
0010
0000
0000
0000
1000
0000
0000
0010
0000
0000
,
1000
0000
0010
0000
0000
0010
0000
0100
0000
0000
0000
0000
0001
0000
0000
0000
1000
0000
0011
0000
0000
0000
0000
0000
,
1010
0000
0000
0000
1000
0000
0001
0100
0000
0010
0000
0000
0100
0000
0000
0000
0000
0000
0011
0000
1000
0000
0000
0001
,
0000
0000
0010
0000
0000
0000
0000
0000
0000
0000
0000
0000
0101
0000
0000
0000
0000
0000
0000
0000
0000
0000
0000
0000
1100
0000
0000
0000
0000
0000
0010
0000
0000
0000
0000
0000
0000
1000
0100
0000
0000
0000
0000
0000
1000
0000
0000
0000
,
0001
0000
0000
0000
0000
0000
0001
0000
1000
0000
0000
0000
0020
0000
0000
0000
0000
0000
1000
0000
0000
0030
0000
0000
0021
0000
0000
0000
0000
0000
0000
0000
0000
0030
0000
0000
1020
0000
0001
0000
0000
0000
0000
0000
0000
0000
0000
0000
,
0130
0000
1000
0000
0000
0000
0000
0000
0001
0000
0000
0000
0000
0100
0000
0000
0000
0000
1000
0000
0100
0000
0001
0000
0000
0000
0000
0000
0000
0000
0000
0000
0100
0000
0000
0000
0002
0000
0000
0000
0000
0000
0000
0000
0000
0003
0000
0000
,
0002
0000
0000
0000
1000
0000
0100
0000
1000
0013
0100
0000
1002
0000
0000
0000
0000
0000
0000
0000
0000
0000
0000
0000
1013
0000
0000
0000
0000
0000
0100
0000
0000
0000
0000
0000
0001
1000
0000
0000
0000
0000
0010
0000
1000
0000
0000
0000
,
0000
0000
0000
0000
0000
0000
0000
0000
1000
0000
0000
0000
0200
0000
0000
0000
0000
0000
0000
0000
0000
0300
0000
0000
0200
0000
0000
0000
0000
0000
0000
0000
0000
0300
0000
0000
0200
0000
0000
0000
0000
0000
0000
0000
0000
0000
0000
0000
,
0311
0000
0000
0000
0000
0000
1000
0000
0000
0000
0000
0000
0010
0001
0000
0000
0000
0000
0100
0000
0001
0000
0000
0000
0000
0000
0000
0000
0000
0000
0000
0000
0001
0000
0000
0000
0200
0000
0000
0000
0000
0000
0000
0000
0000
0300
0000
0000
,
0200
0000
0000
0000
0000
0000
0000
0000
0000
0300
0000
0000
0200
0000
0000
0000
0000
0000
0000
0000
0000
0000
0000
0000
1301
0000
0000
0000
0000
0000
0000
0000
0000
0000
0000
0000
0010
1000
0000
0000
0000
0000
0000
0000
1000
0000
0000
0000
,
0100
0000
1000
2001
0100
0000
0000
0000
0000
3010
0001
0100
,
2010
0000
0000
0000
0000
0000
0001
0000
0001
0000
0001
0000
0100
0000
0001
0000
0010
0000
0000
0001
0000
0100
0000
0000
,
0000
0000
0010
0000
0000
0000
0100
0000
0000
0000
0000
0000
0000
0000
0000
0000
0010
0000
0000
0000
0000
3000
0000
0000
1002
0000
0000
0000
0000
0000
0000
0000
0000
0000
0000
0000
0000
1000
0000
0000
0000
0000
0000
0000
1000
0000
0000
0000
,
0000
0000
1000
0020
0000
0000
2030
0000
0000
3200
0000
0000
,
1300
0000
0000
0000
0000
0000
0000
0000
0000
0000
0000
0000
0000
1000
0000
0000
0000
0000
0000
0000
1000
0000
0000
0000
0000
0000
0000
0000
0000
0000
0000
0000
1000
0000
0000
0000
0020
0000
0000
0000
0000
0000
0000
0000
0000
0000
0000
0000
,
2030
0000
0000
0000
0000
0000
0000
0000
0000
0000
0000
0000
3100
0010
0000
0000
0000
0000
0000
0000
0000
0000
0000
0000
1013
0000
0000
0000
0000
0000
1001
0000
0000
0000
0000
0000
0200
0000
0001
0000
0000
0000
1000
0000
0000
0000
0000
0000
,
0000
0000
0000
0000
0000
0000
1000
0000
0000
0000
0000
0000
1000
0000
0000
0000
0000
0000
1000
0000
0000
0000
0000
0000
0000
0000
0001
0000
0000
0000
1000
0000
0000
0000
0000
0000
0000
0000
0001
0000
0000
0000
1000
0000
0000
0300
0000
0000
,
1100
0000
0000
0010
0000
0000
1002
0100
0000
1000
0000
0000
0000
0000
0000
1000
0000
0000
1000
0000
0000
0000
0000
0000
,
1000
0000
0100
0000
0000
0000
0000
0000
0000
0000
0000
0000
1000
0000
0100
0000
0000
0000
0000
0000
0000
0003
0000
0000
1100
0000
0000
0000
0000
0000
0001
0000
0000
0000
0000
0000
0120
0000
1000
0000
0000
0000
0100
0000
0000
0000
0000
0000
,
0000
0000
0000
0000
0000
0000
0100
0000
0000
0000
0000
0000
0100
0000
0000
0000
0000
0000
0000
0000
0000
0000
0000
0000
0100
0000
1000
0000
0000
0000
0000
0000
0000
0000
0000
0000
0100
0000
1000
0000
0000
0000
0000
0000
0000
0030
0000
0000
,
1010
0000
0000
0100
0000
0000
0012
0100
0000
0010
0000
0000
0000
0000
0000
0010
0000
0000
0010
0000
0000
0000
0000
0000
,
0010
0000
0100
0000
0000
0000
0000
0000
0000
0000
0000
0000
0010
0000
0100
0000
0000
0000
0000
0000
0000
0003
0000
0000
1100
0000
0000
0000
0000
0000
1001
0000
0000
0000
0000
0000
0020
0000
0100
0000
0000
0000
1000
0000
0000
0000
0000
0000
,
0000
0000
0000
0000
0000
0000
1000
0000
0000
0000
0000
0000
1000
0000
0000
0000
0000
0000
0000
0000
0000
0000
0000
0000
1000
0000
0100
0000
0000
0000
0000
0000
0000
0000
0000
0000
1000
0000
0100
0000
0000
0000
0000
0000
0000
0030
0000
0000
,
1001
0000
0000
0101
0000
0000
0020
0100
0000
0001
0000
0000
0000
0000
0000
0001
0000
0000
0001
0000
0000
0000
0000
0000
,
1031
0100
0000
0000
0000
0000
0011
0100
0000
0000
0000
0000
1100
0000
0000
0100
0000
0000
1010
0000
1000
0001
1000
0000
,
0110
0000
0000
0100
0000
0000
0101
0000
0100
0010
0000
0000
1001
0000
0000
0100
0000
0000
0011
0000
0001
1000
0001
0000
,
1001
0000
0000
0100
0000
0000
1010
0000
1000
0001
1000
0000
1010
0000
0000
0100
0000
0000
0101
0000
0100
0010
0000
0000
,
1001
0000
0000
0100
0000
0000
0011
0000
0010
1000
0010
0000
1010
0000
0001
0100
0001
0000
1010
0000
1000
0001
1000
0000
,
0011
0000
0001
0100
0001
0000
0101
0000
0100
0010
0100
0000
0011
0000
0010
0100
0010
0000
0010
0000
0010
1000
0010
0000
,
1100
1100
1100
0110
,
0110
0110
0000
0110
0000
0000
0000
0000
,
0000
0000
0000
0000
0000
0000
0000
0000
0000
0000
0000
0110
0000
0010
0100
0010
0100
0010
0100
0010
0100
0010
0100
0010
,
1100
0011
0000
0000
0000
0000
0000
0000
0000
0000
0000
0000
,
0000
0000
0000
0000
,
0000
0000
0000
0000
,
0000
0000
1000
0100
0000
1000
0010
0000
0100
0001
0000
1000
,
0010
0000
0001
0100
0000
0100
0010
0000
0001
0100
0000
0010
,
1000
0000
0100
2000
0000
0001
0000
0000
0000
0000
0000
3000
,
0000
0000
0000
0000
0000
1000
0100
0010
0001
0010
0000
0100
,
0000
0000
0000
0000
0000
0000
0000
0000
0001
0010
0000
0000
,
0000
0000
0000
0001
0000
0100
0000
0000
0000
0000
0000
0010
,
1000
0000
0000
0000
0000
0000
0010
0000
0100
0000
0000
0000
,
0000
0000
1000
0100
0000
0110
0000
0001
0001
0001
0010
0100
,
1000
0001
0010
0100
0001
0010
1000
0001
0100
1000
0100
0010
,
0000
1000
0100
0001
0000
0100
0010
0001
0000
0000
0000
0000
,
0000
0000
0000
0020
,
0130
1000
0100
0010
0000
0001
0100
0000
0000
0000
1000
0000
0100
0000
0000
0000
0100
0000
0010
0000
0000
0000
0001
0000
,
0000
0000
0000
0000
0001
0010
0100
1000
0001
0010
0100
1000
0001
0100
0010
1000
,
0001
0000
0000
0010
0000
0000
1000
0000
0000
0100
0000
0000
1000
0000
0000
0000
0100
0000
0000
0000
0010
0000
0000
0000
1002
0000
0000
0000
0000
0000
0000
0000
0000
0000
0000
0000
0003
0000
0000
0000
0000
0000
0000
0010
0000
0000
0000
0000
,
0000
0000
0000
0000
0000
0000
0000
0100
0000
0000
0000
0000
0010
0000
0000
0000
0000
0000
0001
0000
0000
0000
1000
0000
0000
0000
0000
0000
0000
0000
0100
0000
0000
0000
0001
0000
0000
0000
0000
0000
0000
0000
0011
0000
0000
0001
1000
0000
,
0010
0000
0100
0000
0000
0010
0000
0100
0000
0010
0000
0001
0000
0010
0000
0100
0000
1000
0000
0001
0000
0010
0000
0100
,
0000
0000
0000
0000
0000
0000
0000
0000
0000
0000
0000
0000
0000
0000
0000
0000
0000
0000
0000
0000
1000
0000
0000
0000
0001
0000
0000
0000
0000
0000
0000
0000
0000
0000
0000
0000
0000
0100
0000
0000
0000
0000
0000
0000
0200
0000
0000
0000
,
0000
0000
0000
0000
0000
0000
0000
0000
0000
0000
0000
0300
0000
0000
0000
0000
0010
0000
0000
0000
0000
0000
1100
0000
,
1001
0000
0000
0000
0110
0000
0000
0000
0000
0000
1100
0000
0001
0000
0000
0001
0010
1000
0000
0000
0000
0000
1010
0000
,
0100
0000
0000
0000
1010
0000
0001
0000
0000
0000
0100
0000
0000
0000
0000
0000
0100
0000
0001
0010
0000
0000
1000
0000
,
0000
0000
0110
0010
0001
1000
0101
0000
0010
0000
0000
0100
,
0011
0000
0001
0000
1000
0001
0000
0000
0000
0000
0100
1000
0000
0000
0000
0000
0010
0000
0001
0000
0000
0000
0110
0000
,
0000
0000
0000
0000
1000
0000
0001
0000
0000
1000
0100
1000
0000
0010
0000
0000
0100
0000
0001
0000
0001
0000
1001
0000
,
0011
0000
0001
0000
0101
0000
1002
0000
0000
0010
0000
0000
0000
0000
0000
0000
1003
0000
0010
0000
0000
0000
0100
0000
,
0000
1000
1010
0101
0100
1100
0010
0010
0101
0000
0000
0010
,
0001
0000
0000
0010
0000
0000
0001
0000
0000
0100
0000
0000
1000
0000
0000
0000
0101
0000
0000
0000
0010
0000
0000
0000
0001
0000
0000
0000
0000
0000
0000
0000
0100
0000
0000
0000
1010
0000
0000
0000
0000
0000
0000
0000
1000
0000
0000
0000
,
0100
0000
0101
0010
0000
1100
0001
0000
0001
0100
0000
1010
,
0100
0000
0000
0000
0001
0010
1000
0000
0000
0000
0100
0000
0010
0000
0000
0000
1000
0000
0010
0000
0100
0000
0001
0000
,
1001
0010
0100
1001
0010
0000
1000
0000
0000
0000
0110
0000
0012
0000
0000
0000
0000
0000
0000
1000
0000
0000
0000
0000
,
0003
0000
0000
0000
0001
0000
0010
0000
0000
0000
0100
0000
1000
0010
0000
0000
0001
0000
0100
1000
0000
0000
1000
0000
,
0001
0000
0000
0000
0010
0000
0100
0001
1000
0000
0001
0000
0010
0000
0100
0000
0001
0000
0010
0000
1000
0000
0001
0000
,
0100
0010
1000
0000
0100
0000
0010
1000
0001
0000
0010
0000
0100
0000
0000
0000
0000
0000
0000
0010
0000
0000
1000
0000
,
0100
0000
0010
0000
0100
0000
0001
0000
0000
0000
1000
0000
0000
0010
0000
0000
0000
0000
0000
0010
0000
0000
0001
0000
,
1000
0000
0000
0000
1000
0000
0100
1000
0000
0000
0100
0000
0010
0000
0000
0000
0010
0000
0001
0000
0000
0000
0100
0000
,
0020
1000
0000
0000
0000
0000
0000
1030
0000
0000
0001
0000
2010
0000
0000
0000
0000
0100
0000
0100
0010
3000
0000
0000
,
0000
0000
1000
0101
0000
1000
0010
0001
0001
0100
0000
0010
,
1000
0000
0100
0010
0100
0000
1000
0000
0100
0010
0100
0000
0000
0000
0000
0000
1000
0000
0011
0000
0000
0000
0100
0000
,
1000
0000
0000
0010
0000
0010
0001
0010
0000
0001
0000
0001
1100
0000
0000
0100
0000
0000
1010
0000
1000
0001
1000
0000
,
0110
0000
0000
0100
0000
0000
0101
0000
0100
0010
0000
0000
1001
0000
0000
0100
0000
0000
0011
0000
0001
1000
0001
0000
,
1001
0000
0000
0100
0000
0000
1010
0000
1000
0001
1000
0000
1010
0000
0000
0100
0000
0000
0101
0000
0100
0010
0000
0000
,
1001
0000
0000
0100
0000
0000
0011
0000
0010
1000
0010
0000
1010
0000
0001
0100
0001
0000
1010
0000
1000
0001
1000
0000
,
0011
0000
0001
0100
0001
0000
0101
0000
0100
0010
0100
0000
0011
0000
0010
0100
0010
0000
0010
0100
0010
1000
0010
0001
,
1100
1100
1100
0110
,
0110
0110
0000
0110
0000
0000
0000
0000
,
0000
1000
1000
0011
0000
0000
0000
0000
0000
0000
0000
0000
0000
0000
0000
0000
;
