#TITLE:Since 1983;
#SUBTITLE:;
#ARTIST:S.S.H;
#TITLETRANSLIT:;
#SUBTITLETRANSLIT:;
#ARTISTTRANSLIT:;
#CREDIT:DukAmok;
#BANNER:Since_1983.png;
#BACKGROUND:Since_1983-bg.png;
#LYRICSPATH:;
#CDTITLE:!duktitle.png;
#MUSIC:Since_1983.mp3;
#OFFSET:-0.207;
#SAMPLESTART:6.500;
#SAMPLELENGTH:30.000;
#SELECTABLE:YES;
#BPMS:0.000=152.000;
#STOPS:;
#BGCHANGES:;
// cache tags:
#FIRSTBEAT:9.000;
#LASTBEAT:428.000;
#SONGFILENAME:Songs/IzzySM Keyboard Mega Pack/Since 1983/Since_1983.sm;
#HASMUSIC:1;
#HASBANNER:1;
#MUSICLENGTH:172.028;
// end cache tags

//---------------dance-single - Challenge----------------
#NOTES:
     dance-single:
     Challenge:
     Challenge:
     12:
     1.000,1.000,0.436,0.058,1.000,1414.000,75.000,10.000,0.000,0.000:
0000
0000
0000
0000
,
0000
0000
0000
0000
,
0000
0000
0000
1001
0010
0100
0010
0100
0010
1001
0100
0010
,
0100
0010
0100
1001
0010
0100
0010
0100
0010
1001
0010
0100
,
0010
0010
0010
1100
0010
0101
1000
1000
1000
0011
0100
1001
,
0010
0010
0010
0101
1000
0011
0100
0001
0010
0100
1000
0010
,
0100
0100
0100
1001
0010
1001
0100
0100
0100
0011
1000
0110
,
0001
0000
0001
0000
0001
0000
1100
0000
0010
0000
0001
0000
0100
0001
0010
0100
1000
0010
0100
0010
1000
0100
0010
0001
,
0010
0010
0010
0101
0010
1001
0100
0100
0100
1001
0010
0101
,
0010
0010
0010
1001
0010
1100
0010
1000
0001
0010
0100
1000
,
0001
0001
0001
1010
0001
0110
1000
1000
1000
0110
0001
1010
,
0001
0000
0001
0000
0001
0000
0110
0000
0001
0000
1100
0000
0010
0000
0100
0000
0001
0000
0010
0100
1000
0000
0100
0000
,
0010
0001
0100
0010
0100
0001
0010
0100
1000
0010
0100
0001
,
0010
1000
0010
0001
0100
0010
1000
0100
0010
0100
1000
0010
,
0100
0001
0010
0001
0010
0100
0010
0001
1000
0010
0100
0001
,
0010
0001
1000
0100
0010
0001
1000
0010
0100
0001
1000
0100
0010
0001
1000
0010
0100
0010
1000
0100
0010
0001
1000
0001
,
0100
0010
0100
0001
0010
0100
1000
0100
0010
0001
0010
1000
,
0010
0001
0100
0010
0001
0010
1000
0100
0010
0001
0010
1000
,
0010
0100
0001
0100
1000
0010
0100
0001
0010
0100
1000
0001
,
0100
0010
1000
0100
0010
0001
0010
0100
0001
0100
1000
0010
0100
1000
0100
0001
,
0010
0000
0000
0000
0001
0000
0000
0000
1000
0000
0000
0000
0010
0000
0000
0000
0100
0000
0000
0000
0010
0000
0000
0000
1000
0000
0000
0001
0000
0000
0100
0000
0000
1000
0000
0000
0100
0000
0000
0010
0000
0000
1000
0000
0000
0100
0000
0000
,
0010
0000
0000
0000
0001
0000
0000
0000
1000
0000
0000
0000
0100
0000
0000
0000
0010
0000
0000
0000
0100
0000
0000
0000
0010
0000
0000
0001
0000
0000
1000
0000
0000
0100
0000
0000
0010
0000
0000
0000
0001
0000
0000
0000
0010
0000
0000
0000
,
0100
0000
0000
0001
0000
0000
0100
0000
0000
0010
0000
0000
1000
0000
0000
0000
0010
0000
0000
0000
0100
0000
0000
0000
1000
0000
0000
0001
0000
0000
0010
0000
0000
0100
0000
0000
0010
0000
0000
0000
0001
0000
0000
0000
0100
0000
0000
0000
,
0010
0000
0000
0100
0000
0000
0001
0000
0000
0010
0000
0000
0100
0000
0000
0000
1000
0000
0000
0000
0100
0000
0000
0000
1000
0000
0100
0000
0010
0000
0001
0000
0010
0000
0100
0000
1000
0000
0010
0000
0100
0000
0001
0000
0100
0000
0010
0000
,
1000
1000
1000
0011
1000
0110
0001
0001
0001
0110
1000
0011
,
1000
1000
1000
0110
1000
0101
1000
0100
0010
0001
0100
0001
,
0010
0010
0010
1100
0010
1001
0100
0100
0100
1001
0010
1100
,
0010
0010
0010
1001
0010
0101
0010
1000
0100
0010
0100
1000
,
0001
0100
0010
1000
0100
1000
0010
0100
0001
0010
0100
0010
,
0001
0010
0001
0100
1000
0100
0001
0010
0100
1000
0001
0100
,
0010
1000
0100
0010
0001
1000
0010
0100
0001
0010
0001
0100
,
0010
1000
0100
0010
0001
1000
0010
0100
0001
0010
1000
0010
,
0001
0100
0010
1000
0100
1000
0010
0100
0001
0010
0100
0010
,
0001
0100
1000
0100
0001
0010
1000
0010
0100
1000
0001
1000
,
0100
0000
0000
1000
0000
0000
0001
0000
0000
1000
0000
0000
0100
0000
0000
0000
1000
0000
0000
0000
0001
0000
0000
0000
0100
0000
0000
0000
0010
0000
0000
0000
1000
0000
0000
0000
0100
0000
0000
0000
1000
0000
0000
0000
0010
0000
0000
0000
,
0100
0001
0010
0100
1000
0001
0100
0010
1000
0100
0001
0010
,
2002
0000
0000
0000
0000
0000
0000
3003
,
2020
0000
0000
3030
0022
0000
0000
0033
,
0010
0000
0000
0000
0010
0000
1000
0000
0100
0000
0010
0000
0001
0010
0001
0000
0010
0000
0001
0000
0100
0000
0010
0000
,
1000
0000
1000
0100
0000
0100
1100
0000
0000
0101
0000
0000
,
0110
0001
1000
0100
0010
0001
0100
0010
0100
0001
0010
0100
,
0010
0100
1000
0001
0010
0100
1000
0010
1000
0100
0010
0001
0010
0100
1000
0010
0100
0010
0100
0000
0001
0000
0010
0000
,
0100
0000
0000
0000
0000
0000
0000
0000
0100
0000
0000
0000
1000
0000
0000
0000
0001
0000
0000
0000
0100
0000
0000
0000
0010
0000
0000
1000
0000
0000
0100
0000
0000
0010
0000
0000
0100
0000
0000
0010
0000
0000
0001
0000
0000
0100
0000
0000
,
0010
0100
0001
0010
0100
0010
0001
0100
0010
0100
0010
1000
0100
0000
1000
0000
0001
0000
0100
0000
0010
0000
1000
0000
,
0100
0010
0001
0100
0010
0100
0001
0010
0100
1000
0100
0010
,
1000
0000
0000
0000
0000
0000
0000
0000
0000
0000
0000
0000
0000
0000
0000
0000
0000
0000
0000
0000
0010
0000
0000
0000
0001
0000
0000
0100
0000
0000
0010
0000
0000
1000
0000
0000
0001
0000
0000
0010
0000
0000
0100
0000
0000
1000
0000
0000
,
0010
0000
0000
0000
0100
0000
0000
0000
0001
0000
0000
0000
0100
0000
0000
0000
0010
0000
0000
0000
1000
0000
0000
0000
0100
0000
0000
0010
0000
0000
0001
0000
0000
1000
0000
0000
0100
0000
0000
0010
0000
0000
0001
0000
0000
1000
0000
0000
,
0010
0000
0000
0000
0100
0000
0000
0000
0001
0000
0000
0000
1000
0000
0000
0000
0010
0000
0000
0000
0100
0000
0000
0000
0001
0000
0000
1000
0000
0000
0100
0000
0000
0010
0000
0000
0001
0000
0000
1000
0000
0000
0100
0000
0000
0010
0000
0000
,
0001
0000
0000
0000
0010
0000
0000
0000
0100
0000
0000
0000
1000
0000
0000
0000
0010
0000
0000
0000
0100
0000
0000
0000
0001
0000
0000
0100
0000
0000
0010
0000
0000
1000
0000
0000
0100
0000
0000
0001
0000
0000
0100
0000
0000
1000
0000
0000
,
0010
0000
1000
0000
0100
0000
0010
0000
0001
0000
0100
0000
0010
1000
0010
0100
0001
0000
0010
0000
0100
0000
1000
0000
,
0100
0000
1000
0000
0001
0000
0010
0100
1000
0000
0001
0100
0010
1000
0100
0000
0010
0000
0100
0000
1000
0001
0100
0000
,
0001
0000
0010
0000
0100
0000
1000
0100
0010
0000
0001
0000
1000
0001
0100
0010
1000
0000
0100
0000
0010
0100
0010
0001
,
1000
0010
0100
0001
0010
0100
1000
0100
1000
0010
0100
0010
,
0100
0001
0010
1000
0010
0001
0100
0010
1000
0100
0010
0100
,
1000
0001
1000
0010
0100
0001
0010
0001
0100
0010
1000
0100
,
1000
0001
0100
0001
1000
0001
0100
0001
1000
0001
0010
0001
0100
0010
0100
0001
0100
0010
0100
0001
0100
0010
0100
0001
,
0010
0000
0000
0100
0010
0001
1100
0000
0000
0110
0000
0000
,
1001
0000
0000
0001
0010
0100
0001
0100
1000
0010
0100
0001
,
1010
0000
0000
0000
0000
0000
0000
0010
0001
0100
0010
1000
,
0100
0010
0001
1000
0100
0010
0100
1000
0010
0100
0001
0010
0001
0100
0010
1000
,
0100
0000
0000
0001
0000
0000
0100
0000
0000
1000
0000
0000
0010
0000
0000
0100
0000
0000
0001
0000
0000
0010
0000
0000
0001
0000
0010
0000
0001
0000
0100
0000
0010
0000
1000
0000
0001
0000
0000
0010
0000
0000
0100
0000
0000
0010
0000
0000
,
0001
0000
0000
0000
0100
0000
0000
0000
0001
0000
0000
0000
0100
0000
0000
0000
0010
0000
0000
0000
1000
0000
0000
0000
0100
0000
0000
0010
0000
0000
0001
0000
0000
1000
0000
0000
0100
0000
0000
0010
0000
0000
0001
0000
0000
1000
0000
0000
,
0010
0000
0000
0000
0100
0000
0000
0000
0001
0000
0000
0000
1000
0000
0000
0000
0010
0000
0000
0000
0100
0000
0000
0000
0001
0000
0000
1000
0000
0000
0100
0000
0000
0010
0000
0000
0001
0000
0000
0000
1000
0000
0000
0000
0100
0000
0000
0000
,
1000
0000
0000
0000
0100
0000
0000
0000
0010
0000
0000
0000
0001
0000
0000
0000
0100
0000
0000
0000
0010
0000
0000
0000
1000
0000
0000
0010
0000
0000
0100
0000
0000
0001
0000
0000
0010
0000
0000
0000
0100
0000
0000
0000
1000
0000
0000
0000
,
0010
0000
1000
0000
0100
0000
0010
0000
0001
0000
0100
0000
0010
1000
0010
0100
0001
0010
0100
1000
0010
0100
0001
0010
,
0001
0000
0000
0000
0000
0000
0000
0000
0000
0000
0001
0000
1000
0100
0010
0100
1000
0010
0100
0001
0010
0100
0010
0001
,
0100
0000
0000
0000
0001
0100
0001
0000
0000
0000
0010
0100
0010
0100
1000
0010
0100
0001
0100
0001
0010
0100
1000
0010
,
0100
0001
0100
0001
0010
0100
0010
0001
1000
0010
0100
0010
1000
0000
0000
0000
0100
0000
0010
0001
0100
0010
0100
0001
,
0010
0100
1000
0010
0100
0010
1000
0100
0010
0001
0100
0010
0100
0001
0010
0100
1000
0001
0100
0000
0000
0000
0010
0100
,
1000
0000
0000
0001
0000
0000
0100
0000
0000
0010
0000
0000
0100
0000
0000
0001
0000
0000
0010
0000
0000
0100
0000
0000
1000
0000
0000
0100
0000
0000
0010
0000
0000
0001
0000
0000
1000
0000
0000
0000
0010
0000
0000
0000
0100
0000
0000
0000
,
0001
0000
0000
0000
0000
0000
2200
0000
0000
3300
0000
0000
0202
0000
0000
0303
0000
0000
0001
1000
0001
0100
0001
0000
,
0100
0010
1000
0100
0010
1000
0010
0001
0100
0010
0100
0001
0010
0100
1000
0010
,
0100
0010
1000
0010
0100
0001
0100
0010
1000
0100
0010
0001
0010
0100
1000
0100
0010
0001
0100
0010
1000
0001
0100
0010
,
1000
0000
0000
0000
0000
0000
0000
0000
0001
0100
0010
0100
0001
0010
0100
0010
,
0001
1000
0010
0100
0010
1000
0100
0010
0100
1000
0001
0010
1000
0010
0001
0100
,
0010
1000
0001
0100
1000
0100
0001
0100
0010
0100
0001
0010
0100
0010
1000
0010
,
0001
0000
0000
0000
0000
0000
0100
0010
0001
0010
0100
1000
0100
0010
0001
0100
,
0010
1000
0001
0100
0010
1000
0001
0100
0001
0010
0100
1000
0001
0010
0100
1000
0001
0100
0010
1000
0100
0010
0001
1000
,
0100
0000
0000
0000
0000
0000
0000
0000
0000
0000
0000
0000
0010
0000
1000
0000
0100
0000
0010
0001
0010
0000
0100
0010
,
0100
0000
0000
0010
0000
0000
0100
0000
0000
1000
0000
0000
0100
0000
1000
0000
0100
0000
0010
0000
0100
0000
1000
0000
0001
0000
0100
0000
0010
0000
1000
0000
0100
0000
0010
0000
0100
0000
1000
0000
0010
0000
0100
0000
0001
0000
0010
0000
,
0100
1000
0100
1000
0100
1000
0100
0010
0100
0010
0100
0010
0001
0010
0001
0010
0001
0010
0001
0100
0010
1000
0100
0010
,
0001
0100
0010
1000
0100
1000
0010
0100
0001
0010
0100
0010
,
0001
0100
1000
0100
0010
0001
0010
1000
0100
0010
0100
1000
,
0010
0100
0001
0010
0100
0010
0001
0010
1000
0010
0100
1000
,
0001
0100
0010
1000
0001
0010
0100
1000
0001
0100
0010
1000
0100
0010
0001
1000
0100
0010
0001
0100
0010
1000
0001
0100
,
0010
0100
0001
0010
1000
0010
0001
0100
0010
1000
0100
1000
,
0010
0100
0001
0010
0100
0010
0001
0100
1000
0100
0001
0010
,
0100
1000
0100
1000
0010
0100
0010
1000
0100
1000
0010
0001
,
0010
1000
0100
0010
0001
0010
0100
0001
0100
0010
0001
1000
0100
0001
0100
1000
,
0010
0000
0000
0000
1000
0000
0000
0000
0100
0000
0000
0000
0010
0000
0000
0000
0001
0000
0000
0000
1000
0000
0000
0000
0010
0000
0000
1000
0000
0000
0100
0000
0000
0010
0000
0000
0100
0000
0000
1000
0000
0000
0010
0000
0000
0100
0000
0000
,
0001
0000
0000
0000
1000
0000
0000
0000
0100
0000
0000
0000
0001
0000
0000
0000
0100
0000
0000
0000
1000
0000
0000
0000
0010
0000
0000
0100
0000
0000
0001
0000
0000
0010
0000
0000
0001
0000
0000
0000
1000
0000
0000
0000
0001
0000
0000
0000
,
0100
0000
0000
0010
0000
0000
1000
0000
0000
0100
0000
0000
0010
0000
0000
0000
0100
0000
0000
0000
1000
0000
0000
0000
0001
0000
0000
0100
0000
0000
0010
0000
0000
1000
0000
0000
0100
0000
0000
0000
0010
0000
0000
0000
0001
0000
0000
0000
,
0010
0000
0000
0100
0000
0000
1000
0000
0000
0001
0000
0000
0100
0000
0000
0000
0001
0000
0000
0000
0100
0000
0000
0000
0001
0000
1000
0000
0010
0000
0100
0000
0001
0000
0010
0000
0100
0000
1000
0000
0100
0000
0010
0000
0001
0000
1000
0000
,
0010
0010
0010
0101
0010
1100
0001
0001
0001
1100
0010
0101
,
0010
0010
0010
1100
0010
1001
0010
1000
0100
0010
0001
1000
,
0100
0100
0100
1010
0100
0011
1000
1000
1000
0011
0100
1010
,
0100
0100
0100
0011
0100
1001
0010
0100
0010
0001
0010
0100
,
1000
0100
1000
0001
0100
0010
1000
0100
0001
0010
1000
0100
,
1000
0010
0100
0010
1000
0001
0010
0100
0010
1000
0010
0001
,
0100
0010
1000
0100
1000
0010
0001
0100
0010
1000
0100
1000
,
0010
0100
0010
1000
0001
0100
0010
0100
0001
0010
1000
0010
,
0001
0100
0010
1000
0001
0100
0010
1000
0100
0010
0100
1000
,
0001
0100
0010
1000
0100
1000
0010
0100
0001
1000
0010
0100
,
0001
0100
0001
0010
0100
0000
1000
0000
0001
0000
0010
0000
0100
0010
0001
0000
0100
0000
0010
0000
0100
0000
0010
0000
,
1000
0100
0010
0001
0010
0100
1000
0001
0010
1000
0100
0001
,
0010
1100
0011
0110
,
1001
0100
0010
0000
1001
0000
0110
0001
1000
0000
0110
0000
1001
0000
0000
0000
0000
0000
0110
0000
1001
0000
0110
0000
,
1001
0000
0000
0000
;

//---------------dance-single - Insane Edit----------------
#NOTES:
     dance-single:
     Insane Edit:
     Edit:
     13:
     1.000,1.000,1.000,0.035,1.000,1442.000,486.000,6.000,0.000,2.000:
0000
0000
0000
0000
,
0000
0000
0000
0000
,
0000
0000
0000
1001
0100
0010
0100
0010
0100
1001
0010
0100
,
0010
0100
0010
1001
0100
0010
0100
0010
0100
1001
0100
0010
,
0100
0100
0100
0011
0100
1010
0001
0001
0001
1100
0010
1001
,
0100
0100
0100
1010
0001
1100
0010
1000
0100
0010
0001
0100
,
0010
0010
0010
1001
0100
1001
0010
0010
0010
1100
0001
0110
,
1000
0000
1000
0000
1000
0000
0011
0000
0100
0000
1000
0000
0010
1000
0100
0010
0001
0100
0010
0100
0001
0010
0100
1000
,
0100
0100
0100
1010
0100
1001
0010
0010
0010
1001
0100
1010
,
0100
0100
0100
1001
0100
0011
0100
0001
1000
0100
0010
0001
,
1000
1000
1000
0101
1000
0110
0001
0001
0001
0110
1000
0101
,
1000
0000
1000
0000
1000
0000
0110
0000
1000
0000
0011
0000
0100
0000
0010
0000
1000
0000
0100
0010
0001
0000
0010
0000
,
0101
1000
0010
0100
0010
1000
0101
0010
0001
0100
0010
1000
,
0110
0001
0100
0001
0010
0100
1001
0010
0100
1010
0001
0100
,
0011
1000
0100
1000
0100
0010
0101
1000
0001
0100
0010
1000
,
0110
1000
0001
0010
0100
1000
0001
0100
0010
1000
0001
0010
0100
1000
0001
0100
0010
0100
0001
0010
0100
1000
0001
1000
,
0011
0100
0010
1000
0100
0010
1001
0010
0100
1000
0100
0001
,
0110
1000
0010
0100
1000
0100
1001
0010
0100
1000
0100
0001
,
1100
0010
1000
0010
0001
0100
0011
1000
0100
1010
0001
1000
,
0011
0100
0001
0010
0101
1000
0100
0010
1100
0010
0001
0100
1010
0001
0010
1000
,
0101
0000
0000
0000
1000
0000
0000
0000
0001
0000
0000
0000
0100
0000
0000
0000
0010
0000
0000
0000
0100
0000
0000
0000
0011
0000
0000
1000
0000
0000
0010
0000
0000
0001
0000
0000
0010
0000
0000
0100
0000
0000
0001
0000
0000
0010
0000
0000
,
0101
0000
0000
0000
1000
0000
0000
0000
0001
0000
0000
0000
0010
0000
0000
0000
0100
0000
0000
0000
0010
0000
0000
0000
0101
0000
0000
1000
0000
0000
0001
0000
0000
0010
0000
0000
0101
0000
0000
0000
1000
0000
0000
0000
0100
0000
0000
0000
,
0011
0000
0000
1000
0000
0000
0010
0000
0000
0100
0000
0000
0001
0000
0000
0000
0100
0000
0000
0000
0010
0000
0000
0000
1100
0000
0000
0001
0000
0000
0010
0000
0000
0100
0000
0000
0010
0000
0000
0000
0001
0000
0000
0000
0100
0000
0000
0000
,
0011
0000
0000
0100
0000
0000
0001
0000
0000
0010
0000
0000
0101
0000
0000
0000
1000
0000
0000
0000
0100
0000
0000
0000
1010
0000
0100
0000
0010
0000
0001
0000
0010
0000
0100
0000
1001
0000
0010
0000
0100
0000
0001
0000
0100
0000
0010
0000
,
1000
1000
1000
0011
1000
0110
0001
0001
0001
0110
1000
0011
,
1000
1000
1000
0110
1000
0101
1000
0100
0010
0001
0100
0001
,
0010
0010
0010
1100
0010
1001
0100
0100
0100
1001
0010
1100
,
0010
0010
0010
1001
0010
0101
0010
1000
0100
0010
0100
1000
,
0011
0100
0010
1000
0100
1000
0011
0100
0001
0010
0100
0010
,
1001
0010
0001
0100
1000
0100
1001
0010
0100
1010
0001
0100
,
0011
1000
0100
0010
0001
1000
1010
0100
0001
0010
0001
0100
,
0011
1000
0100
0010
0001
1000
0011
0100
0001
1010
1000
0010
,
0101
0100
0010
1000
0100
1000
0011
0100
0001
0010
0100
0010
,
1001
0100
1000
0100
0001
0010
1001
0010
0100
1010
0001
1000
,
0110
0000
0000
1000
0000
0000
0001
0000
0000
1000
0000
0000
0110
0000
0000
0000
1000
0000
0000
0000
0001
0000
0000
0000
1100
0000
0000
0000
0010
0000
0000
0000
1000
0000
0000
0000
0101
0000
0000
0000
1000
0000
0000
0000
0010
0000
0000
0000
,
1100
0001
0010
0101
1000
0001
1100
0010
1000
0110
0001
0010
,
2200
0000
0000
0000
,
3322
0000
0000
0000
0000
0000
0000
0000
0000
0000
0030
0000
0223
0000
0000
0000
0000
0000
0000
0000
0000
0330
0000
0000
,
1010
0000
0000
0000
0010
0000
1001
0000
0100
0000
0010
0000
1001
0010
1001
0000
0010
0000
0001
0000
0100
0000
0010
0000
,
1000
0000
1000
0110
0000
0100
1100
0000
0010
0101
0000
0000
,
0110
0001
1000
0100
0010
0001
1100
0010
0100
1001
0010
0100
,
0011
0100
1000
0001
0010
0100
1001
0010
1000
0100
0010
0001
1010
0100
1000
0010
0100
0010
1100
0000
0011
0000
0110
0000
,
1100
0000
0000
0000
0000
0000
0000
0000
0100
0000
0000
0000
1010
0000
0000
0000
0001
0000
0000
0000
0100
0000
0000
0000
0011
0000
0000
1000
0000
0000
0100
0000
0000
0010
0000
0000
0100
0000
0000
0010
0000
0000
0001
0000
0000
0100
0000
0000
,
1010
0100
0001
0010
0100
0010
1001
0100
0010
0100
0010
1000
0101
0000
1000
0000
0001
0000
0101
0000
0110
0000
1010
0000
,
0101
0010
0001
1100
0010
0100
0011
0010
0100
1001
0100
0010
,
1001
0000
0000
0000
0000
0000
0000
0000
0000
0000
0000
0000
0000
0000
0000
0000
0000
0000
0000
0000
0010
0000
0000
0000
1001
0000
0000
0100
0000
0000
0010
0000
0000
1000
0000
0000
0101
0000
0000
0010
0000
0000
0100
0000
0000
1000
0000
0000
,
0011
0000
0000
0000
0100
0000
0000
0000
0001
0000
0000
0000
1100
0000
0000
0000
0010
0000
0000
0000
1000
0000
0000
0000
0100
0000
0000
0010
0000
0000
0001
0000
0010
1000
0000
0000
0101
0000
0000
0010
0000
0000
0001
0000
0100
1000
0000
0000
,
0011
0000
0000
0000
0100
0000
0000
0000
0001
0000
0000
0000
1100
0000
0000
0000
0010
0000
0000
0000
0100
0000
0000
0000
0011
0000
0000
1000
0000
0000
0100
0000
0001
0010
0000
0000
0101
0000
0000
1000
0000
0000
0100
0000
0001
0010
0000
0000
,
1001
0000
0000
0000
0010
0000
0000
0000
0100
0000
0000
0000
1001
0000
0000
0000
0010
0000
0000
0000
0100
0000
0000
0000
1001
0000
0000
0100
0000
0000
0010
0000
0001
1000
0000
0000
0110
0000
0000
0001
0000
0000
0100
0000
0001
1000
0000
0000
,
0011
0000
1000
0000
0100
0000
1010
0000
0001
0000
0100
0000
0011
1000
0010
0100
0001
0000
0011
0000
0110
0000
1100
0000
,
0101
0000
1000
0000
0001
0000
0011
0100
1010
0000
0001
0100
0010
1000
0101
0000
0010
0000
0101
0000
1000
0001
0110
0000
,
1001
0000
0010
0000
0100
0000
1000
0100
0011
0000
0101
0000
1010
0001
0100
0010
1001
0000
0100
0000
1010
0100
0011
0000
,
1001
0100
0010
1000
0100
0010
0001
0010
0001
0100
0010
0100
,
0011
1000
0100
0001
0100
1000
0010
0100
0001
0010
0100
0010
,
0101
1000
0001
0100
0010
1000
0100
1000
0010
0100
0001
0010
,
0001
1000
0001
1000
0001
1000
0010
1000
0001
1000
0001
1000
0010
1000
0010
1000
0010
1000
0001
1000
0010
1000
0010
1000
,
0100
0000
0000
0010
0100
1000
0010
0000
0000
0110
0000
0000
,
1001
0000
0000
1001
0100
0010
1001
0010
0001
1100
0010
1000
,
0101
0000
0000
0000
0000
0000
0000
0100
1000
0010
0100
0001
,
0011
0100
1000
0001
1010
0100
0010
0001
1100
0010
1000
0100
1001
0010
0100
0001
,
0110
1000
0010
0001
1100
0010
1000
0100
1001
0010
0100
0010
1001
0100
0001
0100
,
1001
0000
0000
0000
0010
0000
0000
0000
1000
0000
0000
0000
0011
0000
0000
0000
0100
0000
0000
0000
0001
0000
0000
0000
0011
0000
0000
0100
0000
0000
1000
0000
0000
0001
0000
0000
1010
0000
0000
0100
0000
0000
1000
0000
0000
0001
0000
0000
,
1100
0000
0000
0000
0010
0000
0000
0000
1000
0000
0000
0000
0011
0000
0000
0000
0100
0000
0000
0000
0010
0000
0000
0000
1100
0000
0000
0001
0000
0000
0010
0000
0000
0100
0000
0000
1010
0000
0000
0000
0001
0000
0000
0000
0110
0000
0000
0000
,
0011
0000
0000
0000
0010
0000
0000
0000
0100
0000
0000
0000
1001
0000
0000
0000
0010
0000
0000
0000
0100
0000
0000
0000
1001
0000
0000
0100
0000
0000
0010
0000
0000
1000
0000
0000
0101
0000
0000
0000
0010
0000
0000
0000
0001
0000
0000
0000
,
0110
0000
0001
0000
0010
0000
0101
0000
1000
0000
0010
0000
0110
0001
0100
0010
1000
0100
1010
0001
0100
0010
1000
0100
,
1001
0000
0000
0000
0000
0000
0000
0000
0000
0000
1000
0000
0101
0010
0100
0010
0001
0100
0011
1000
0100
0010
0100
1000
,
0011
0000
0000
0000
1001
0010
1100
0000
0000
0000
0101
0010
0101
0010
0001
0100
0010
0001
0110
1000
0100
0010
0001
0100
,
0011
1000
0010
1000
0100
0010
0101
1000
0001
0100
0010
0100
0011
0000
0000
0000
0011
0000
0110
1000
0010
0100
0010
1000
,
0101
0010
0001
0100
0010
0100
1001
0010
0100
1000
0001
1000
0011
0100
0010
0100
0010
0100
1010
0000
0000
0000
0100
0010
,
0101
0000
0000
1000
0000
0000
0010
0000
0000
0100
0000
0000
0011
0000
0000
1000
0000
0000
0100
0000
0000
0010
0000
0000
1001
0000
0000
0010
0000
0000
0100
0000
0000
1000
0000
0000
0011
0000
0000
0000
0110
0000
0000
0000
1010
0000
0000
0000
,
1001
0000
0000
0000
0000
0000
0011
0000
0000
0000
0000
0000
1010
0000
0000
0000
0000
0000
1010
0001
1000
0010
1001
0000
,
0011
0000
0000
0100
0000
0000
0001
0000
1000
0010
0000
0000
1100
0000
0000
0001
0000
0000
0100
0000
0001
1000
0000
0000
0011
0000
0000
0100
0000
0000
0010
0000
0001
1000
0000
0000
1100
0000
0000
0010
0000
0000
0001
0000
0010
0100
0000
0000
,
1010
0100
1001
0100
0011
1000
0011
0100
1001
0010
0101
1000
0101
0010
0101
0010
0101
1000
0011
0100
0011
1000
0011
0100
,
1001
0000
0000
0000
0000
0000
0000
0000
1001
0000
0000
0000
0000
0000
0000
0000
0000
0000
0000
0000
0000
0000
0000
0000
1001
0000
0000
0010
0000
0000
0100
0000
0001
0010
0000
0000
1000
0000
0000
0100
1000
0000
0010
0000
0000
0100
0000
0000
,
1010
0000
0000
0001
0000
0000
0100
0000
1000
0010
0000
0000
0100
0000
0000
0001
0000
0000
0010
0000
0000
0100
0000
0000
1010
0000
0000
0001
0000
0000
1000
0000
0010
0100
0000
0000
0001
0000
0000
0100
0010
0000
1000
0000
0001
0010
0000
0000
,
1100
0000
0000
0001
0000
0000
1000
0000
0001
0010
0000
0000
0001
0000
0000
0010
0000
0000
1000
0000
0000
0010
0000
0000
0101
0000
0000
0010
0000
0000
1000
0000
0010
0100
0000
0000
0010
0000
0000
0100
1000
0000
0001
0000
0000
0100
0000
0000
,
1001
0000
0000
0000
0000
0000
0000
0000
1001
0000
0000
0000
0000
0000
0000
0000
0000
0000
0010
0000
0000
0100
0000
0000
1001
0000
0000
0100
0000
0000
0010
0000
1000
0001
0000
0000
0010
0000
0000
0100
0001
0000
1000
0000
0000
0010
0000
0000
,
0110
0001
1000
0010
1100
0001
1000
0010
1000
0100
0010
0001
1010
0100
0010
0001
1100
0010
0100
0001
1010
0100
1000
0001
,
0110
0000
0000
0000
0110
0000
0000
0000
0000
0000
0000
0000
1100
0000
0001
0000
0110
0000
0100
1000
0101
0000
0010
0100
,
0011
0000
0000
0100
0000
0000
0010
0000
1000
0001
0000
0000
0010
0000
0001
0000
0010
0000
0100
0000
0010
0000
0001
0000
1100
0000
0010
0000
0100
0000
0001
0000
1010
0000
0100
0000
0010
0000
0001
0000
0101
0000
0010
0000
1000
0000
0100
0000
,
1010
0001
0010
0100
0010
0001
0110
1000
0010
0001
0100
0010
1100
0010
0100
0001
0100
0010
0101
1000
0100
0001
0010
0100
,
1001
0010
1100
0011
0010
1001
0110
0010
1001
0101
0010
0110
,
1010
0010
0101
0011
0100
1010
1100
0001
0011
0110
0010
0011
,
0101
0010
1010
0101
0010
0101
1010
0100
1001
1100
0010
0001
,
1001
0010
0100
0001
1000
0100
1010
0001
1000
0010
0100
0001
1010
0100
1000
0001
0010
0100
1001
0010
0100
0001
1000
0010
,
0101
0110
1001
0101
0011
0110
1100
0110
0101
1001
0110
0011
,
0101
1010
1100
0101
0011
0110
1001
0011
0101
0110
1010
0110
,
0011
1001
0011
0101
0110
1010
0110
1001
0110
0101
0110
1100
,
0101
0001
0010
0100
1001
0100
0010
1000
0011
0100
1000
0001
0110
1000
0010
0001
,
1100
0000
0000
0000
0001
0000
0000
0000
0011
0000
0000
0000
0110
0000
0000
0000
1000
0000
0000
0000
1001
0000
0000
0000
0110
0000
0000
0001
0000
0000
0010
0000
0001
0100
0000
0000
0011
0000
0000
0001
0000
0000
0100
0000
0001
0010
0000
0000
,
1100
0000
0000
0000
0001
0000
0000
0000
0011
0000
0000
0000
1010
0000
0000
0000
0010
0000
0000
0000
0101
0000
0000
0000
0110
0000
0000
0010
0000
0000
1000
0000
0001
0100
0000
0000
1010
0000
0000
0000
0001
0000
0000
0000
1100
0000
0000
0000
,
0011
0000
0000
0100
0000
0000
0001
0000
1000
0010
0000
0000
0101
0000
0000
0000
0010
0000
0000
0000
0101
0000
0000
0000
1001
0000
0000
0010
0000
0000
0100
0000
1000
0001
0000
0000
1010
0000
0000
0000
0100
0000
0000
0000
1001
0000
0000
0000
,
0101
0000
0000
0010
0000
0000
0001
0000
0100
1000
0000
0000
0011
0000
0000
0000
1000
0000
0000
0000
0110
0000
0000
0000
1010
0000
0001
0000
0100
0000
0010
0000
1001
0000
0100
0000
1010
0000
0001
0000
0010
0000
0100
0000
1010
0000
0001
0000
,
0110
0110
0110
1010
0110
0011
1100
1100
1100
0011
0110
1010
,
0110
0110
0110
0011
0110
1001
0110
0001
1010
0101
1000
0101
,
0011
0011
0011
0101
0110
1100
0101
0101
0101
1100
1010
0101
,
1010
1010
1010
1100
0011
1001
1010
0101
0011
0110
1100
1001
,
0110
0010
0101
1010
0010
0101
0011
0010
1010
0110
0001
1010
,
0101
0100
0011
0110
0001
1001
1100
0010
0110
1001
0100
1001
,
1010
0100
0011
0110
0001
0101
1001
0010
0110
0011
0010
0101
,
0110
0010
1100
0101
1000
0011
0110
0010
1001
0110
0001
0101
,
1010
0010
1100
0011
1000
0011
0110
0001
1010
0101
0010
0101
,
1001
0010
0110
1001
0010
0101
0110
0010
1010
0101
0100
1010
,
0101
0010
1000
0000
0101
0000
0110
0000
0001
0000
0110
0000
1001
0100
0011
0000
1010
0000
0101
0000
0010
0000
0101
0000
,
1010
0010
0110
0101
0010
0101
0011
1000
0110
1001
1010
0101
,
0110
0011
1100
0110
,
1001
0110
1001
0000
0110
0000
1001
0110
1001
0000
0110
0000
1001
0000
0000
0000
0000
0000
0110
0000
1001
0000
0110
0000
,
1001
0000
0000
0000
;

//---------------dance-single - Heavy----------------
#NOTES:
     dance-single:
     Heavy:
     Hard:
     11:
     1.000,1.000,0.047,0.029,1.000,1292.000,8.000,5.000,0.000,0.000:
0000
0000
0000
0000
,
0000
0000
0000
0000
,
0000
0000
0000
1001
0100
0010
0100
0010
0100
0001
0010
0100
,
0010
0100
0010
0001
0100
0010
0100
0010
0100
0001
0010
0100
,
1000
0001
1000
0010
0100
0010
1000
0001
1000
0010
0100
0001
,
0010
0100
0010
0001
1000
0001
0100
0010
0100
0001
0010
0100
,
0010
0001
0010
0100
0010
0001
0100
0010
0100
0001
1000
0001
,
0010
0100
1000
0010
0100
0001
0100
0010
1000
0100
1000
0010
,
0100
0001
0100
0010
0100
0001
0100
0010
0100
0001
0010
0100
,
1000
0010
1000
0001
0010
1000
0010
0001
0010
0100
0010
0001
,
1000
0010
0100
0010
0001
0010
1000
0100
0010
0100
0010
0001
,
0100
0000
0001
0000
0010
0000
0100
0000
0010
0000
0100
0000
0010
0000
0001
0000
0010
0000
0100
1000
0100
0000
1000
0000
,
0010
1000
0010
0100
0010
1000
0100
0010
0001
0100
0010
1000
,
0100
0001
0100
1000
0010
0100
0001
0010
0100
0010
0001
0100
,
0010
1000
0100
1000
0100
0010
0100
1000
0001
0100
0010
1000
,
0100
0010
0001
0000
0010
0000
0100
1000
0100
0000
0010
0000
0100
1000
0010
0000
0100
0000
0001
0010
0001
0000
0100
0000
,
0010
0100
0010
1000
0100
0010
0001
0010
0100
1000
0100
0001
,
0100
1000
0010
0100
1000
0100
0001
0010
0100
1000
0100
0001
,
0100
0010
1000
0010
0001
0100
0010
1000
0100
0010
0001
1000
,
0010
0100
0001
0010
0100
1000
0100
0010
1000
0010
0001
0100
0010
0001
0010
1000
,
0100
0000
0000
0000
1000
0000
0000
0000
0001
0000
0000
0000
0100
0000
0000
0000
0010
0000
0000
0000
0100
0000
0000
0000
0001
0000
0000
1000
0000
0000
0010
0000
0000
0001
0000
0000
0010
0000
0000
0100
0000
0000
0001
0000
0000
0010
0000
0000
,
0100
0000
0000
0000
1000
0000
0000
0000
0001
0000
0000
0000
0010
0000
0000
0000
0100
0000
0000
0000
0010
0000
0000
0000
0100
0000
0000
1000
0000
0000
0001
0000
0000
0010
0000
0000
0100
0000
0000
0000
1000
0000
0000
0000
0100
0000
0000
0000
,
0010
0000
0000
1000
0000
0000
0010
0000
0000
0100
0000
0000
0001
0000
0000
0000
0100
0000
0000
0000
0010
0000
0000
0000
1000
0000
0000
0001
0000
0000
0010
0000
0000
0100
0000
0000
0010
0000
0000
0000
0001
0000
0000
0000
0100
0000
0000
0000
,
0010
0000
0000
0100
0000
0000
0001
0000
0000
0010
0000
0000
0100
0000
0000
0000
1000
0000
0000
0000
0100
0000
0000
0000
1000
0000
0100
0000
0010
0000
0000
0000
0001
0000
0000
0000
0010
0000
0100
0000
1000
0000
0000
0000
0001
0000
0000
0000
,
0010
1000
0010
0100
0010
1000
0010
0100
0010
1000
0100
0010
,
0001
0100
0001
1000
0100
0001
0100
1000
0100
0010
0100
1000
,
0001
0100
0010
0100
1000
0100
0001
0010
0100
0010
0100
1000
,
0010
0000
1000
0000
0100
0000
0010
0000
0100
0000
0010
0000
0100
0000
1000
0000
0100
0000
0010
0001
0010
0000
0001
0000
,
0100
0100
0010
1000
0100
1000
0010
0100
0001
0010
0100
0010
,
0001
0010
0001
0100
1000
0100
0001
0010
0100
1000
0001
0100
,
0010
1000
0100
0010
0001
1000
0010
0100
0001
0010
0001
0100
,
0010
1000
0100
0010
0001
1000
0010
0100
0001
0010
1000
0010
,
0001
0100
0010
1000
0100
1000
0010
0100
0001
0010
0100
0010
,
0001
0100
1000
0100
0001
0010
1000
0010
0100
1000
0001
1000
,
0100
0000
0000
1000
0000
0000
0001
0000
0000
1000
0000
0000
0100
0000
0000
0000
1000
0000
0000
0000
0001
0000
0000
0000
0100
0000
0000
0000
0010
0000
0000
0000
1000
0000
0000
0000
0100
0000
0000
0000
1000
0000
0000
0000
0010
0000
0000
0000
,
0100
0001
0010
0100
1000
0001
0100
0010
1000
0100
0001
0010
,
2000
0000
0000
0000
0000
0000
0000
3000
,
0202
0000
0000
0303
0220
0000
0000
0330
,
0010
0000
0000
0000
0010
0000
1000
0000
0100
0000
0010
0000
0001
0010
0001
0000
0010
0000
0001
0000
0100
0000
0010
0000
,
1000
0000
1000
0100
0000
0100
1000
0000
0000
0001
0000
0000
,
0010
0001
1000
0100
0010
0001
0100
0010
0100
0001
0010
0100
,
0010
0100
1000
0000
0001
0000
1000
0010
1000
0000
0010
0000
0100
0001
0010
0000
0100
0000
1000
0000
0001
0000
0010
0000
,
0100
0000
0000
0000
0000
0000
0000
0000
0100
0000
0000
0000
1000
0000
0000
0000
0001
0000
0000
0000
0100
0000
0000
0000
0010
0000
0000
1000
0000
0000
0100
0000
0000
0010
0000
0000
0100
0000
0000
0010
0000
0000
0001
0000
0000
0100
0000
0000
,
0010
0100
0001
0000
0100
0000
0010
1000
0010
0000
0100
0000
0001
0000
1000
0000
0001
0000
0100
0000
0010
0000
1000
0000
,
0100
0010
0001
0100
0010
0100
0001
0010
0100
1000
0100
0010
,
1000
0000
0000
0000
0000
0000
0000
0000
0000
0000
0000
0000
0000
0000
0000
0000
0000
0000
0000
0000
0010
0000
0000
0000
0001
0000
0000
0100
0000
0000
0010
0000
0000
1000
0000
0000
0001
0000
0000
0010
0000
0000
0100
0000
0000
1000
0000
0000
,
0010
0000
0000
0000
0100
0000
0000
0000
0001
0000
0000
0000
0100
0000
0000
0000
0010
0000
0000
0000
1000
0000
0000
0000
0100
0000
0000
0010
0000
0000
0001
0000
0000
1000
0000
0000
0100
0000
0000
0010
0000
0000
0001
0000
0000
1000
0000
0000
,
0010
0000
0000
0000
0100
0000
0000
0000
0001
0000
0000
0000
1000
0000
0000
0000
0010
0000
0000
0000
0100
0000
0000
0000
0001
0000
0000
1000
0000
0000
0100
0000
0000
0010
0000
0000
0001
0000
0000
1000
0000
0000
0100
0000
0000
0010
0000
0000
,
0001
0000
0000
0000
0010
0000
0000
0000
0100
0000
0000
0000
1000
0000
0000
0000
0010
0000
0000
0000
0100
0000
0000
0000
0001
0000
0000
0100
0000
0000
0010
0000
0000
1000
0000
0000
0100
0000
0000
0001
0000
0000
0100
0000
0000
1000
0000
0000
,
0010
0000
1000
0000
0100
0000
0010
0000
0001
0000
0100
0000
0010
1000
0010
0100
0001
0000
0010
0000
0100
0000
1000
0000
,
0100
0000
1000
0000
0001
0000
0010
0100
1000
0000
0001
0100
0010
1000
0100
0000
0010
0000
0100
0000
1000
0001
0100
0000
,
0001
0000
0010
0000
0100
0000
1000
0100
0010
0000
0001
0000
1000
0001
0100
0010
1000
0000
0100
0000
0010
0100
0010
0000
,
0001
0100
0010
1000
0100
0010
0001
0010
0001
0100
0010
0100
,
0010
1000
0100
0001
0100
1000
0010
0100
0001
0010
0100
0010
,
0001
1000
0001
0100
0010
1000
0100
1000
0010
0100
0001
0010
,
0001
1000
0001
0000
1000
0000
0100
0000
0010
0000
0001
0000
0010
0001
0010
0000
0100
0000
1000
0000
0010
0000
0100
0000
,
0001
0000
0000
0010
0100
1000
0010
0000
0000
0100
0000
0000
,
0001
0000
0000
1000
0100
0010
1000
0010
0001
0100
0010
1000
,
0100
0000
0000
0000
0000
0000
0000
0100
1000
0010
0100
0001
,
0010
0100
1000
0001
0010
0100
0010
0001
0100
0010
1000
0100
1000
0010
0100
0001
,
0010
1000
0010
0001
0100
0010
1000
0100
1000
0010
0100
0010
1000
0100
0001
0100
,
1000
0000
0000
0000
0010
0000
0000
0000
1000
0000
0000
0000
0010
0000
0000
0000
0100
0000
0000
0000
0001
0000
0000
0000
0010
0000
0000
0100
0000
0000
1000
0000
0000
0001
0000
0000
0010
0000
0000
0100
0000
0000
1000
0000
0000
0001
0000
0000
,
0100
0000
0000
0000
0010
0000
0000
0000
1000
0000
0000
0000
0001
0000
0000
0000
0100
0000
0000
0000
0010
0000
0000
0000
1000
0000
0000
0001
0000
0000
0010
0000
0000
0100
0000
0000
1000
0000
0000
0000
0001
0000
0000
0000
0010
0000
0000
0000
,
0001
0000
0000
0000
0010
0000
0000
0000
0100
0000
0000
0000
1000
0000
0000
0000
0010
0000
0000
0000
0100
0000
0000
0000
0001
0000
0000
0100
0000
0000
0010
0000
0000
1000
0000
0000
0100
0000
0000
0000
0010
0000
0000
0000
0001
0000
0000
0000
,
0100
0000
0001
0000
0010
0000
0100
0000
1000
0000
0010
0000
0100
0001
0100
0000
0010
0000
0100
0001
0100
0000
0001
0000
,
1000
0000
0000
0000
0000
1000
0001
0100
0001
0010
0100
1000
,
0010
0000
0000
0000
1000
0010
1000
0000
0000
0000
0100
0000
0100
0000
0001
0000
0010
0000
0100
0000
0010
0000
0001
0000
,
1000
0010
0100
0001
0010
0100
1000
0000
0010
0001
0010
0100
,
0001
0000
0100
0000
1000
0000
0010
0000
0001
0000
0010
0000
0100
0000
1000
0000
0100
0000
0001
0000
0000
0000
0001
1000
,
0001
0000
0000
1000
0000
0000
0010
0000
0000
0100
0000
0000
0010
0000
0000
1000
0000
0000
0100
0000
0000
0010
0000
0000
0001
0000
0000
0010
0000
0000
0100
0000
0000
1000
0000
0000
0001
0000
0000
0000
0100
0000
0000
0000
0010
0000
0000
0000
,
1000
0000
0000
0000
0000
0000
0011
0000
0000
0000
0000
0000
1010
0000
0000
0000
0000
0000
0001
1000
0001
0000
1000
0000
,
0010
0100
0001
0010
0100
0001
0100
1000
0010
0100
0010
1000
0100
0010
0001
0100
,
0010
0100
0010
0000
0100
0000
0001
0100
0001
0000
0010
0000
0100
1000
0100
0000
0010
0000
0001
0100
0001
0000
0010
0000
,
0100
0000
0000
0000
0000
0000
0000
0000
1000
0010
0100
0010
1000
0100
0010
0100
,
1000
0001
0100
0010
0100
0001
0010
0100
0010
0001
1000
0100
0001
0100
1000
0010
,
0100
0001
1000
0010
0001
0010
1000
0010
0100
0010
1000
0100
0010
0100
0001
0100
,
1000
0000
0000
0000
0000
0000
0010
0100
1000
0100
0010
0001
0010
0100
1000
0010
,
0100
0000
0001
0100
0001
0000
1000
0000
0010
0100
0010
0000
1000
0000
0010
0100
0001
0000
0010
0000
0100
1000
0001
0000
,
1000
0000
0000
0000
0000
0000
0000
0000
0000
0000
0000
0000
0100
0000
0001
0000
0010
0000
0100
1000
0100
0000
0010
0100
,
0010
0000
0000
0100
0000
0000
0010
0000
0000
0001
0000
0000
0010
0000
0001
0000
0010
0000
0000
0000
0100
0000
0000
0000
1000
0000
0000
0000
0100
0000
0010
0000
0100
0000
0000
0000
0010
0000
0000
0000
0100
0000
0010
0000
0001
0000
0000
0000
,
0010
0001
0010
0000
0001
0000
0010
0000
0010
0001
0100
0000
0010
0000
0100
0001
0100
0000
0001
1000
0100
0000
0010
0000
,
0100
0010
0100
0001
0010
0001
0100
0010
1000
0100
0010
0100
,
1000
0010
0001
0010
0100
1000
0100
0001
0010
0100
0010
0001
,
0100
0010
1000
0100
0010
0100
1000
0100
0001
0100
0010
0001
,
1000
0010
0100
0000
0001
0000
0010
0000
0000
0000
0100
0000
0010
0001
0010
0000
0100
0000
1000
0000
0000
0000
0010
0000
,
0100
0010
1000
0100
0001
0100
1000
0010
0100
0001
0010
0001
,
0100
0010
1000
0100
0010
0100
1000
0010
0001
0010
1000
0100
,
0010
0001
0010
0001
0100
0010
0100
0001
0010
0001
0100
1000
,
0100
0001
0010
0100
1000
0100
0010
1000
0010
0100
1000
0001
0010
1000
0010
0001
,
0100
0000
0000
0000
0001
0000
0000
0000
0010
0000
0000
0000
0100
0000
0000
0000
1000
0000
0000
0000
0001
0000
0000
0000
0100
0000
0000
0001
0000
0000
0010
0000
0000
0100
0000
0000
0010
0000
0000
0001
0000
0000
0100
0000
0000
0010
0000
0000
,
1000
0000
0000
0000
0001
0000
0000
0000
0010
0000
0000
0000
1000
0000
0000
0000
0010
0000
0000
0000
0001
0000
0000
0000
0100
0000
0000
0010
0000
0000
1000
0000
0000
0100
0000
0000
1000
0000
0000
0000
0001
0000
0000
0000
1000
0000
0000
0000
,
0010
0000
0000
0100
0000
0000
0001
0000
0000
0010
0000
0000
0100
0000
0000
0000
0010
0000
0000
0000
0001
0000
0000
0000
1000
0000
0000
0010
0000
0000
0100
0000
0000
0001
0000
0000
0010
0000
0000
0000
0100
0000
0000
0000
1000
0000
0000
0000
,
0100
0000
0000
0010
0000
0000
0001
0000
0000
1000
0000
0000
0010
0000
0000
0000
1000
0000
0000
0000
0010
0000
0000
0000
1000
0000
0001
0000
0100
0000
0000
0000
0010
0000
0000
0000
0100
0000
0001
0000
0100
0000
0000
0000
0010
0000
0000
0000
,
0010
1000
0010
0100
0010
1000
0010
0100
0010
1000
0100
0010
,
0001
0100
0001
1000
0100
0001
0100
1000
0100
0010
0100
1000
,
0001
0100
0010
0100
1000
0100
0001
0010
0100
0010
0100
1000
,
0010
0000
1000
0000
0100
0000
0010
0000
0100
0000
0010
0000
0100
0000
1000
0000
0100
0000
0010
0001
0010
0000
0001
0000
,
0100
0010
0001
1000
0010
0100
0001
0010
0001
0100
0010
0100
,
0010
1000
0010
0100
0001
1000
0100
0010
0100
0001
0100
1000
,
0010
0100
0001
0010
0001
0100
1000
0010
0100
0001
0010
0001
,
0100
0010
0100
0001
1000
0010
0100
0010
1000
0100
0001
0100
,
1000
0010
0100
0001
1000
0010
0100
0001
0010
0100
0010
0001
,
1000
0010
0100
0001
0010
0001
0100
0010
1000
0001
0100
1000
,
0100
0010
1000
0000
0100
0000
0010
0000
0001
0000
0100
0000
0001
0100
0001
0000
0010
0000
0100
0000
0010
0000
0001
0000
,
1000
0010
0100
0001
0010
0100
0001
1000
0100
0001
0010
0001
,
0010
0001
1100
0110
,
0001
0010
0100
0000
1000
0000
0100
0010
0001
0000
0010
0000
0100
0000
0000
0000
0000
0000
0010
0000
0100
0000
0010
0000
,
1001
0000
0000
0000
;
