#TITLE:Techno Tetris;
#SUBTITLE:;
#ARTIST:Aphex Twin;
#TITLETRANSLIT:;
#SUBTITLETRANSLIT:;
#ARTISTTRANSLIT:;
#CREDIT:;
#BANNER:bn.PNG;
#BACKGROUND:bg.PNG;
#LYRICSPATH:;
#CDTITLE:moonlightx.png;
#MUSIC:Techno Tetris.mp3;
#OFFSET:-0.030;
#SAMPLESTART:53.260;
#SAMPLELENGTH:13.300;
#SELECTABLE:YES;
#BPMS:0.000=144.280;
#STOPS:;
#BGCHANGES:;
// cache tags:
#FIRSTBEAT:16.000;
#LASTBEAT:223.000;
#SONGFILENAME:Songs/toune 2/Techno Tetris/Techno Tetris.sm;
#HASMUSIC:1;
#HASBANNER:1;
#MUSICLENGTH:93.082;
// end cache tags

//---------------dance-single - ----------------
#NOTES:
     dance-single:
     :
     Challenge:
     11:
     1.000,1.000,1.000,0.312,0.457,399.000,271.000,29.000,0.000,0.000:
0000
0000
0000
0000
,
0000
0000
0000
0000
,
0000
0000
0000
0000
,
0000
0000
0000
0000
,
1100
0011
0011
1100
0110
1010
0101
1010
,
0110
0110
0011
1010
0110
0110
1100
0101
,
0110
1010
0101
0011
0110
0011
0101
1100
,
1010
0101
0110
0101
0110
1100
0110
0110
,
1001
0110
0110
0101
,
1010
0101
1010
1100
,
0110
0011
0110
1010
,
0101
0110
0011
0110
,
1010
0101
0011
0110
,
1100
0101
1010
0110
,
0101
0011
0110
1010
,
0101
0110
1100
0110
,
1001
0000
0110
0000
0101
0010
0000
0000
1010
0000
0011
0000
0110
1000
0000
0000
,
0110
0000
0011
0000
0110
1000
0000
0000
1010
0000
0110
0000
0011
0100
0000
0000
,
0011
0000
1100
0000
0110
0001
0000
0000
0110
0000
1010
0000
0011
1000
0000
0000
,
0101
0000
0011
0000
0101
1000
0000
0000
0011
0000
1100
0000
0011
0100
0000
0000
,
0110
0000
0011
0000
0110
1000
0000
0000
1100
0000
0011
0000
0101
0010
0000
0000
,
0101
0000
0011
0000
1100
0010
0000
0000
1001
0000
1010
0000
0110
0001
0000
0000
,
0110
0000
0011
0000
0110
1000
0000
0000
0110
0000
1001
0000
1010
0100
0000
0000
,
0011
0000
1100
0000
0011
0100
0000
0000
1100
0000
0110
0000
0011
0100
0000
0000
,
1001
0100
0010
0001
1100
0010
1000
0010
1100
0001
0100
0010
1100
0001
0100
0010
,
1001
0010
0100
0001
1100
0010
1000
0010
1100
0001
0100
0010
1001
0010
0001
0100
,
0011
0100
1000
0001
0110
0001
0010
0100
0011
0100
1000
0010
1100
0001
0010
0100
,
0011
0100
1000
0010
0101
1000
0010
0100
0011
0100
1000
0010
1100
0001
0010
0001
,
0110
1000
0010
0100
0011
1000
0100
0001
1100
0001
0010
0100
0011
1000
0010
1000
,
0011
0100
1000
0010
1100
0001
0010
0100
1010
0001
0010
0100
0011
1000
0010
0001
,
1100
0010
0100
0001
1010
0100
0010
0100
1001
0010
0001
0010
0101
1000
0100
1000
,
0101
0010
0001
0010
0101
1000
0010
0100
0011
1000
0010
0100
0011
1000
0110
0000
,
2002
0000
3003
0000
0110
0000
0011
0000
2200
0000
0000
3300
0011
0000
1100
0000
,
2002
3003
0110
0101
2002
3003
0110
0101
,
2020
0000
0000
0000
0000
0000
0000
0000
3030
0000
0000
0010
1100
0000
0000
0000
0021
0000
0000
0000
0030
0000
0000
0000
1200
0000
0000
0000
0300
0000
0000
0000
,
2010
0000
3000
0000
0201
0000
0300
0000
2010
0000
0000
0000
0200
3300
0020
0030
,
2002
3003
0210
0000
0301
0000
1100
0000
0021
0030
0100
0000
1010
0000
0110
0000
,
0201
0000
0000
0000
0010
0000
0300
0000
1000
0000
0000
0100
0011
0000
0000
0000
0210
0000
0000
0000
0301
0000
0000
0000
1100
0000
0000
0000
0011
0000
0000
0000
,
2100
0000
0010
3000
0110
0000
0101
0000
2100
0000
3010
0000
0021
0000
0130
0000
,
2100
0000
0000
0000
3010
0000
0000
0000
0101
0000
0000
0000
0000
0000
0000
0000
1010
0000
0000
0000
0000
0000
0000
0000
1010
0000
0000
0000
0000
0000
0000
0110
,
1001
0000
1001
0011
0110
0000
0101
0011
,
0110
0000
1010
0011
0101
0000
1100
0011
,
0110
0000
0101
1100
0011
0000
1100
0000
,
0101
0000
1010
0000
0110
0000
0011
0110
,
1010
0011
1100
0110
0101
0000
1010
0110
,
1001
0000
0000
0000
0000
0000
0000
0000
0101
0000
0000
0010
1100
0000
0000
0000
0011
0000
0000
0000
0000
0000
0000
0000
1100
0000
0000
0000
0110
0000
0000
0000
,
1001
0000
0101
1100
0011
0000
1100
0000
,
0101
0101
0110
1100
,
1010
0000
1001
0110
0110
0000
1010
0110
,
1010
0000
0101
1001
0110
0000
1100
0011
,
0101
0000
0000
0000
0000
0000
0000
0000
0101
0000
0000
0100
1010
0000
0000
0000
0101
0000
0000
0000
0000
0000
0000
0000
1100
0000
0000
0000
0000
0000
0000
0000
,
0011
0000
0000
0000
0000
0000
0000
0000
0110
0000
0000
0000
0000
0000
0000
0000
0101
0000
0000
0000
0000
0000
0000
0000
1200
0000
0000
0300
0002
0000
0003
0000
,
0110
1010
0101
0101
0010
0000
1100
0110
,
0101
0000
0000
0000
0000
0000
0000
0000
0110
0000
0000
1000
0110
0000
0000
0000
1100
0000
0000
0000
0000
0000
0000
0000
0101
0000
0000
0000
1010
0000
0000
0000
,
0110
0000
0101
1001
0110
0000
0110
0000
,
1100
0011
0110
0110
;

//---------------dance-single - ----------------
#NOTES:
     dance-single:
     :
     Hard:
     10:
     0.941,1.000,1.000,0.387,0.424,380.000,197.000,36.000,0.000,0.000:
0000
0000
0000
0000
,
0000
0000
0000
0000
,
0000
0000
0000
0000
,
0000
0000
0000
0000
,
1100
0010
0011
0100
0110
1000
0101
0010
,
0110
0100
0011
0010
0110
0100
1100
0100
,
0110
0010
0101
0001
0110
0010
0101
0100
,
1010
0010
0110
0100
0110
0100
0110
0010
,
1001
0110
0110
0101
,
1010
0101
1010
1100
,
0110
0011
0110
1010
,
0101
0110
0011
0110
,
1010
0101
0011
0110
,
1100
0101
1010
0110
,
0101
0011
0110
1010
,
0101
0110
1100
0110
,
1001
0110
0000
0000
0101
0000
0000
0000
1010
0000
0010
0000
0110
0000
0000
0000
,
0110
0000
0001
0000
0110
1000
0000
0000
1010
0000
0100
0000
0011
0100
0000
0000
,
0011
0000
0100
0000
0110
0001
0000
0000
0110
0000
0010
0000
0011
1000
0000
0000
,
0101
0000
0010
0000
0101
1000
0000
0000
0011
0000
0100
0000
0011
0100
0000
0000
,
0110
0000
0010
0000
0110
1000
0000
0000
1100
0000
0010
0000
0101
0010
0000
0000
,
0101
0000
0010
0000
1100
0010
0000
0000
1001
0000
0010
0000
0110
0001
0000
0000
,
0110
0000
0010
0000
0110
1000
0000
0000
0110
0000
0001
0000
1010
0100
0000
0000
,
0011
0000
0100
0000
0011
0100
0000
0000
1100
0000
0100
0000
0011
0100
0000
0000
,
1000
0100
0010
0001
1000
0010
1000
0010
0100
0001
0100
0010
0100
0001
0100
0010
,
0001
0010
0100
0001
1000
0010
1000
0010
1000
0001
0100
0010
1000
0010
0001
0100
,
0010
0001
1000
0001
0100
0001
0010
0100
0010
0100
1000
0010
1000
0001
0010
0001
,
0001
0100
1000
0010
0100
0100
0010
0100
0001
0010
1000
0010
1000
0001
0010
0001
,
0100
1000
0010
0100
0001
0010
0100
0001
0100
1000
0010
0100
0001
0100
0010
0100
,
0010
0100
1000
0010
1000
0001
0010
0100
1000
0001
0010
0100
0010
1000
0010
0001
,
1000
0010
0100
0001
0010
0100
0010
0100
0001
0010
0001
0010
0100
1000
0100
1000
,
0001
0010
0001
0010
0100
1000
0010
0100
0001
1000
0010
0100
0001
1000
0110
0000
,
2002
0000
3003
0000
0110
0000
0011
0000
2200
0000
0000
3300
0011
0000
1100
0000
,
2002
3003
0110
0101
2002
3003
0110
0101
,
2020
0000
3030
1100
0022
0033
2200
3300
,
0220
0000
0330
0000
0202
0000
0303
0000
2020
0000
0000
0000
0000
3030
0000
0000
,
1001
0000
0220
0000
0330
0000
1100
0000
0022
0033
0000
0000
1010
0000
0110
0000
,
0202
0000
0000
0303
0000
0000
0011
0000
0220
0000
0330
0000
1100
0000
0011
0000
,
2020
0000
0000
3030
0110
0000
0101
0000
2020
0000
3030
0000
0022
0000
0033
0000
,
2200
0000
0000
0000
3300
0000
0000
0000
0101
0000
0000
0000
0000
0000
0000
0000
1010
0000
0000
0000
0000
0000
0000
0000
1010
0000
0000
0000
0000
0000
0000
0110
,
1001
0000
1001
0010
0110
0000
0101
0010
,
0110
0000
1010
0010
0101
0000
1100
0001
,
0110
0000
0101
0100
0011
0000
1100
0000
,
0101
0000
1010
0000
0110
0000
0011
0110
,
1010
0010
1100
0100
0101
0000
1010
0100
,
1001
0000
0101
0100
0011
0000
1100
0100
,
1001
0000
0101
0100
0011
0000
1100
0000
,
0101
0101
0110
1100
,
1010
0000
1001
0110
0110
0000
1010
0110
,
1010
0000
0101
1001
0110
0000
1100
0011
,
0101
0000
0101
1010
0101
0000
1100
0000
,
0011
0110
0101
1100
,
0110
1010
0101
0101
0010
0000
1100
0110
,
0101
0000
0110
0110
1100
0000
0101
1010
,
0110
0000
0101
1001
0110
0000
0110
0000
,
1100
0011
0110
0110
;
