#TITLE:Beautiful Loli Thing;
#SUBTITLE:;
#ARTIST:Goreshit;
#TITLETRANSLIT:;
#SUBTITLETRANSLIT:;
#ARTISTTRANSLIT:;
#CREDIT:owenviau1;
#BANNER:../owenviau1 Simfiles 6 (Science X Owen).png;
#BACKGROUND:BG.PNG;
#LYRICSPATH:;
#CDTITLE:;
#MUSIC:Goreshit - Beautiful Loli Thing.mp3;
#OFFSET:-0.240;
#SAMPLESTART:58.448;
#SAMPLELENGTH:29.999;
#SELECTABLE:YES;
#DISPLAYBPM:201.000;
#BPMS:0.000=201.003;
#STOPS:;
#BGCHANGES:;
// cache tags:
#FIRSTBEAT:2.000;
#LASTBEAT:581.000;
#SONGFILENAME:Songs/owenviau1 Simfiles 6/Beautiful Loli Thing - [owenviau1] v1.0.0/Beautiful Loli Thing.sm;
#HASMUSIC:1;
#HASBANNER:1;
#MUSICLENGTH:178.938;
// end cache tags

//---------------dance-single - 17 (owenviau1)----------------
#NOTES:
     dance-single:
     17 (owenviau1):
     Challenge:
     17:
     1.000,1.000,0.000,0.089,1.000,1994.000,0.000,16.000,1.000,0.000:

4000
0000
0000
0000
30M0
0002
0203
0320
,
1030
0001
0100
0000
0010
1000
0001
0000
1000
0100
0010
0000
0001
0100
0010
1000
,
0001
0100
0010
0000
1000
0001
0010
0000
0100
1000
0001
0000
0100
0010
1000
0001
,
0100
0001
1000
0000
0010
0100
0001
0000
1000
0001
1000
0000
0010
0100
0001
1000
,
0001
0100
0010
0000
1000
0100
1000
0000
0001
0100
0001
0000
1000
0010
0100
0001
,
1000
0100
0010
0000
0001
0100
0010
0000
1000
0001
0010
0000
0100
1000
0100
0010
,
0001
0100
0010
0000
1000
0001
0100
0000
0001
1000
0001
0000
0100
0010
1000
0001
,
0010
0001
0100
0000
0010
1000
0001
0000
0100
0010
1000
0000
0001
0100
0010
1000
,
0001
1000
0010
0000
0100
0001
1000
0000
0010
0000
0200
0000
0302
0000
2003
0000
,
3010
0000
0100
0000
0001
0000
1000
0010
1000
0001
0100
0000
0010
0000
1000
0000
,
0100
0000
0010
0000
0001
0000
0100
0010
1000
0010
0100
0000
0001
0000
0100
0000
,
0010
0000
1000
0000
0001
0000
0010
0100
1000
0001
0100
0000
0010
0000
1000
0000
,
0001
0000
0100
0000
0010
0000
1000
0001
0010
0001
0200
0000
0320
0000
2030
0000
,
3001
0000
0100
0000
0001
0000
1000
0010
1000
0001
0100
0000
0010
0000
1000
0000
,
0100
0000
0010
0000
0001
0000
0100
0010
1000
0010
0100
0000
0001
0000
0100
0000
,
0010
1000
0100
1000
0001
0100
0010
1000
,
0100
0010
0001
1000
0001
0100
0010
1000
0100
0010
0002
0000
0203
0000
0320
0000
,
1030
0001
0100
0010
1000
0001
0100
0001
1000
0010
0100
0001
1000
0100
1000
0010
,
0100
0001
1000
0100
0010
0001
1000
0001
0100
0010
1000
0001
0010
0001
1000
0100
,
1000
0010
0100
0001
0100
0010
1000
0100
0010
0001
1000
0010
1000
0001
0100
0010
,
1000
0100
0010
0001
0100
0010
0100
0001
1000
0010
1000
0001
0100
0010
1000
0100
,
0010
0001
0100
0001
1000
0010
1000
0100
0010
0001
0100
0010
1000
0001
0010
0001
,
0100
0010
0100
0001
1000
0010
1000
0100
0010
0001
0100
0010
1000
0001
0010
0001
,
0100
0010
1000
0100
1000
0001
0100
0001
1000
0010
0100
0010
1000
0001
0100
0001
,
1000
0100
0010
0001
0100
0010
1000
0001
0010
0001
0100
0010
0100
0001
1000
0100
,
1000
0010
0100
0001
1000
0100
0010
0001
1000
0001
0100
0010
1000
0001
0100
0001
,
1000
0010
0100
0001
1000
0100
1000
0010
0100
0001
1000
0100
0010
0001
1000
0001
,
0100
0010
1000
0001
0010
0001
1000
0100
1000
0010
0100
0001
0100
0010
1000
0100
,
0010
0001
1000
0010
1000
0001
0100
0010
1000
0100
0010
0001
0100
0010
0100
0001
,
1000
0010
1000
0001
0100
0010
1000
0100
0010
0001
0100
0001
1000
0010
1000
0100
,
0010
0001
0100
0010
1000
0001
0010
0001
0100
0010
0100
0001
1000
0010
1000
0100
,
0010
0001
0100
0010
1000
0001
0010
0001
0100
0010
1000
0100
1000
0001
0100
0001
,
1000
0010
0100
0010
1000
0001
0100
0001
1000
0100
0010
0001
0100
0010
1000
0001
,
0100
0000
0010
0000
1000
0000
0001
0100
0010
1000
0001
0000
0100
0000
0010
0000
,
1000
0000
0100
0000
0010
0000
0001
1000
0001
0100
0010
0000
1000
0000
0100
0000
,
0010
0000
0001
0000
1000
0000
0010
0100
0010
1000
0001
0000
0100
0000
0001
0000
,
1000
0000
0010
0000
0100
0000
0001
1000
0001
0010
0100
0000
1000
0000
0001
0000
,
0100
0000
0010
0000
1000
0000
0001
0100
0010
1000
0001
0000
0100
0000
0010
0000
,
1000
0000
0100
0000
0010
0000
0001
1000
0001
0100
0010
0000
1000
0000
0100
0000
,
0010
0000
0001
0000
1000
0000
0010
0100
0010
1000
0001
0000
0100
0000
0001
0000
,
1000
0000
0010
0000
0100
0000
0001
1000
0001
0010
0100
0000
1000
0000
0001
0000
,
1000
0001
0100
0010
0100
0001
1000
0001
0100
0010
0100
0001
1000
0100
1000
0010
,
0100
0001
1000
0100
0010
0001
1000
0001
0100
0010
1000
0001
0010
0001
1000
0100
,
1000
0010
0100
0001
0100
0010
1000
0100
0010
0001
1000
0010
1000
0001
0100
0010
,
1000
0100
0010
0001
0100
0010
0100
0001
1000
0010
1000
0001
0100
0010
1000
0100
,
0010
0001
0100
0001
1000
0010
1000
0100
0010
0001
0100
0010
1000
0001
0010
0001
,
0100
0010
0100
0001
1000
0010
1000
0100
0010
0001
0100
0010
1000
0001
0010
0001
,
0100
0010
1000
0100
1000
0001
0100
0001
1000
0010
0100
0010
1000
0001
0100
0001
,
1000
0100
0010
0001
0100
0010
1000
0001
0010
0001
0100
0010
0100
0001
1000
0100
,
1000
0010
0100
0001
1000
0100
0010
0001
1000
0001
0100
0010
1000
0001
0100
0001
,
1000
0010
0100
0001
1000
0100
1000
0010
0100
0001
1000
0100
0010
0001
1000
0001
,
0100
0010
1000
0001
0010
0001
1000
0100
1000
0010
0100
0001
0100
0010
1000
0100
,
0010
0001
1000
0010
1000
0001
0100
0010
1000
0100
0010
0001
0100
0010
0100
0001
,
1000
0010
1000
0001
0100
0010
1000
0100
0010
0001
0100
0001
1000
0010
1000
0100
,
0010
0001
0100
0010
1000
0001
0010
0001
0100
0010
0100
0001
1000
0010
1000
0100
,
0010
0001
0100
0010
1000
0001
0010
0001
0100
0010
1000
0100
1000
0001
0100
0001
,
1000
0010
0100
0010
1000
0001
0100
0001
1000
0100
0010
0001
0100
0010
1000
0001
,
0010
0001
0100
0010
0100
0001
1000
0100
1000
0010
0100
0001
1000
0100
0010
0001
,
1000
0001
0100
0010
1000
0001
0100
0001
1000
0010
0100
0001
1000
0100
1000
0010
,
0100
0001
1000
0100
0010
0001
1000
0001
0100
0010
1000
0001
0010
0001
1000
0100
,
1000
0010
0100
0001
0100
0010
1000
0100
0010
0001
1000
0010
1000
0001
0100
0010
,
1000
0100
0010
0001
0100
0010
0100
0001
1000
0010
1000
0001
0100
0010
1000
0100
,
0010
0001
0100
0001
1000
0010
1000
0100
0010
0001
0100
0010
1000
0001
0010
0001
,
0100
0010
0100
0001
1000
0010
1000
0100
0010
0001
0100
0010
1000
0001
0010
0001
,
0100
0010
1000
0100
1000
0001
0100
0001
1000
0010
0100
0001
1000
0010
0100
0001
,
0010
0001
1000
0010
1000
0001
0100
0001
1000
0010
0100
0001
1000
0100
1000
0010
,
0100
0001
1000
0100
0010
0001
1000
0001
0100
0010
1000
0001
0010
0001
1000
0100
,
1000
0010
0100
0001
0100
0010
1000
0100
0010
0001
1000
0010
1000
0001
0100
0010
,
1000
0100
0010
0001
0100
0010
0100
0001
1000
0010
1000
0001
0100
0010
1000
0100
,
0010
0001
0100
0001
1000
0010
1000
0100
0010
0001
0100
0010
1000
0001
0010
0001
,
0100
0010
0100
0001
1000
0010
1000
0100
0010
0001
0100
0010
1000
0001
0010
0001
,
0100
0010
1000
0100
1000
0001
0100
0001
1000
0010
0100
0010
1000
0001
0100
0001
,
1000
0100
0010
0001
0100
0010
1000
0001
0010
0001
0100
0010
0100
0001
1000
0100
,
1000
0010
0100
0001
1000
0100
0010
0001
1000
0001
0100
0010
1000
0001
0100
0001
,
1000
0010
0100
0001
1000
0100
1000
0010
0100
0001
1000
0100
0010
0001
1000
0001
,
0100
0010
1000
0001
0010
0001
1000
0100
1000
0010
0100
0001
0100
0010
1000
0100
,
0010
0001
1000
0010
1000
0001
0100
0010
1000
0100
0010
0001
0100
0010
0100
0001
,
1000
0010
1000
0001
0100
0010
1000
0100
0010
0001
0100
0001
1000
0010
1000
0100
,
0010
0001
0100
0010
1000
0001
0010
0001
0100
0010
0100
0001
1000
0010
1000
0100
,
0010
0001
0100
0010
1000
0001
0010
0001
0100
0010
1000
0100
1000
0001
0100
0001
,
1000
0010
0100
0010
1000
0001
0100
0001
1000
0100
0010
0001
0100
0010
1000
0001
,
0100
0000
0010
0000
1000
0000
0001
0100
0010
1000
0001
0000
0100
0000
0010
0000
,
1000
0000
0100
0000
0010
0000
0001
1000
0001
0100
0010
0000
1000
0000
0100
0000
,
0010
0000
0001
0000
1000
0000
0010
0100
0010
1000
0001
0000
0100
0000
0001
0000
,
1000
0000
0010
0000
0100
0000
0001
1000
0001
0010
0100
0000
1000
0000
0001
0000
,
0100
0000
0010
0000
1000
0000
0001
0100
0010
1000
0001
0000
0100
0000
0010
0000
,
1000
0000
0100
0000
0010
0000
0001
1000
0001
0100
0010
0000
1000
0000
0100
0000
,
0010
0000
0001
0000
1000
0000
0010
0100
0010
1000
0001
0000
0100
0000
0001
0000
,
1000
0000
0010
0000
0100
0000
0001
1000
0001
0010
0100
0000
1000
0000
0001
0000
,
0100
0000
0010
0000
1000
0000
0001
0100
0010
1000
0001
0000
0100
0000
0010
0000
,
1000
0000
0100
0000
0010
0000
0001
1000
0001
0100
0010
0000
1000
0000
0100
0000
,
0010
0000
0001
0000
1000
0000
0010
0100
0010
1000
0001
0000
0100
0000
0001
0000
,
1000
0000
0010
0000
0100
0000
0001
1000
0001
0010
0100
0000
1000
0000
0001
0000
,
0100
0000
0010
0000
1000
0000
0001
0100
0010
1000
0001
0000
0100
0000
0010
0000
,
1000
0000
0100
0000
0010
0000
0001
1000
0001
0100
0010
0000
1000
0000
0100
0000
,
0010
0000
0001
0000
1000
0000
0010
0100
0010
1000
0001
0000
0100
0000
0001
0000
,
1000
0000
0010
0000
0100
0000
0001
1000
0001
0010
0200
0000
2300
0000
3020
0000
,
1030
0001
0100
0010
0100
0001
1000
0001
0100
0010
0100
0001
1000
0100
1000
0010
,
0100
0001
1000
0100
0010
0001
1000
0001
0100
0010
1000
0001
0010
0001
1000
0100
,
1000
0010
0100
0001
0100
0010
1000
0100
0010
0001
1000
0010
1000
0001
0100
0010
,
1000
0100
0010
0001
0100
0010
0100
0001
1000
0010
1000
0001
0100
0010
1000
0100
,
0010
0001
0100
0001
1000
0010
1000
0100
0010
0001
0100
0010
1000
0001
0010
0001
,
0100
0010
0100
0001
1000
0010
1000
0100
0010
0001
0100
0010
1000
0001
0010
0001
,
0100
0010
1000
0100
1000
0001
0100
0001
1000
0010
0100
0010
1000
0001
0100
0001
,
1000
0100
0010
0001
0100
0010
1000
0001
0010
0001
0100
0010
0100
0001
1000
0100
,
1000
0010
0100
0001
1000
0100
0010
0001
1000
0001
0100
0010
1000
0001
0100
0001
,
1000
0010
0100
0001
1000
0100
1000
0010
0100
0001
1000
0100
0010
0001
1000
0001
,
0100
0010
1000
0001
0010
0001
1000
0100
1000
0010
0100
0001
0100
0010
1000
0100
,
0010
0001
1000
0010
1000
0001
0100
0010
1000
0100
0010
0001
0100
0010
0100
0001
,
1000
0010
1000
0001
0100
0010
1000
0100
0010
0001
0100
0001
1000
0010
1000
0100
,
0010
0001
0100
0010
1000
0001
0010
0001
0100
0010
0100
0001
1000
0010
1000
0100
,
0010
0001
0100
0010
1000
0001
0010
0001
0100
0010
1000
0100
1000
0001
0100
0001
,
1000
0010
0100
0010
1000
0001
0100
0001
1000
0100
0010
0001
0100
0010
1000
0001
,
0010
0001
0100
0010
0100
0001
1000
0100
1000
0010
0100
0001
1000
0100
0010
0001
,
0100
0001
1000
0010
1000
0001
0100
0001
1000
0010
0100
0001
1000
0100
1000
0010
,
0100
0001
1000
0100
0010
0001
1000
0001
0100
0010
1000
0001
0010
0001
1000
0100
,
1000
0010
0100
0001
0100
0010
1000
0100
0010
0001
1000
0010
1000
0001
0100
0010
,
1000
0100
0010
0001
0100
0010
0100
0001
1000
0010
1000
0001
0100
0010
1000
0100
,
0010
0001
0100
0001
1000
0010
1000
0100
0010
0001
0100
0010
1000
0001
0010
0001
,
0100
0010
0100
0001
1000
0010
1000
0100
0010
0001
0100
0010
1000
0001
0010
0001
,
0100
0010
1000
0100
1000
0001
0100
0001
1000
0010
0100
0001
1000
0010
0100
0001
,
0010
0001
1000
0010
1000
0001
0100
0001
1000
0010
0100
0001
1000
0100
1000
0010
,
0100
0001
1000
0100
0010
0001
1000
0001
0100
0010
1000
0001
0010
0001
1000
0100
,
1000
0010
0100
0001
0100
0010
1000
0100
0010
0001
1000
0010
1000
0001
0100
0010
,
1000
0100
0010
0001
0100
0010
0100
0001
1000
0010
1000
0001
0100
0010
1000
0100
,
0010
0001
0100
0001
1000
0010
1000
0100
0010
0001
0100
0010
1000
0001
0010
0001
,
0100
0010
0100
0001
1000
0010
1000
0100
0010
0001
0100
0010
1000
0001
0010
0001
,
0100
0010
1000
0100
1000
0001
0100
0001
1000
0010
0100
0010
1000
0001
0100
0001
,
1000
0100
0010
0001
0100
0010
1000
0001
0010
0001
0100
0010
0100
0001
1000
0010
,
1000
0000
0001
0000
0100
0000
0001
1000
0010
1000
0001
0000
0100
0000
0010
0000
,
1000
0000
0100
0000
0010
0000
0001
1000
0001
0100
0010
0000
1000
0000
0100
0000
,
0010
0000
0001
0000
1000
0000
0010
0100
0010
1000
0001
0000
0100
0000
0001
0000
,
1000
0000
0010
0000
0100
0000
0001
1000
0001
0010
0100
0000
1000
0000
0001
0000
,
0100
0000
0010
0000
1000
0000
0001
0100
0010
1000
0001
0000
0100
0000
0010
0000
,
1000
0000
0100
0000
0010
0000
0001
1000
0001
0100
0010
0000
1000
0000
0100
0000
,
0010
0000
0001
0000
1000
0000
0010
0100
0010
1000
0001
0000
0100
0000
0001
0000
,
1000
0000
0010
0000
0100
0000
0001
1000
0001
0010
0100
0000
1000
0000
0001
0000
,
0100
0000
0010
0000
1000
0000
0001
0100
0010
1000
0001
0000
0100
0000
0010
0000
,
1000
0000
0100
0000
0010
0000
0001
1000
0001
0100
0010
0000
1000
0000
0100
0000
,
0010
0000
0001
0000
1000
0000
0010
0100
0010
1000
0001
0000
0100
0000
0001
0000
,
1000
0000
0010
0000
0100
0000
0001
1000
0001
0010
0100
0000
1000
0000
0001
0000
,
0100
0000
0010
0000
1000
0000
0001
0100
0010
1000
0001
0000
0100
0000
0010
0000
,
1000
0000
0100
0000
0010
0000
0001
1000
0001
0100
0010
0000
1000
0000
0100
0000
,
0010
0000
0001
0000
1000
0000
0010
0100
0010
1000
0001
0000
0100
0000
0001
0000
,
1000
0000
0010
0000
0100
0000
0001
1000
0001
0010
0100
0000
1000
0000
0001
0000
,
0200
0300
0000
0000
;
