#TITLE:Cotton Eye Joe;
#SUBTITLE:(techno remix);
#ARTIST:Rednex;
#TITLETRANSLIT:;
#SUBTITLETRANSLIT:;
#ARTISTTRANSLIT:;
#CREDIT:;
#BANNER:cotton eye joe (techno remix).png;
#BACKGROUND:cotton eye joe (techno remix)-bg.png;
#LYRICSPATH:;
#CDTITLE:!SneakyTitle.png;
#MUSIC:Cotton eye joe (techno remix).mp3;
#OFFSET:-0.332;
#SAMPLESTART:30.020;
#SAMPLELENGTH:12.500;
#SELECTABLE:YES;
#BPMS:0.000=132.000;
#STOPS:;
#BGCHANGES:;
// cache tags:
#FIRSTBEAT:8.000;
#LASTBEAT:417.750;
#SONGFILENAME:Songs/IzzySM Keyboard Mega Pack/Cotton eye joe (techno remix)/Cotton eye joe (techno remix).sm;
#HASMUSIC:1;
#HASBANNER:1;
#MUSICLENGTH:191.239;
// end cache tags

//---------------dance-single - ----------------
#NOTES:
     dance-single:
     :
     Challenge:
     10:
     1.000,0.900,0.298,0.063,1.000,1289.000,57.000,12.000,0.000,2.000:  // measure 1
0000
0000
0000
0000
,  // measure 2
0000
0000
0000
0000
,  // measure 3
0010
0100
0000
1000
1000
0000
0100
0000
0001
0010
0000
1000
0001
0000
0000
0000
,  // measure 4
0100
0001
0000
0100
1000
0000
0001
0000
0100
1000
0100
0000
0001
0000
0000
0000
,  // measure 5
1000
0100
0010
0100
0010
1000
0100
0010
0001
0010
0001
0100
0010
1000
0100
0010
,  // measure 6
0100
0010
1000
0100
0010
0001
0010
0100
0010
0001
1000
0100
0001
1000
0001
0100
,  // measure 7
0010
1000
0001
0100
0010
0001
0010
0100
0010
0100
0010
0001
0010
0001
0010
0100
,  // measure 8
1000
0100
0010
0100
1000
0100
1000
0100
0010
0001
0010
0001
0010
0100
0010
0000
,  // measure 9
1001
1001
1001
0110
,  // measure 10
0110
0000
0110
0000
1010
0000
1100
0110
,  // measure 11
0011
1010
0101
1100
,  // measure 12
0101
0000
2002
0000
0000
0000
0000
3003
,  // measure 13
1000
0100
0010
0001
1000
0100
0010
0001
0100
0010
1000
0100
0010
0001
0010
0100
,  // measure 14
0001
0010
0100
1000
0010
0100
0001
0010
0100
1000
0100
0010
0001
0010
0100
1000
,  // measure 15
0100
0010
0100
0010
0100
1000
0100
1000
0100
0010
0100
0010
0100
0010
0001
0010
,  // measure 16
0001
1000
0100
0010
0100
1000
0001
0010
0100
1000
0010
0100
0001
0010
0100
0000
,  // measure 17
0100
0010
1000
0100
0010
0001
0100
0010
1000
0100
0010
0001
0010
0100
1000
0100
,  // measure 18
0010
0001
0010
0100
0010
0100
0010
0001
0010
0001
0010
0100
0010
0100
0010
0000
,  // measure 19
1000
0100
0000
0010
0001
0000
1000
0000
0100
0010
0000
0100
1000
0000
0000
0000
,  // measure 20
0100
1000
0000
0100
0010
0000
0001
0000
1000
0100
1000
0000
1001
0000
0000
0000
,  // measure 21
0100
0010
0100
0001
1000
0010
0100
0001
0010
0100
1000
0010
0100
0001
0100
0010
,  // measure 22
0001
0100
0010
1000
0100
0010
0001
0100
0010
1000
0010
0100
0001
0100
0010
1000
,  // measure 23
0010
0100
0010
0100
0010
1000
0010
1000
0010
0100
0010
0100
0010
0100
0001
0100
,  // measure 24
0001
1000
0100
0010
0100
1000
0001
0010
0100
1000
0010
0100
0001
0010
0100
0000
,  // measure 25
0001
0100
1000
0100
0010
0001
0100
0010
1000
0100
0010
0001
0010
0100
1000
0100
,  // measure 26
0010
0001
0010
0100
0010
0100
0010
0001
0010
0001
0010
0100
0010
0100
0010
0000
,  // measure 27
0100
0010
0100
0001
1000
0010
0100
0001
0010
0100
1000
0010
0100
0001
0100
0010
,  // measure 28
0001
0100
0010
1000
0100
0010
0001
0100
0010
1000
0010
0100
0001
0100
0010
0000
,  // measure 29
2000
0100
0010
0001
0010
0100
0010
0001
,  // measure 30
3001
0102
1000
0100
0010
0100
1000
0100
,  // measure 31
0103
2010
0100
0010
0001
0001
0010
0100
,  // measure 32
3012
0100
1000
0100
0010
0010
0100
1000
,  // measure 33
1003
0000
1000
0100
1000
0000
0101
0000
0101
0000
1000
0100
0010
0000
0110
0000
,  // measure 34
0110
0000
1000
0100
1000
0000
0101
0000
1100
0000
0001
0010
0100
0000
1100
0000
,  // measure 35
0110
0000
1000
0100
0001
0000
0110
0000
1001
0000
0001
0100
1000
0000
0101
0000
,  // measure 36
0101
0000
0010
1000
0100
0000
0101
0000
1001
0000
1000
0100
0001
0000
0000
0000
,  // measure 37
1000
0100
0010
0001
0010
0100
0010
0001
0010
0100
0010
0100
1000
0100
1000
0100
,  // measure 38
0001
0010
0001
0010
0100
0010
0100
0010
1000
0100
0010
0001
0100
0010
0001
0010
,  // measure 39
0100
1000
0100
0001
0010
1000
0100
0010
0001
1000
0100
0010
0001
1000
0100
0010
,  // measure 40
0001
0010
0100
1000
0001
0010
0100
1000
0010
0100
0010
0100
0010
0100
1000
0100
,  // measure 41
0001
0010
1000
0100
0010
1000
0010
0100
0010
1000
0010
0100
0010
0100
0001
0100
,  // measure 42
0001
0100
1000
0010
1000
0010
0100
0010
0100
0010
0001
0100
0010
1000
0100
0010
,  // measure 43
1000
0010
0100
0001
0100
1000
0010
0001
0100
0010
1000
0001
0100
0010
1000
0001
,  // measure 44
0100
0010
1000
0010
0100
0001
1000
0010
0100
0001
0010
0000
1001
0000
0000
0000
,  // measure 45
0001
0000
0000
0000
0010
0000
0100
0000
0000
0000
1000
0100
0010
0001
1000
0000
0010
0000
1000
0000
0100
0000
0010
0000
1000
0000
0000
0000
0100
0000
0000
0000
,  // measure 46
1000
0000
0010
0001
0000
1000
0010
0100
1000
0100
0010
0000
0010
0000
0010
0000
,  // measure 47
1000
0000
0100
0010
0000
1000
0100
0010
0001
0010
0100
0000
0100
0000
0100
0000
,  // measure 48
1000
0100
0010
0001
0000
0100
1000
0100
0010
0001
0100
0000
1000
0100
0010
0001
,  // measure 49
0010
0000
0000
0000
1000
0000
0100
0000
0000
0000
0001
0010
0100
1000
0001
0000
0010
0000
0100
0000
1000
0000
0100
0000
0001
0000
0000
0000
0100
0000
0000
0000
,  // measure 50
1000
0000
0001
0010
0000
1000
0100
0010
0001
0010
0100
0000
0100
0000
0100
0000
,  // measure 51
1000
0000
0001
0010
0000
1000
0100
0010
0100
0010
1000
0000
0001
0000
1000
0000
,  // measure 52
1000
0100
0010
0001
0000
0010
0100
0010
0001
0010
0100
0000
0001
0010
0100
0000
,  // measure 53
0002
0010
0100
1000
0100
0010
0100
1000
,  // measure 54
1003
2010
0001
0010
0100
0010
0001
0010
,  // measure 55
3010
0102
0010
0100
1000
1000
0100
0010
,  // measure 56
2103
0010
0001
0010
0100
0100
0010
0001
,  // measure 57
3001
0000
0001
0010
0001
0000
1010
0000
1010
0000
0001
0010
0100
0000
0110
0000
,  // measure 58
0110
0000
0001
0010
0001
0000
1010
0000
0011
0000
1000
0100
0010
0000
0011
0000
,  // measure 59
0110
0000
0001
0010
1000
0000
0110
0000
1001
0000
1000
0010
0001
0000
1010
0000
,  // measure 60
1010
0000
0100
0001
0010
0000
1010
0000
1001
0000
0001
0010
1000
0000
0000
0000
,  // measure 61
0001
0010
0100
1000
0100
0010
0100
1000
0100
0010
0100
0010
0001
0010
0001
0010
,  // measure 62
1000
0100
1000
0100
0010
0100
0010
0100
0001
0010
0100
1000
0010
0100
1000
0100
,  // measure 63
0010
0001
0010
1000
0100
0001
0010
0100
1000
0001
0010
0100
1000
0001
0010
0100
,  // measure 64
1000
0100
0010
0001
1000
0100
0010
0001
0100
0010
0100
0010
0100
0010
0001
0010
,  // measure 65
1000
0100
0001
0010
0100
0001
0100
0010
0100
0001
0100
0010
0100
0010
1000
0010
,  // measure 66
1000
0010
0001
0100
0001
0100
0010
0100
0010
0100
1000
0010
0100
0001
0010
0100
,  // measure 67
0001
0100
0010
1000
0010
0001
0100
1000
0010
0100
0001
1000
0010
0100
0001
1000
,  // measure 68
0010
0100
0001
0100
0010
1000
0001
0100
0010
1000
0100
0000
1001
0000
0000
0000
,  // measure 69
0001
1000
0100
0010
0100
1000
0100
0010
0100
1000
0100
1000
0001
1000
0001
1000
,  // measure 70
0010
0100
0010
0100
1000
0100
1000
0100
0001
1000
0100
0010
1000
0100
0010
0100
,  // measure 71
1000
0001
1000
0010
0100
0001
1000
0100
0010
0001
1000
0100
0010
0001
1000
0100
,  // measure 72
0010
0100
1000
0001
0010
0100
1000
0001
0100
1000
0100
1000
0100
1000
0001
0000
,  // measure 73
1000
0100
0010
0001
1000
0100
0010
0001
0010
0100
0010
0100
0010
1000
0100
0010
,  // measure 74
0001
0010
0100
0010
0100
0001
0010
0100
0001
0010
0100
1000
0100
0010
0100
0010
,  // measure 75
0100
1000
0001
0010
0001
0010
0100
0001
0010
0100
1000
0010
0100
1000
0100
0010
,  // measure 76
0001
0010
0100
0010
0100
1000
0100
1000
0100
0010
0001
0010
0100
1000
0100
1000
,  // measure 77
0100
0000
1000
0100
0010
0100
1000
0000
0001
0010
0100
0010
0001
0000
0100
0010
,  // measure 78
0100
0010
0100
0000
1000
0100
0010
1000
0100
0000
0001
0010
0100
0001
0010
0000
,  // measure 79
1000
0001
1000
0001
1000
0000
0100
0010
0001
0010
0001
0000
0010
0100
1000
0100
,  // measure 80
1000
0000
0100
0010
0100
0010
0001
0000
0100
1000
0100
1000
0010
0000
0001
0010
,  // measure 81
0100
0010
1000
0000
0100
0010
0001
0100
1000
0000
0100
0010
0001
0100
0010
0000
,  // measure 82
0100
0010
0001
0010
0001
0010
0100
1000
0100
1000
0100
0010
0001
0010
0001
0010
,  // measure 83
0100
1000
0100
0010
0001
1000
0100
0010
0001
0100
0010
0001
0010
0100
1000
0001
,  // measure 84
0010
0100
1000
0010
0100
0001
0010
0100
1000
0000
0000
0000
1001
0000
0000
0100
,  // measure 85
1000
0100
0000
0001
0010
0000
0100
0010
0000
0010
0001
0000
1000
0000
0000
0000
,  // measure 86
1000
0000
0100
0000
0010
0000
1000
0000
0010
0000
1000
0100
0001
0000
0000
0000
,  // measure 87
1000
0100
0000
0100
1000
0000
1000
0000
0001
0010
0000
0010
0001
0000
0000
0000
,  // measure 88
1000
0100
0000
0100
1000
0000
0011
0000
0100
1000
0100
0000
0010
0000
0000
0100
,  // measure 89
0010
0100
0000
0001
1000
0000
0100
1000
0000
1000
0001
0000
0010
0000
0000
0000
,  // measure 90
0010
0000
0100
0000
1000
0000
0010
0000
1000
0000
0010
0100
0001
0000
0000
0000
,  // measure 91
0010
0100
0000
0100
0010
0000
0010
0000
0001
1000
0000
1000
0001
0000
0000
0000
,  // measure 92
0010
0100
0000
0100
0010
0000
1001
0000
0100
0010
0100
0000
1000
0000
0000
0000
,  // measure 93
0001
1000
0100
0010
0100
1000
0100
0010
0100
1000
0100
1000
0001
1000
0001
1000
,  // measure 94
0010
0100
0010
0100
1000
0100
1000
0100
0001
1000
0100
0010
1000
0100
0010
0100
,  // measure 95
1000
0001
1000
0010
0100
0001
1000
0100
0010
0001
1000
0100
0010
0001
1000
0100
,  // measure 96
0010
0100
1000
0001
0010
0100
1000
0001
0100
1000
0100
1000
0100
1000
0001
0000
,  // measure 97
1000
0100
0010
0001
1000
0100
0010
0001
0010
0100
0010
0100
0010
1000
0100
0010
,  // measure 98
0001
0010
0100
0010
0100
0001
0010
0100
0001
0010
0100
1000
0100
0010
0100
0010
,  // measure 99
0100
1000
0001
0010
0001
0010
0100
0001
0010
0100
1000
0010
0100
1000
0100
0010
,  // measure 100
0001
0010
0100
0010
0100
1000
0100
1000
0100
0010
0001
0010
0100
0000
0000
0100
,  // measure 101
0010
0100
0000
0001
1000
0000
0100
1000
0000
1000
0001
0000
0010
0000
0000
0000
,  // measure 102
0010
0000
0100
0000
1000
0000
0010
0000
1000
0000
0010
0100
0001
0000
0000
0000
,  // measure 103
0010
0100
0000
0100
0010
0000
0010
0000
0001
1000
0000
1000
0001
0000
0000
0000
,  // measure 104
0010
0100
0000
0100
0010
0000
1001
0000
0100
0010
0100
0000
2002
0000
0000
0000
,  // measure 105
0000
0000
0000
0000
0000
3003
0000
0000
0000
0000
0000
0000
0000
0000
0000
0000
;

//---------------dance-single - ----------------
#NOTES:
     dance-single:
     :
     Hard:
     9:
     0.674,0.655,0.492,0.021,0.447,804.000,94.000,4.000,0.000,0.000:  // measure 1
0000
0000
0000
0000
,  // measure 2
0000
0000
0000
0000
,  // measure 3
1000
0100
0000
0100
1000
0000
0100
0000
0001
0010
0000
0010
0001
0000
0000
0000
,  // measure 4
1000
0100
0000
0100
1000
0000
0100
0000
0001
0010
0001
0000
0100
0000
0000
0100
,  // measure 5
1000
0100
0000
0010
0001
0000
1000
0100
0000
0100
1000
0000
0100
0000
0000
0000
,  // measure 6
0100
0000
1000
0000
0100
0000
0001
0000
1000
0000
0010
0001
0010
0000
0000
0000
,  // measure 7
1000
0100
0000
0100
1000
0000
0100
0000
0100
0010
0000
0010
0100
0000
0000
0000
,  // measure 8
1000
0100
0000
0100
1000
0000
0100
0000
0001
0010
0001
0000
0100
0000
0000
0000
,  // measure 9
1001
1001
1001
1100
,  // measure 10
0011
0000
1010
0000
0101
0000
1001
0110
,  // measure 11
1001
1001
0110
0110
,  // measure 12
1001
0000
0000
0000
2002
0000
0000
0000
0000
0000
0000
0000
0000
0000
3003
0100
,  // measure 13
1000
0100
0000
0100
1000
0000
0001
0010
0000
0010
0001
0000
0010
0000
0000
0000
,  // measure 14
0010
0000
0001
0000
0010
0000
1000
0000
0001
0000
0100
1000
0100
0000
0000
0000
,  // measure 15
0001
0010
0000
0010
0001
0000
0010
0000
0010
0100
0000
0100
0010
0000
0000
0000
,  // measure 16
0001
0010
0000
0010
0001
0000
0010
0000
1000
0100
1000
0000
0010
0000
0000
1000
,  // measure 17
0100
1000
0000
1000
0010
0000
0100
0001
0000
0001
0100
0000
0001
0000
0000
0000
,  // measure 18
0001
0000
0100
0000
0001
0000
0010
0000
0100
0000
1000
0010
1000
0000
0000
0000
,  // measure 19
0100
0001
0000
0001
0100
0000
0001
0000
0001
1000
0000
1000
0001
0000
0000
0000
,  // measure 20
0100
0001
0000
0001
0100
0000
0001
0000
0010
1000
0010
0000
0001
0000
0000
0000
,  // measure 21
1001
1100
0011
0110
,  // measure 22
1001
0000
1010
0000
0101
0000
1100
0110
,  // measure 23
1100
0101
1010
0101
,  // measure 24
1010
0000
0110
0000
0101
0000
1100
0011
,  // measure 25
0110
1001
1100
0011
,  // measure 26
0101
0000
1100
0000
1100
0000
1001
0110
,  // measure 27
1100
0011
1001
0110
,  // measure 28
1100
1010
0101
1100
,  // measure 29
0001
0010
0001
0010
1000
0010
1000
0010
,  // measure 30
1000
0100
1000
0100
0001
0100
1000
0001
,  // measure 31
1000
0010
0100
0010
0001
0010
0001
0100
,  // measure 32
1000
0100
1000
0010
0001
0010
1000
1000
,  // measure 33
0100
0001
0100
1000
0100
0010
0001
0100
,  // measure 34
1000
0100
0010
0001
1000
0100
0010
0001
,  // measure 35
0100
1000
0100
1000
0100
0001
0100
1000
,  // measure 36
0100
0000
1000
0000
0001
0000
0100
0000
0101
0000
0010
0000
1100
0000
0000
1000
,  // measure 37
0100
1000
0000
0001
0100
0000
0010
1000
0000
1000
0010
0000
1000
0000
0000
0000
,  // measure 38
1000
0000
0010
0000
1000
0000
0100
0000
0010
0000
0001
0100
0001
0000
0000
0000
,  // measure 39
0010
1000
0000
1000
0010
0000
1000
0000
1000
0001
0000
0001
1000
0000
0000
0000
,  // measure 40
0010
1000
0000
1000
0010
0000
1000
0000
0100
0001
0100
0000
1000
0000
0000
0100
,  // measure 41
1000
0100
0000
0010
0001
0000
1000
0100
0000
0100
1000
0000
0100
0000
0000
0000
,  // measure 42
0100
0000
1000
0000
0100
0000
0001
0000
1000
0000
0010
0001
0010
0000
0000
0000
,  // measure 43
1000
0100
0000
0100
1000
0000
0100
0000
0100
0010
0000
0010
0100
0000
0000
0000
,  // measure 44
1000
0100
0000
0100
1000
0000
0100
0000
0001
0010
0001
0000
0100
0000
0000
0000
,  // measure 45
1000
0000
0001
0010
0000
1000
0100
0010
0001
0010
0100
0000
1000
0000
0001
0000
,  // measure 46
1000
0000
0010
0100
0000
0001
0100
0010
0001
0010
0100
0000
1000
0000
0100
0000
,  // measure 47
1000
0000
0010
0100
0000
0001
0010
0001
0010
0001
0010
0000
0100
0000
1000
0000
,  // measure 48
0100
0000
0010
0100
0000
1000
0100
0010
0100
1000
0100
0000
1000
0100
0010
0000
,  // measure 49
0001
0000
1000
0100
0000
0001
0010
0100
1000
0100
0010
0000
0001
0000
1000
0000
,  // measure 50
0001
0000
0100
0010
0000
1000
0010
0100
1000
0100
0010
0000
0001
0000
0010
0000
,  // measure 51
0001
0000
0100
0010
0000
1000
0100
1000
0100
1000
0100
0000
0010
0000
0001
0000
,  // measure 52
0010
0000
0100
0010
0000
0001
0010
0100
0010
0001
0010
0000
0001
0010
0100
0000
,  // measure 53
0100
0001
0100
0001
0010
0001
0010
0001
,  // measure 54
0010
1000
0010
1000
0100
1000
0010
0100
,  // measure 55
0010
0001
1000
0001
0100
0001
0100
1000
,  // measure 56
0010
1000
0010
0001
0100
0001
0010
0010
,  // measure 57
1000
0100
1000
0010
1000
0001
0100
1000
,  // measure 58
0010
1000
0001
0100
0010
1000
0001
0100
,  // measure 59
1000
0010
1000
0010
1000
0100
1000
0010
,  // measure 60
1000
0000
0010
0000
0100
0000
1000
0000
1100
0000
0001
0000
1010
0000
0000
0010
,  // measure 61
0001
0010
0000
0010
0001
0000
1000
0100
0000
0100
1000
0000
0100
0000
0000
0000
,  // measure 62
0100
0000
1000
0000
0100
0000
0001
0000
1000
0000
0010
0001
0010
0000
0000
0000
,  // measure 63
1000
0100
0000
0100
1000
0000
0100
0000
0100
0010
0000
0010
0100
0000
0000
0000
,  // measure 64
1000
0100
0000
0100
1000
0000
0100
0000
0001
0010
0001
0000
0100
0000
0000
0001
,  // measure 65
0010
0001
0000
0001
0100
0000
0010
1000
0000
1000
0010
0000
1000
0000
0000
0000
,  // measure 66
1000
0000
0010
0000
1000
0000
0100
0000
0010
0000
0001
0100
0001
0000
0000
0000
,  // measure 67
0010
1000
0000
1000
0010
0000
1000
0000
1000
0001
0000
0001
1000
0000
0000
0000
,  // measure 68
0010
1000
0000
1000
0010
0000
1000
0000
0100
0001
0100
0000
1000
0000
0000
0000
,  // measure 69
1001
0011
1100
0110
,  // measure 70
1001
0000
0101
0000
1010
0000
0011
0110
,  // measure 71
0011
1010
0101
1010
,  // measure 72
0101
0000
0110
0000
1010
0000
0011
1100
,  // measure 73
0110
1001
0011
1100
,  // measure 74
1010
0000
0011
0000
0011
0000
1001
0110
,  // measure 75
0011
1100
1001
0110
,  // measure 76
0011
0101
1010
0011
,  // measure 77
1000
0100
0010
1000
0100
0010
0001
0010
,  // measure 78
0100
0001
0010
0100
1000
0001
1000
0100
,  // measure 79
0010
1000
0100
1000
0100
0100
0010
0010
,  // measure 80
0100
0001
0100
1000
0100
0001
0100
1000
,  // measure 81
0001
0010
0100
0001
0010
0100
1000
0100
,  // measure 82
0010
1000
0100
0010
0001
1000
0001
0010
,  // measure 83
0100
0001
0010
0001
0010
0010
0100
0100
,  // measure 84
0010
0000
1000
0000
0010
0000
0001
0000
0110
0000
0000
0000
1001
0000
0000
0100
,  // measure 85
1000
0100
0000
0100
1000
0000
0001
0010
0000
0010
0001
0000
0010
0000
0000
0000
,  // measure 86
0010
0000
0001
0000
0010
0000
1000
0000
0001
0000
0100
1000
0100
0000
0000
0000
,  // measure 87
0001
0010
0000
0010
0001
0000
0010
0000
0010
0100
0000
0100
0010
0000
0000
0000
,  // measure 88
0001
0010
0000
0010
0001
0000
0010
0000
1000
0100
1000
0000
0010
0000
0000
1000
,  // measure 89
0100
1000
0000
1000
0010
0000
0100
0001
0000
0001
0100
0000
0001
0000
0000
0000
,  // measure 90
0001
0000
0100
0000
0001
0000
0010
0000
0100
0000
1000
0010
1000
0000
0000
0000
,  // measure 91
0100
0001
0000
0001
0100
0000
0001
0000
0001
1000
0000
1000
0001
0000
0000
0000
,  // measure 92
0100
0001
0000
0001
0100
0000
0001
0000
0010
1000
0010
0000
0001
0000
0000
0000
,  // measure 93
1000
0100
0010
1000
0100
0010
0001
0010
,  // measure 94
0100
0001
0010
0100
1000
0001
1000
0100
,  // measure 95
0010
1000
0100
1000
0100
0100
0010
0010
,  // measure 96
0100
0001
0100
1000
0100
0001
0100
1000
,  // measure 97
0001
0010
0100
0001
0010
0100
1000
0100
,  // measure 98
0010
1000
0100
0010
0001
1000
0001
0010
,  // measure 99
0100
0001
0010
0001
0010
0010
0100
0100
,  // measure 100
0010
0000
1000
0000
0010
0000
0001
0000
1100
0000
0010
0000
0011
0000
0000
1000
,  // measure 101
0010
1000
0000
1000
0010
0000
0100
0001
0000
0001
0100
0000
0001
0000
0000
0000
,  // measure 102
0001
0000
0100
0000
0001
0000
0010
0000
0100
0000
1000
0010
1000
0000
0000
0000
,  // measure 103
0100
0001
0000
0001
0100
0000
0001
0000
0001
1000
0000
1000
0001
0000
0000
0000
,  // measure 104
0100
0001
0000
0001
0100
0000
0001
0000
0010
1000
0010
0000
2002
0000
0000
0000
,  // measure 105
0000
0000
0000
0000
0000
0000
0000
3003
0000
0000
0000
0000
0000
0000
0000
0000
;
