#TITLE:BUTTERFLY;
#SUBTITLE:;
#ARTIST:SMILE.dk;
#TITLETRANSLIT:;
#SUBTITLETRANSLIT:;
#ARTISTTRANSLIT:;
#CREDIT:;
#BANNER:BUTTERFLY.png;
#BACKGROUND:BUTTERFLY-bg.png;
#LYRICSPATH:;
#CDTITLE:!snappscdtitle.PNG;
#MUSIC:BUTTERFLY.mp3;
#OFFSET:-0.244;
#SAMPLESTART:28.670;
#SAMPLELENGTH:12.000;
#SELECTABLE:YES;
#DISPLAYBPM:135.000;
#BPMS:0.000=134.900,7.750=134.980;
#STOPS:;
#BGCHANGES:;
// cache tags:
#FIRSTBEAT:0.000;
#LASTBEAT:207.500;
#SONGFILENAME:Songs/IzzySM Keyboard Mega Pack/butterfly/butterfly.sm;
#HASMUSIC:1;
#HASBANNER:1;
#MUSICLENGTH:96.235;
// end cache tags

//---------------dance-single - Easy----------------
#NOTES:
     dance-single:
     Easy:
     Easy:
     4:
     0.246,0.296,0.197,0.073,0.000,140.000,19.000,7.000,0.000,0.000:
0000
0000
0000
0000
,
1000
0000
0000
0000
,
0001
0000
0000
0000
,
1000
0000
1000
0100
0001
0000
0000
0000
,
1001
0000
0010
0000
,
1001
0000
0100
0000
,
1001
0000
0110
0000
,
1000
0001
1000
0001
,
1000
1000
0010
0001
,
0100
1000
0100
0010
,
0001
0100
0010
1000
,
0100
0001
0100
0000
,
1001
0100
0010
0000
,
0001
0001
0010
0000
,
0100
1000
0001
1000
,
0001
0100
0010
1000
,
0110
0000
1001
0000
,
1000
0100
0100
0000
,
0001
1000
0001
0000
,
1000
0100
0010
0000
,
1001
0000
0110
0000
,
0001
0100
0100
0000
,
1000
0001
1000
0000
,
0001
0010
0100
0000
,
1001
0000
0100
0000
,
1001
0000
0010
0000
,
1001
0000
0100
0000
,
1001
0000
0110
0000
,
1000
1000
0010
0001
,
0100
1000
0100
0010
,
0001
0100
0010
1000
,
0100
0001
0100
0000
,
1001
0100
0010
0000
,
0001
0001
0010
0000
,
0100
1000
0001
1000
,
0001
0100
0010
1000
,
1100
0000
0011
0000
,
2000
3002
0203
0300
,
1000
0001
1000
0000
,
0001
0100
0100
0000
,
0011
0000
1100
0000
,
0002
0023
2030
3000
,
1000
0001
1000
0000
,
0100
1000
1000
0000
,
0001
0000
0000
0000
,
1000
0000
0000
0000
,
0001
0000
0000
0000
,
1000
0000
1000
0100
0001
0000
0000
0000
,
1000
0000
0000
0000
,
0001
0000
0000
0000
,
1000
0000
0000
0000
,
0001
0000
0001
0010
2000
0000
3000
0000
;

//---------------dance-single - ----------------
#NOTES:
     dance-single:
     :
     Medium:
     6:
     0.577,0.701,0.260,0.145,0.239,350.000,25.000,14.000,0.000,0.000:
1001
0000
0000
0000
1000
0100
0010
0000
1000
0100
0001
0000
1000
0010
0000
0000
,
1001
0000
0000
0000
0001
0010
0100
0000
0001
0010
1000
0000
0001
0100
0000
0000
,
1001
0000
0000
0000
0010
0100
1000
0000
0010
0100
0001
0000
0010
1000
0000
0000
,
1000
0001
1000
0001
,
1000
0000
0001
0000
1000
0000
0001
0010
0000
0100
1000
0000
0010
0000
0001
0000
,
0001
0000
1000
0000
0100
0000
1000
0010
0000
0001
1000
0000
0010
0000
0001
0000
,
1000
0000
0001
0000
1000
0000
0001
0010
0000
0100
1000
0000
1000
0000
1000
0000
,
0001
0000
0010
0000
0100
0000
1000
0100
0000
0001
0010
0000
1000
0000
0001
0000
,
0001
1000
0100
0100
0011
0000
0001
0000
,
1000
0100
0010
0001
0001
0000
1001
0000
,
0001
1000
0100
0001
,
1000
0000
0100
0000
0010
0000
0001
0000
0001
0000
1000
0100
1000
0000
0010
0000
,
0000
0000
0001
0010
0001
0000
0100
0000
0000
0000
1000
0001
0100
0000
0001
0000
,
1000
0000
0000
0000
0100
0000
0000
0000
0010
0000
0100
1000
0010
0000
0100
0000
,
0001
0000
0010
0000
1000
0000
0100
0001
,
0010
0100
0001
1000
0100
0010
2002
3003
,
0001
1000
0100
0010
0001
0000
1000
0100
,
1000
0010
0001
0010
1001
0000
0000
0000
,
1000
0001
0100
0010
0100
0010
1000
0010
,
1000
0000
0001
0000
0010
0000
0100
0000
1000
0000
0001
0010
0100
0000
1001
0000
,
0010
0001
0100
0001
0100
0000
0010
0100
,
0001
1000
0010
0100
1001
0000
0000
0000
,
0001
0010
0100
0001
1000
0001
0010
0100
,
0001
0000
1000
0000
0100
0000
2000
0000
0001
0000
0100
0001
3100
0000
0000
0000
,
1001
0000
0000
0000
,
0110
0000
0000
0000
,
0011
0000
0000
0000
,
1100
0000
0000
0000
,
1000
0000
0000
0000
0001
0010
0001
0000
0010
0000
0000
0000
0000
0000
0000
0000
,
0001
0000
0000
0000
1000
0100
1000
0000
0100
0000
0000
0000
0000
0000
0000
0000
,
1000
0010
0100
0010
,
1000
0000
0100
0000
0010
0000
1000
0000
0001
0000
0001
1000
0100
0000
0010
0000
,
0000
0000
1000
0010
0100
0000
0010
0000
0000
0000
0001
1000
0100
0000
1000
0000
,
1000
0000
0000
0001
0100
1000
0000
0000
0001
0000
0000
0000
0000
0000
0000
0000
,
1000
0001
1000
0001
,
1000
0010
0100
0010
1000
0000
2200
3300
,
1000
0001
0100
0010
1000
0001
0010
0100
,
1000
0001
0100
1000
0100
0100
1000
0001
,
0010
0010
0001
0001
1000
0100
1000
0100
,
1000
0001
0100
0001
0110
1001
1001
0000
,
0101
1000
0100
1000
0001
0000
0100
1000
,
0100
0010
0001
0100
0001
0000
1000
0001
,
1000
1000
0100
0010
0100
0001
0001
0100
,
0010
1000
0001
0100
0001
0010
0202
0303
,
2001
0000
0001
0000
0001
0000
0001
3000
,
1002
1000
1000
1003
,
0210
0010
0010
0010
,
0310
1000
1000
0010
0001
0000
0220
0330
,
1000
0100
1000
0000
0001
0010
0001
0000
0010
0100
0010
0000
1000
0001
0100
0000
,
0001
0010
0100
0000
1000
0100
0010
0000
0001
0100
0010
0000
1000
0010
0100
0000
,
0001
1000
0001
1000
0100
0010
0100
0010
0001
1000
0001
0100
0001
1000
0010
0100
,
1000
1000
0001
0001
0110
0000
2002
3003
;

//---------------dance-single - ----------------
#NOTES:
     dance-single:
     :
     Hard:
     10:
     1.000,0.969,0.956,0.291,1.000,572.000,92.000,28.000,0.000,1.000:
1000
0100
1000
0100
1000
0010
0100
1000
0001
0010
0100
1000
0100
0010
0001
0100
,
0010
1000
0100
0001
0010
0100
0001
1000
0100
0001
0010
1000
0100
0001
1000
0100
,
0010
0001
0100
0010
1000
0100
0001
0010
0001
0010
0001
1000
0010
0100
0010
0100
,
1001
0000
0000
0000
1001
0000
0000
0000
1001
0000
0000
0000
1001
0000
0220
0330
,
1001
0100
0001
0100
0001
1000
0100
0010
1000
0100
0001
0100
0001
0100
0001
1000
,
0100
1000
0100
1000
0100
0010
0100
0010
0100
0010
0001
0100
0010
0001
0010
0100
,
1000
1000
0100
0010
0001
0010
0001
1000
0100
1000
0010
0100
0001
1000
0100
0001
,
0010
0100
1000
0100
0001
1000
0010
0100
1000
0001
0100
0010
1001
0000
0000
0000
,
1001
0001
0100
0010
1000
0001
0100
0010
0001
1000
0100
0010
1001
0000
0000
0000
,
1001
1000
0100
1000
0001
0010
0001
0100
0010
0100
0001
1000
1001
0000
0000
0000
,
1001
0000
0000
0000
1001
0000
0000
0000
1001
0000
0000
0000
1001
0000
0220
0330
,
1001
0010
1000
0100
0010
1000
0100
0010
0001
0100
0010
0001
0100
0010
1000
0001
,
1001
0000
1001
0000
1001
0000
1001
0110
,
1001
1000
0100
0010
0001
1000
0010
0100
1000
0001
0100
0010
0001
1000
0001
0100
,
1001
0000
1001
0000
1001
0000
1001
0110
,
1001
0001
1000
0001
1000
0100
0010
0100
0010
0001
0100
0001
2200
0000
0000
3300
,
1001
1000
0100
1000
0010
1000
0100
1000
0010
1000
0100
1000
0010
1000
0100
0000
,
1001
0000
1001
0000
1001
0001
0100
0010
,
1001
0001
0010
0001
0100
0001
0010
0001
0100
0001
0010
0001
0100
0001
0010
0001
,
0010
0100
1000
0100
0001
0100
0010
0100
0001
0100
0010
1000
0100
0001
0100
1000
,
1001
0000
1001
0000
1001
0010
1001
0100
,
1001
1000
0100
0010
0001
0010
0100
1000
0100
0010
0001
1000
0100
0010
0110
0000
,
1001
0001
0100
0010
0100
1000
0100
0010
0100
0001
0100
0010
0100
1000
0110
0000
,
1001
0000
1000
0000
1001
0000
0001
0000
2002
0000
0000
0000
0000
3003
0220
0330
,
1001
0000
0000
0000
,
0011
0000
0000
0000
,
0110
0000
0000
0000
,
1100
1000
1000
1100
0001
0001
0001
0011
,
1001
1000
0100
0010
0001
1000
0100
0010
0001
0001
0010
0100
1000
0001
0010
0100
,
1001
0100
1000
0100
0001
0100
1000
0100
0001
0010
1000
0010
0001
0001
0100
0010
,
1001
0000
1001
0000
1001
0000
1001
0110
,
1001
0001
1000
0010
0001
1000
0100
0001
1000
0010
0001
1000
0100
1000
0001
1000
,
1001
0001
1000
1000
0001
0001
1000
0100
,
1000
0000
0001
0000
0010
0000
0010
0000
0001
0000
0001
0000
0001
0000
0010
0100
,
1000
0000
1000
0001
1000
0000
0001
1000
0001
0000
0100
0010
0001
0000
0100
0000
,
1001
0000
0001
0000
1000
0000
0001
0000
1000
0000
0100
0000
2020
0000
0000
3030
,
1001
0001
0010
1000
0100
0001
0010
1000
0100
0001
0010
1000
0010
1000
0100
0000
,
1001
0000
1001
0000
1001
0001
0100
0010
,
1001
1000
0010
0100
0010
1000
0010
0100
0010
1000
0010
1000
0010
0001
0010
0001
,
0010
0100
1000
0100
0001
1000
0001
0100
1000
0010
0001
1000
0100
0001
0100
1000
,
1001
0000
1001
0000
1001
0010
1001
0100
,
1001
1000
0100
0010
0001
0010
0100
1000
0100
0010
0001
1000
0100
0010
0110
0000
,
1001
0001
0100
0010
0100
1000
0100
0010
0100
0001
0100
0010
0100
1000
0110
0000
,
1001
0000
1000
0000
1001
0000
0001
0000
2002
0000
0000
0000
0000
3003
0220
0330
,
2001
0010
0001
0100
0001
0010
0001
0100
,
3002
1000
0010
1000
0100
1000
0010
1000
,
2003
0100
0010
0001
0010
0100
0010
0001
,
3100
1001
0110
1100
0011
0110
2002
0000
,
3003
0000
1002
0100
0010
0100
1000
0100
0010
0100
1000
0100
0010
0100
1000
0100
,
0203
0010
0001
0010
1000
0010
0001
0010
1000
0010
0001
0010
1000
0010
0001
0010
,
1320
0100
0001
0100
1000
0100
0001
0100
1000
0100
0001
0100
1000
0100
0001
0100
,
1030
0000
1000
0000
0001
0000
0001
0000
0220
0000
0000
0330
2002
3003
0000
0000
;
