#TITLE:HOT LIMIT;
#SUBTITLE:;
#ARTIST:JOHN DESIRE;
#TITLETRANSLIT:;
#SUBTITLETRANSLIT:;
#ARTISTTRANSLIT:;
#CREDIT:;
#BANNER:hotlimit-bn.png;
#BACKGROUND:hotlimit-bg.png;
#LYRICSPATH:;
#CDTITLE:!cartoonTitle.png;
#MUSIC:HOT LIMIT.mp3;
#OFFSET:-0.105;
#SAMPLESTART:59.960;
#SAMPLELENGTH:12.000;
#SELECTABLE:YES;
#DISPLAYBPM:156.000;
#BPMS:0.000=155.990;
#STOPS:;
#BGCHANGES:;
// cache tags:
#FIRSTBEAT:4.000;
#LASTBEAT:478.000;
#SONGFILENAME:Songs/Definitive Keyboard Megapack/HOT LIMIT(Cartoon)/HOT LIMIT.sm;
#HASMUSIC:1;
#HASBANNER:1;
#MUSICLENGTH:184.529;
// end cache tags

//---------------dance-single - ----------------
#NOTES:
     dance-single:
     :
     Challenge:
     15:
     1.000,1.000,1.000,0.471,1.000,1431.000,413.000,87.000,0.000,204.000:

0000
0000
0000
0000
,
0110
0000
0100
0001
0010
1001
0000
0000
1001
0000
0100
0001
0010
1100
0000
0000
,
0011
0000
0010
0100
0001
1000
0100
0010
0001
1000
0010
0100
0010
0001
0100
0010
,
2200
0000
0000
0000
3302
0000
0000
0000
2003
0000
0000
3222
0000
0333
0000
0000
,
1110
0000
0001
0010
1000
0111
0000
0000
0111
0000
0100
1000
0001
1110
0000
0000
,
0010
1000
0100
1000
0001
0010
1000
0001
1110
0000
1110
0000
1111
0000
0000
0000
,
0002
0000
2003
0000
3200
0000
2322
3033
,
1101
0000
0010
1000
0001
1110
0000
0000
0111
0000
1000
0001
0010
1101
0000
0000
,
1101
0000
1000
0001
0100
0001
1000
0001
0100
1000
0010
0001
1000
0010
0100
0001
,
0020
0000
0000
0000
2230
0000
0000
0000
3302
0000
0000
2223
0000
3330
0000
0000
,
1100
0000
0001
0100
1000
0111
0000
0000
0111
0000
1000
0001
0100
1011
0000
0000
,
0010
0100
0001
1000
0010
0100
0001
1000
0111
0000
1110
0000
1111
0000
0000
0000
,
1010
0100
0001
0010
1100
0010
0001
1000
0111
1000
0010
0100
1011
0100
0001
0100
,
1011
0110
1111
0000
,
1100
0000
0010
0001
1000
0020
0000
0000
1130
0000
0001
0100
0010
0002
0000
0000
,
1103
0000
0010
1000
0001
0100
0010
1000
0001
0100
0001
0010
1000
0001
0100
0002
,
1103
0000
0010
1000
0001
0200
0000
0000
1310
0000
0100
0001
0100
0002
0000
0000
,
1013
0100
0010
1000
0001
0010
0100
1000
0110
0000
0110
0000
1111
0000
0000
0000
,
0110
0000
0010
1000
0001
0020
0000
0000
0131
0000
1000
0100
0001
0200
0000
0000
,
1310
0000
0001
1000
0010
0001
1000
0010
0001
0100
1000
0010
0001
1000
0010
0200
,
0311
0000
0100
0001
0010
0200
0000
0000
1310
0000
0001
0010
0001
0200
0000
0000
,
0310
0001
1000
0100
0010
0001
0010
1000
0110
0000
0110
0000
1111
0000
0000
0000
,
1100
0010
1000
0100
0011
1000
0001
1000
0110
0001
0100
0001
1110
0001
1000
0100
,
0011
0100
1000
0100
1011
0100
0001
1000
0110
0001
0010
0100
1011
0100
0001
1000
,
0110
0001
0010
0001
1110
0001
0100
0010
1001
0100
1000
0010
1101
0010
0100
1000
,
0011
0000
0000
1001
0000
0000
0010
0000
0110
0000
0000
0000
1121
0000
0000
0030
,
1100
0001
0100
0010
1101
0010
0001
1000
0110
0001
1000
0100
1011
0100
0010
1000
,
0110
0001
0010
1000
0111
1000
0001
1000
0011
0100
0001
1000
0111
1000
0010
0100
,
1011
0100
0001
0010
1100
0001
0100
0001
1110
0001
0010
0100
1010
0001
0100
0010
,
1101
0000
0000
0010
0000
0000
0100
0000
1111
0000
0000
0000
1211
0000
0000
0300
,
0022
0033
0000
0000
0000
0000
0000
0000
0000
2200
3300
0000
0000
0000
0000
0000
0000
0000
2020
3030
0000
0000
0000
0000
0220
0330
0000
0000
0000
0000
0000
0000
0000
2002
3003
0000
0000
0000
0000
0000
0000
0000
2200
3300
0000
0000
0000
0000
,
0022
0033
0000
0000
0000
0000
0000
0000
0000
2200
3300
0000
0000
0000
0000
0000
0000
0000
2020
3030
0000
0000
0000
0000
0220
0330
0000
0000
0000
0000
0001
0000
0000
1000
0000
0000
0010
0000
0000
0000
0000
0000
0100
0000
0000
0000
0000
0000
,
1111
0000
0000
0110
0000
0000
1110
0000
0111
0000
0000
0000
1101
0000
0000
0000
,
1111
0000
0000
0000
1111
0000
0000
0000
1011
0100
0011
0000
0010
0100
0001
1000
,
0111
0000
0000
1110
0000
0000
0100
0000
0001
0000
0000
1111
0000
0000
0101
0000
,
1101
0000
0000
0100
0000
0000
0001
0000
1111
0000
0000
0000
1000
0001
0100
0010
,
2221
0000
0000
3331
1110
0000
0000
0000
,
1110
0000
0000
0110
0000
0000
0101
0000
0111
0000
0000
0000
1000
0001
0010
0000
,
0110
0000
0000
1100
0000
0000
0011
0000
1111
0000
0000
0000
0010
0000
0000
0000
,
1001
0010
0100
1000
0011
1000
0001
0100
1011
0100
0001
1110
0001
0010
0100
0001
,
1010
0001
0110
1000
0011
1000
0110
0001
1010
0100
1001
0010
0101
1000
0100
0001
,
1010
0100
0010
1000
0101
0010
0100
1000
0011
0100
0001
1000
0110
0001
1000
0100
,
1010
0001
1010
0001
0110
1000
0001
0110
1000
0100
0010
0100
0001
1000
0010
1000
,
0110
0001
0010
0001
1100
0010
0001
1000
0110
1000
0010
0101
1000
0100
0001
1000
,
0110
1000
0011
0100
1010
0001
1100
0010
0101
1000
0110
1001
0010
1000
0100
1000
,
0011
0100
0010
0001
0110
0001
0100
0010
1100
0001
1000
0100
1010
0001
0010
0000
,
0112
0000
0000
0000
1213
0000
0000
0000
1311
0000
0000
0000
0010
0100
0001
1000
,
0011
1000
0100
0010
1001
0100
0010
1000
0110
0001
0010
1100
0001
0100
0001
0100
,
1001
0010
0101
1000
0110
1000
0011
1000
0110
0001
0110
1001
0010
0100
0001
0010
,
1001
0100
0001
1000
0011
0100
0010
0001
0110
0001
0100
0010
1100
0001
1000
0001
,
1110
0000
0111
0000
1111
0000
0010
1101
0000
1000
0001
0000
0001
0100
0010
0100
,
1001
0010
0100
1000
0011
1000
0100
0010
0101
1000
0010
1001
0010
0001
1000
0010
,
1001
0010
1100
0001
0110
1000
0011
0100
0011
0100
1010
0100
0001
0010
1000
0001
,
0110
1000
0001
0010
0101
1000
0100
0001
0110
1000
0010
0100
1010
0001
1000
0010
,
1101
0000
0000
0000
1101
0000
0000
0000
1111
0000
0000
0000
1100
0011
1100
0000
,
1101
0000
1000
0001
0100
0021
0000
0000
1130
0000
0001
0010
0100
0020
0000
0000
,
1131
0000
0010
1000
0010
0100
0010
1000
0001
0010
1000
0100
0001
0010
1000
0100
,
1011
0000
0010
0100
0001
2100
0000
0000
3111
0000
0001
0010
0100
2000
0000
0000
,
3110
1000
0001
0100
0010
0001
1000
0001
1110
0000
0111
0000
1111
0000
0000
0000
,
1101
0000
0001
0100
1000
0120
0000
0000
1031
0000
0010
0100
1000
0020
0000
0000
,
1131
0000
1000
0100
0010
0001
0010
0100
1000
0100
0010
1000
0100
0001
0010
1000
,
0111
0000
0100
0010
1000
0002
0000
0000
1113
0000
0001
0100
0001
0020
0000
0000
,
1131
0010
1000
0001
0010
0100
0010
0000
0110
0000
0110
0000
1111
0000
0000
0000
,
1011
0100
1000
0010
0001
0010
1000
0100
0010
0001
0100
0010
1000
0010
0001
1000
,
0111
1000
0001
0010
1000
0010
0100
0001
1000
0010
1000
0001
0100
0001
1000
0001
,
1110
0001
0010
0100
0010
0001
1000
0100
0010
0100
1000
0100
0010
0001
1000
0010
,
1101
0000
0000
1011
0000
0000
1111
0000
0000
0000
0000
0000
1211
0000
0000
0300
,
1011
0100
1000
0001
0010
0001
0100
0010
0100
0010
1000
0001
0010
0001
1000
0010
,
1101
0010
1000
0100
0001
0100
1000
0001
0010
0100
1000
0001
0100
0010
1000
0001
,
1110
0001
1000
0010
1000
0100
0001
0010
1000
0001
0100
0010
1000
0001
1000
0001
,
1110
0000
0000
1111
0000
0000
1111
0000
1111
0000
0000
0000
0001
0100
0010
1000
,
0111
0000
0000
1011
0000
0000
0110
0000
1001
0000
0000
0011
0000
0000
1110
0000
,
1111
0000
0000
1001
0000
0000
0110
0000
1100
0000
0000
0000
0000
0000
0000
0000
,
1111
0000
0000
1001
0000
0000
0111
0000
1010
0000
0000
0000
1111
0000
0000
0000
,
1110
0000
0000
0000
0111
0000
0000
0000
1111
0000
0000
0000
0100
0001
0100
0001
,
1110
0001
0010
0100
1000
0001
1000
0010
0100
0001
1000
0010
1000
0100
0010
0001
,
1110
0001
1000
0001
1000
0010
0100
0001
0100
0010
1000
0100
0010
0001
1000
0100
,
1011
0100
0010
0001
1000
0001
0010
0100
1000
0001
1000
0010
0100
0001
1000
0010
,
1101
0010
0100
0001
1000
0010
0100
0001
1000
0100
0010
0001
0010
0100
1000
0001
,
1110
0000
0000
1010
0000
0000
0110
0000
0101
0000
0000
0000
1111
0000
0000
0000
,
0011
1000
0100
0010
1001
0100
0010
0001
1010
0100
0010
0101
0010
1000
0010
1000
,
0110
1000
0011
0100
1010
0001
1100
0010
0101
0010
0101
1000
0101
0010
0100
0010
,
1001
0010
0001
0100
0011
1000
0010
0001
0110
0001
0100
0010
1100
0001
1000
0001
,
0110
0000
0110
0000
1111
0000
0001
0110
0000
0001
0010
1000
0100
0010
1000
0001
,
1110
0001
0100
0001
1010
0100
0001
1000
0110
1000
0001
1100
0010
1000
0100
0010
,
1001
0010
1001
0100
0011
1000
0101
0010
1100
0001
1010
0100
1010
0001
0100
0010
,
1100
0010
0001
1000
0011
0100
0010
0001
0110
0001
0100
1000
0110
0001
0010
0100
,
1011
0000
0000
0000
0111
0000
0000
0000
1111
0000
0100
0000
0010
0000
1001
0100
,
1001
0010
0100
0010
1001
0100
0010
1000
0011
0100
0010
0101
0010
1000
0010
1000
,
0110
1000
0110
0001
1100
0001
0110
1000
0011
0100
1001
0010
0101
1000
0010
0100
,
1001
0010
0001
0100
0011
1000
0010
0001
0110
0001
0100
0010
1100
0001
1000
0100
,
1011
0000
1011
0000
1111
0000
0001
0110
0000
0001
0100
0010
1000
0100
0010
0001
,
1100
0010
0001
1000
0101
0010
0100
1000
0110
0001
0010
1001
0100
1000
0101
0010
,
1001
0010
1100
0001
1100
0010
1001
0100
1001
0010
0101
1000
0001
0100
0010
0001
,
1100
0010
0100
1000
0110
0001
0010
1000
0011
0100
0001
1000
0101
0010
0100
1000
,
0111
0000
1111
0000
1111
0000
1001
0110
,
0011
0000
1000
0100
0010
2000
0000
0000
3111
0000
0100
0010
0001
1200
0000
0000
,
1311
0000
0100
0010
0100
0001
1000
0010
0100
0001
1000
0010
1000
0001
0010
0100
,
1011
0000
0010
0100
0001
0020
0000
0000
1131
0000
1000
0010
0100
0020
0000
0000
,
1131
0010
1000
0010
0001
0100
0001
1000
0111
0000
0111
0000
1111
0000
0000
0000
,
0101
0000
0001
0100
1000
0002
0000
0000
1113
0000
0100
0010
0100
1002
0000
0000
,
1113
0000
1000
0010
0100
0001
1000
0010
1000
0100
0010
0001
1000
0100
0001
0100
,
1011
0000
1000
0100
0001
0020
0000
0000
1131
0000
0100
0010
0100
0002
0000
0000
,
0013
1000
0100
0010
0001
1000
0100
0010
1101
0000
1110
0000
1111
0000
0000
0000
,
1011
0100
0010
1000
0100
2011
0000
0000
3111
1000
0010
0100
0001
2110
0000
0000
,
3111
1000
0001
1000
0001
0100
0010
0001
1000
0100
0001
0100
0001
1000
0010
0100
,
1011
0100
0010
1000
0001
2110
0000
0000
3011
0100
0010
0001
1000
0112
0000
0000
,
0103
0001
0010
0001
1000
0010
0001
1000
0111
0000
1111
0000
1111
0000
0000
0000
,
1101
0010
0001
0100
0001
2110
0000
0000
3111
1000
0001
0100
0010
1102
0000
0000
,
1113
0001
0010
1000
0001
0100
0001
0010
1000
0100
0001
0010
0100
1000
0010
0100
,
1011
0100
0010
1000
0001
1210
0000
0000
1311
0100
1000
0100
0010
0200
0000
0000
,
1301
0010
1100
0010
0101
0010
1100
0001
1110
0000
1111
0000
1111
0000
0000
0000
,
0111
1000
0001
0010
1101
0010
1000
0001
1110
0001
1000
0010
0100
1000
0010
0100
,
1011
0100
0010
0001
1000
0010
1101
0010
0100
0010
1101
0010
1101
0010
1000
0100
,
1011
0100
0010
0001
1110
0001
0100
1000
0111
1000
0010
1000
0010
0001
0100
0010
,
1101
0000
1101
0000
0111
0000
0001
1110
0000
0001
0100
0010
1000
0010
0100
1000
,
0111
1000
0010
0100
1011
0100
0010
1000
0111
1000
0010
0001
0100
0001
0010
0100
,
1011
0100
0011
1000
0111
1000
0101
0010
1101
0010
1100
0001
0010
0001
1000
0001
,
1110
0001
1100
0010
1101
0010
1001
0100
1001
0100
1010
0001
0110
1000
0110
0000
,
2000
0000
0000
3000
2222
0000
3333
0000
1111
0000
0000
0000
0000
0000
0000
0000
;
