#TITLE:AIRWAVE-08;
#SUBTITLE:;
#ARTIST:DJ Sharpnel;
#TITLETRANSLIT:;
#SUBTITLETRANSLIT:;
#ARTISTTRANSLIT:;
#CREDIT:;
#BANNER:AIRWAVE-08.png;
#BACKGROUND:AIRWAVE-08-bg.png;
#LYRICSPATH:;
#CDTITLE:!HSTTitle.png;
#MUSIC:AIRWAVE-08.mp3;
#OFFSET:0.160;
#SAMPLESTART:107.807;
#SAMPLELENGTH:12.000;
#SELECTABLE:YES;
#BPMS:0.000=180.000,518.000=359.999,530.875=90.000,647.000=359.999,671.000=180.000;
#STOPS:388.000=1.000
,517.000=0.100
;
#BGCHANGES:;
// cache tags:
#FIRSTBEAT:4.000;
#LASTBEAT:928.000;
#SONGFILENAME:Songs/Essential Sim Collection/(HST) AIRWAVE-08/AIRWAVE-08.sm;
#HASMUSIC:1;
#HASBANNER:1;
#MUSICLENGTH:343.797;
// end cache tags

//---------------dance-single - ----------------
#NOTES:
     dance-single:
     :
     Challenge:
     12:
     0.978,1.000,1.000,0.160,0.553,1879.000,419.000,55.000,0.000,0.000:
0000
0000
0000
0000
,
1001
0000
1001
0000
0001
1000
0001
0000
0001
0000
1000
0000
0010
0000
1000
0000
,
0001
0010
0001
1000
0100
1000
0001
0010
,
1100
0000
1100
0000
1000
0100
1000
0000
1000
0000
0100
0000
1000
0000
0001
0000
,
0010
0100
1000
0010
0100
0001
0010
0100
,
0110
0000
0110
0000
0010
0100
0010
0000
0001
0000
0010
0000
0001
0000
1000
0000
,
0100
1000
0010
0100
0001
0010
0100
1000
,
0100
0010
0001
0010
0001
0010
0100
1000
,
0110
0000
0000
1001
0000
0000
1001
0000
0000
0011
0000
0000
1100
0000
0001
1000
,
0001
1001
0000
1100
0000
1010
0000
1100
,
0000
1010
0000
1100
0000
1010
0000
1100
,
1001
0101
0000
0011
0000
0101
0000
0011
,
0000
0101
0000
0011
0000
0101
0000
0011
,
0101
0000
1001
0000
0000
0000
0110
0000
0000
0000
1000
0100
1000
0000
1100
0000
,
0011
0000
0001
0010
0001
0010
0001
0010
0001
0010
0001
0010
0001
0000
0011
0000
,
1100
0000
1000
0100
1000
0000
1001
0000
1001
0000
0001
1000
0001
1000
0001
0000
,
1001
0000
0000
0110
0000
0000
1001
0000
0000
0011
0000
0000
1100
0000
0011
0000
,
0001
0010
0001
0000
1000
0100
1000
0000
1010
0000
0101
0000
1001
0000
1100
0000
,
1000
0100
1000
0000
0001
0100
0001
0000
1010
0000
1001
0000
0011
0000
0110
0000
,
0100
0010
0100
0000
0010
0001
0010
0000
0011
0000
1001
0000
1100
0000
0110
0000
,
0100
0010
0100
0000
0010
0001
0010
0000
0011
0000
1100
0000
1001
0000
0101
0000
,
0001
0010
0001
0000
1000
0010
1000
0000
1010
0000
0110
0000
0101
0000
0011
0000
,
0001
0010
0001
0000
1000
0100
1000
0000
1010
0000
0110
0000
0101
0000
0011
0000
,
0010
0100
0010
0000
0100
0010
0100
0000
1100
0000
0110
0000
0011
0000
0110
0000
,
0010
0001
1000
0000
0010
1000
0001
0000
0011
0000
1001
0000
1010
0000
0101
0000
,
0001
1000
0010
0000
0010
0100
0001
0000
0011
0000
1001
0000
1100
0000
0011
0000
,
0010
0100
1000
0000
0010
0100
0001
0000
0011
0000
1001
0000
1010
0000
0101
0000
,
0001
1000
0010
0000
0010
0100
0001
0000
0011
0000
0110
0000
1100
0000
1010
0000
,
0010
0100
0001
0000
0010
0100
1000
0000
1100
0000
0110
0000
0011
0000
1100
0000
,
1000
0100
1000
0000
0001
0100
0001
0000
0011
0000
0110
0000
1100
0000
1010
0000
,
1000
0010
1000
0000
0001
0010
0001
0000
1001
0000
1010
0000
0101
0000
0011
0000
,
0010
0100
0010
0100
0010
0100
0010
0100
1000
0001
1000
0001
1000
0001
1000
0001
,
1000
0100
0010
0001
1000
0010
0100
0001
0010
0100
1000
0001
1000
0010
0100
0001
,
0000
0000
0001
0100
0001
0000
0001
0100
0001
0000
0001
0000
0100
0000
0010
0000
,
1000
0000
1000
0100
1000
0000
1000
0100
1000
0000
1000
0000
0010
0000
0100
0000
,
0001
0000
0001
0010
0001
0000
0001
0010
0001
0000
0001
0000
0010
0000
0100
0000
,
1000
0000
1000
0010
1000
0000
1000
0010
1000
0000
1000
0000
0001
0000
0010
0000
,
0100
0000
0100
1000
0100
0000
0100
1000
0100
0000
0100
0000
0010
0000
0001
0000
,
0010
0000
0010
0100
0010
0000
0010
0100
0010
0000
0010
0000
0001
0000
1000
0000
,
0010
0000
0010
0100
0010
0000
0010
0100
0010
0000
0010
0000
1000
0000
0001
0000
,
0100
0000
0100
0001
0100
0000
0100
0001
0100
0000
0100
0000
0010
0000
1000
0000
,
0001
0000
0001
0010
0001
0000
0001
0010
0001
0000
0001
0000
1000
0000
0100
0000
,
1000
0000
1000
0100
1000
0000
1000
0100
1000
0000
1000
0000
0010
0000
0100
0000
,
0001
0000
0001
0010
0001
0000
0001
0010
0001
0000
0001
0000
0010
0000
0100
0000
,
1000
0000
1000
0100
1000
0000
1000
0100
1000
0000
1000
0000
0010
0000
0100
0000
,
0001
0000
0001
0100
0001
0000
0001
0100
0001
0000
0001
0000
0010
0000
0100
0000
,
1000
0000
1000
0001
1000
0001
1000
0001
1000
0001
1000
0001
1000
0001
1000
0001
,
1000
0001
0010
0100
0010
0100
0010
0100
0010
0100
0010
0100
0010
0100
0010
0100
,
0010
0100
1000
0010
0100
0001
0010
0100
1000
0001
1000
0010
0100
0001
0010
0000
,
0100
0100
0010
0100
0100
0100
0010
0001
,
0001
0001
0001
0001
0010
0010
0100
0100
,
1000
1000
1000
1000
0010
0010
1000
1000
,
1000
1000
1000
1000
0010
0010
0100
0100
,
0001
0001
0001
0001
0010
0010
0100
0100
,
0100
0100
0100
0100
1000
1000
0100
0100
,
0010
0010
0010
0001
0001
0001
0001
0010
,
0010
0010
0010
0010
0100
0100
1000
1000
,
0010
0010
0010
0100
0100
0100
0001
0001
,
0001
0001
0001
0001
1000
1000
0001
0001
,
0010
0010
0010
0001
0001
0001
1000
1000
,
1000
1000
1000
1000
0100
0100
1000
1000
,
0100
0100
0100
0010
0010
0010
0001
0001
,
0001
0001
0001
0001
0010
0010
0001
0001
,
1000
0000
1000
0000
1000
0000
0010
0000
0010
0000
0010
0000
1000
0001
1000
0001
,
0100
0001
0010
0100
1000
0001
1000
0100
0010
0001
1000
0010
0100
0001
0010
0100
,
1000
0100
0010
0001
0010
0001
1000
0010
,
0100
0001
0010
0100
0010
0001
1000
0010
,
0100
0001
0010
0100
1000
0100
1000
0001
,
0100
0001
0010
0100
1000
0100
1000
0010
,
0100
0001
0010
0100
0010
0001
1000
0001
,
1000
0010
0100
0001
0010
0100
1000
0010
,
0100
0001
0010
0001
0010
0100
1000
0010
,
0100
0001
0010
0100
1000
0100
1000
0010
,
0100
0001
0100
0010
1000
0100
0010
0001
,
0100
0010
1000
0010
0100
0001
0100
0010
,
1000
0100
0010
0001
0010
0001
0100
0010
,
1000
0100
1000
0100
0010
0001
0010
0001
,
0100
0001
0100
0001
0010
0100
1000
0010
,
0100
0001
0010
0100
1000
0001
1000
0010
,
0100
0001
1000
0100
0010
0001
0100
0010
,
0010
1000
0001
0010
0100
1000
0010
0100
0001
0010
0100
1000
0001
1000
0010
0100
,
0001
0100
0100
0001
0100
0100
0001
0100
,
0100
0001
0100
0100
0001
0100
0100
0001
,
0010
0100
1000
1000
0010
1000
1000
0100
,
1000
1000
0100
1000
1000
0100
1000
0100
,
0010
0001
0001
0010
0001
0001
0010
0001
,
0100
0010
1000
0100
0010
0001
1000
0010
,
0100
0001
0100
0010
0100
0001
0010
0100
,
0100
0000
0100
0000
1000
0000
0010
0000
0010
0100
0001
0000
0010
0000
0010
0000
,
0110
0010
0001
0100
0010
1000
0110
0101
,
0011
0010
0110
0100
1100
1000
1001
0001
,
0101
0100
0110
1000
0010
0100
0011
0110
,
1100
1000
1100
0100
0110
0010
0011
0001
,
1001
1000
1100
1000
0010
0100
0101
0001
,
0011
0000
0010
0000
0110
0000
0100
0000
0100
0000
1000
0000
1000
0000
0010
0100
,
0001
0010
0110
1100
1000
0001
0010
0100
,
1000
0001
1000
0010
0100
0001
0010
0100
1000
0001
1000
0010
0100
0001
0010
0100
,
2200
3300
0000
0000
1001
0000
0000
0000
0000
0000
0001
0010
0002
0000
0000
0103
,
0000
0000
0010
0000
2010
0000
0000
0000
3100
0000
0000
0010
0000
0000
0001
0000
,
0010
0100
2000
0000
0000
3001
0000
0000
,
0011
0110
2200
3300
0000
0000
1100
1001
,
0000
0000
0000
0001
0011
0000
0000
0000
0011
0000
0110
0000
1100
0000
1001
0000
,
0101
0000
1000
1010
0000
0000
1100
0000
0000
0000
0100
0010
0001
0000
0011
0000
,
1100
0000
1001
0000
0011
0000
0000
0000
0000
0000
0000
0010
0110
0000
1100
0000
,
1010
0000
0110
0000
0000
0000
0000
0000
0010
1010
0000
0000
1100
0000
0110
0000
,
0000
0000
0000
0000
0011
0000
0000
0000
0000
0000
0001
0010
0002
0000
0000
0103
,
0000
0000
0010
0000
2010
0000
0000
0000
3100
0000
0000
0010
0000
0000
0001
0000
,
0010
0100
2000
0000
0000
3001
0000
0000
,
0011
0110
2200
3300
0000
0000
1100
1001
,
0000
0000
0000
0001
0011
0000
0000
0000
0011
0000
0110
0000
1100
0000
1001
0000
,
0101
0000
1000
1010
0000
0000
1100
0000
0000
0000
0100
0010
0001
0000
0011
0000
,
1100
0000
1001
0000
0011
0000
0000
0000
0000
0000
0000
0010
0110
0000
1100
0000
,
1010
0000
0110
0000
0010
1000
0010
0100
0001
0010
0100
1000
0001
1000
0010
0100
,
0001
0010
0100
1000
0100
0000
0000
0000
0000
0000
1000
0100
2000
0000
0000
3010
,
0000
0000
0100
0000
0102
0000
0000
0000
0013
0000
0000
0001
0000
0000
0010
0000
,
0100
1000
0020
0000
0000
0130
0000
0000
,
0110
1010
2002
3003
0000
0000
0011
1100
,
0000
0000
0000
1000
1010
0000
0000
0000
0110
0000
0101
0000
0011
0000
1001
0000
,
1100
0000
0100
0110
0000
0000
0011
0000
0000
0000
0001
0010
0100
0000
0110
0000
,
1100
0000
1001
0000
0011
0000
0000
0000
0000
0000
0000
0010
0110
0000
1100
0000
,
1010
0000
0110
0000
0000
0000
0000
0000
0010
1010
0000
0000
1100
0000
0110
0000
,
0000
0000
0000
0000
0011
0000
0000
0000
0000
0000
1000
0100
2000
0000
0000
3010
,
0000
0000
0100
0000
0102
0000
0000
0000
0013
0000
0000
0001
0000
0000
0010
0000
,
0100
1000
0020
0000
0000
0130
0000
0000
,
0110
1010
2002
3003
0000
0000
0011
1100
,
0000
0000
0000
1000
1010
0000
0000
0000
0110
0000
0101
0000
0011
0000
1001
0000
,
1100
0000
0100
0110
0000
0000
0011
0000
0000
0000
0001
0010
0100
0000
0110
0000
,
1100
0000
1001
0000
0011
0000
0000
0000
0000
0000
0000
0010
0110
0000
1100
0000
,
1010
0000
0110
0000
0010
0100
0001
0010
0100
1000
0001
1000
0010
0100
0001
0010
,
0001
1000
0010
0100
0202
0000
0000
0000
0000
0000
0000
0000
0000
0000
0000
0000
,
0000
0000
0000
0000
,
0000
0000
0000
0000
,
0303
0000
0000
2000
,
0000
3200
0000
0320
,
0000
0000
0000
0000
0000
0031
0200
0000
,
0000
0320
0000
2030
,
0000
0000
0000
0000
0000
0000
3000
0000
0000
0000
0000
0000
1001
0000
0000
1001
,
0000
0000
1010
0000
1001
0000
0000
1001
0000
0000
0011
0000
1001
0000
0000
1001
,
0000
0000
1010
0000
1001
0000
0000
1001
0000
0000
0101
0000
1001
0000
0000
1001
,
0000
0000
1100
0000
1001
0000
0000
1001
0000
0000
0110
0000
0011
0000
0000
0011
,
0000
0000
0110
0000
0110
0000
0000
1100
0000
0000
1100
0000
1000
0010
0100
0001
,
1000
0010
0100
0001
0010
0100
1000
0001
0010
0100
1000
0001
0010
0100
1000
0100
,
0010
0100
1000
0100
0010
0100
1000
0100
0010
0100
1000
0100
0010
0001
0100
0010
,
1000
0100
0010
0001
0100
0010
1000
0100
0010
0001
0100
0010
1000
0001
1000
0100
,
1000
0001
1000
0010
1000
0100
1000
0001
1000
0010
1000
0001
0011
0000
0110
0000
,
0011
0011
0110
0000
0011
0000
0110
0000
0011
0011
0110
0000
1100
0000
1010
0000
,
1100
1100
1010
0000
1100
0000
1010
0000
1100
1100
1010
0000
0110
0000
0101
0000
,
0110
0110
0101
0000
0110
0000
0101
0000
0110
0110
0101
0000
0011
0000
1001
0000
,
0011
0000
0011
0000
1001
0000
0000
0000
0011
0000
0000
0000
1001
0000
0000
0000
0011
0000
0011
0000
1001
0000
0000
0000
1010
0000
0000
0000
0000
0000
0010
1000
,
0010
0000
0000
0100
0000
0000
0001
0000
0010
0000
0000
0000
0001
0000
0000
0100
0000
0000
0010
0000
1000
0000
0010
0000
0100
0000
0000
0000
0000
0000
0001
0000
,
0000
0000
0000
0000
0001
0000
0010
0000
0001
0000
1000
0000
0000
0000
1000
1010
0000
0000
0110
0000
0000
0000
0100
0001
0010
0000
0000
0000
0001
0000
0010
0000
,
0001
0000
0100
0000
0010
0000
1000
0000
0000
0000
1100
0000
0000
0000
0100
0010
0001
0000
0010
0000
0100
0000
0000
0000
1100
0000
0000
0000
0000
0000
0000
0000
,
0100
0000
0001
0000
0010
0000
0100
0000
1000
0000
0100
0000
0010
0000
0001
0000
0010
0000
0011
0000
0000
0000
0000
0000
1001
0000
0000
0000
0000
0000
0001
0100
,
0001
0000
0000
0010
0000
0000
0100
0000
1000
0000
0000
0000
0010
0000
0000
0100
0000
0000
0010
0000
1000
0000
0100
0000
0010
0000
0000
0000
0000
0000
0010
0000
,
0000
0000
0000
0000
0001
0000
0010
0000
0001
0000
1000
0000
0000
0000
1000
1001
0000
0000
0011
0000
0000
0000
0010
0100
1000
0000
0000
0000
1000
0000
0010
0000
,
0100
0000
0001
0000
0010
0000
0100
0000
0000
0000
1100
0000
0000
0000
1000
0001
0010
0000
0100
0000
1000
0000
0000
0000
1100
0000
0000
0000
0000
0000
0000
0000
,
1000
0010
0100
0001
0010
0100
1000
0001
0010
0011
0000
0000
1001
0000
0000
1000
,
0010
0100
0001
0010
0100
1000
0001
0010
0001
1000
0000
0000
1001
0000
0000
1000
,
0010
0100
0010
1000
1010
0000
0000
0100
0010
0001
0010
0100
1100
0000
1000
0000
,
1010
0000
0010
0000
0110
0000
0100
0000
0101
0000
0001
0000
1000
0100
1000
0001
,
0100
0001
0010
0100
1000
0010
1000
0100
0010
0001
0010
0100
1001
1100
1010
0110
,
0101
0011
0110
1100
1001
1100
1001
1100
1001
0101
1001
0101
0011
0000
1000
0000
,
0001
1000
0001
1000
0001
1000
0001
1000
,
0001
0010
0100
0010
0100
0010
0200
0000
,
0000
0000
0000
0300
,
0000
0000
0000
0000
0002
0000
0000
0000
0003
0000
0000
0200
0000
0000
0000
0000
,
0000
0000
0000
0000
,
0300
0000
0000
1001
,
0000
0000
0001
0010
0002
0000
0000
0103
0000
0000
0010
0000
2010
0000
0000
0000
,
3100
0000
0000
0010
0000
0000
0001
0000
0010
0000
0100
0000
2000
0000
0000
0000
,
0000
3001
0000
0000
0011
0110
2200
3300
,
0000
0000
0000
0000
1100
0000
1001
0000
0000
0000
0000
0001
0011
0000
0000
0000
,
0011
0000
0110
0000
1100
0000
1001
0000
0101
0000
1000
1010
0000
0000
1100
0000
,
0000
0000
0100
0010
0001
0000
0011
0000
1100
0000
1001
0000
0011
0000
0000
0000
,
0000
0000
0000
0010
0110
0000
1100
0000
1010
0000
0110
0000
0000
0000
0000
0000
,
0010
1010
0000
0000
1100
0000
0110
0000
0000
0000
0000
0000
0011
0000
0000
0000
,
0000
0000
0001
0010
0002
0000
0000
0103
0000
0000
0010
0000
2010
0000
0000
0000
,
3100
0000
0000
0010
0000
0000
0001
0000
0010
0000
0100
0000
2000
0000
0000
0000
,
0000
3001
0000
0000
0011
0110
2200
3300
,
0000
0000
0000
0000
1100
0000
1001
0000
0000
0000
0000
0001
0011
0000
0000
0000
,
0011
0000
0110
0000
1100
0000
1001
0000
0101
0000
1000
1010
0000
0000
1100
0000
,
0000
0000
0100
0010
0001
0000
0011
0000
1100
0000
1001
0000
0011
0000
0000
0000
,
0000
0000
0000
0010
0110
0000
1100
0000
1010
0000
0110
0000
0010
1000
0010
0100
,
0001
0010
0100
1000
0001
1000
0010
0100
0001
0010
0100
1000
0100
0000
0000
0000
,
0000
0000
1000
0100
2000
0000
0000
3010
0000
0000
0100
0000
0102
0000
0000
0000
,
0013
0000
0000
0001
0000
0000
0010
0000
0100
0000
1000
0000
0020
0000
0000
0000
,
0000
0130
0000
0000
0110
1010
2002
3003
,
0000
0000
0000
0000
0011
0000
1100
0000
0000
0000
0000
1000
1010
0000
0000
0000
,
0110
0000
0101
0000
0011
0000
1001
0000
1100
0000
0100
0110
0000
0000
0011
0000
,
0000
0000
0001
0010
0100
0000
0110
0000
1100
0000
1001
0000
0011
0000
0000
0000
,
0000
0000
0000
0010
0110
0000
1100
0000
1010
0000
0110
0000
0000
0000
0000
0000
,
0010
1010
0000
0000
1100
0000
0110
0000
0000
0000
0000
0000
0011
0000
0000
0000
,
0000
0000
1000
0100
2000
0000
0000
3010
0000
0000
0100
0000
0102
0000
0000
0000
,
0013
0000
0000
0001
0000
0000
0010
0000
0100
0000
1000
0000
0020
0000
0000
0000
,
0000
0130
0000
0000
0110
1010
2002
3003
,
0000
0000
0000
0000
0011
0000
1100
0000
0000
0000
0000
1000
1010
0000
0000
0000
,
0110
0000
0101
0000
0011
0000
1001
0000
1100
0000
0100
0110
0000
0000
0011
0000
,
0000
0000
0001
0010
0100
0000
0110
0000
1100
0000
1001
0000
0011
0000
0000
0000
,
0000
0000
0000
0010
0110
0000
1100
0000
1010
0000
0110
0000
0010
0100
0001
0010
,
0100
1000
0001
1000
0010
0100
0001
0010
0001
0010
0100
1000
1100
0000
0100
0000
,
0010
0100
0100
0100
0010
0001
0001
0001
,
0001
0001
0010
0010
0100
0100
1000
1000
,
1000
1000
0010
0010
1000
1000
1000
1000
,
1000
1000
0010
0010
0100
0100
0001
0001
,
0001
0001
0010
0010
0100
0100
0100
0100
,
0100
0100
1000
1000
0100
0100
0010
0010
,
0010
0001
0001
0001
0001
0010
0010
0010
,
0010
0010
0100
0100
1000
1000
0010
0010
,
0010
0100
0100
0100
0001
0001
0001
0001
,
0001
0001
1000
1000
0001
0001
0010
0010
,
0010
0001
0001
0001
1000
1000
1000
1000
,
1000
1000
0100
0100
1000
1000
0100
0100
,
0100
0010
0010
0010
0001
0001
0001
0001
,
0001
0001
0010
0010
0001
0001
1000
1000
,
1000
0000
0010
0000
0010
0000
0010
0000
1000
0001
1000
0001
0100
0010
1000
0100
,
0010
0001
0010
0100
1000
0001
1000
0010
0100
0001
0010
0100
1000
0000
0100
0000
,
0010
0100
0100
0100
0010
0001
0001
0001
,
0001
0001
0010
0010
0100
0100
1000
1000
,
1000
1000
0010
0010
1000
1000
1000
1000
,
1000
1000
0010
0010
0100
0100
0001
0001
,
0001
0001
0010
0010
0100
0100
0100
0100
,
0100
0100
1000
1000
0100
0100
0010
0010
,
0010
0001
0001
0001
0001
0010
0010
0010
,
0010
0010
0100
0100
1000
1000
0010
0010
,
0010
0100
0100
0100
0001
0001
0001
0001
,
0001
0001
1000
1000
0001
0001
0010
0010
,
0010
0001
0001
0001
1000
1000
1000
1000
,
1000
1000
0100
0100
1000
1000
0100
0100
,
0100
0010
0010
0010
0001
0001
0001
0001
,
0001
0001
0010
0010
0001
0001
1000
1000
,
1000
0000
0010
0000
0010
0000
0010
0000
1000
0001
1000
0001
0100
0001
0010
0100
,
1000
0010
0100
0001
0010
0100
1000
0010
0100
0001
0010
0100
2200
0000
0000
0000
,
3300
0000
0000
0000
;
