#TITLE:Heart Attack;
#SUBTITLE:Sexuality Violation;
#ARTIST:Demi Lovato;
#TITLETRANSLIT:;
#SUBTITLETRANSLIT:;
#ARTISTTRANSLIT:;
#CREDIT:;
#BANNER:Heart Attack-bn.png;
#BACKGROUND:Heart Attack-bg.png;
#LYRICSPATH:;
#CDTITLE:GazeboCD.png;
#MUSIC:Heart Attack.ogg;
#OFFSET:-0.240;
#SAMPLESTART:60.600;
#SAMPLELENGTH:14.600;
#SELECTABLE:YES;
#BPMS:0.000=174.000;
#STOPS:;
#BGCHANGES:;
// cache tags:
#FIRSTBEAT:32.000;
#LASTBEAT:600.000;
#SONGFILENAME:Songs/Sexuality Violation 2/Heart Attack - [Gazebo]/Heart Attack.sm;
#HASMUSIC:1;
#HASBANNER:1;
#MUSICLENGTH:207.516;
// end cache tags

//---------------dance-single - Gazebo----------------
#NOTES:
     dance-single:
     Gazebo:
     Challenge:
     13:
     0.998,1.000,0.005,0.183,1.000,1410.000,1.000,38.000,0.000,0.000:
0000
0000
0000
0000
,
0000
0000
0000
0000
,
0000
0000
0000
0000
,
0000
0000
0000
0000
,
0000
0000
0000
0000
,
0000
0000
0000
0000
,
0000
0000
0000
0000
,
0000
0000
0000
0000
,
2000
0000
0000
0000
3001
0100
0001
0100
,
0001
0000
1000
0000
0001
0010
0100
0000
,
2000
0000
0000
0000
3001
0010
0001
0000
,
1000
0000
0001
0100
0010
0000
1000
0000
,
0002
0000
0000
0000
1003
0100
1000
0000
,
0001
0100
0010
0100
0010
1000
0001
0000
,
2000
0000
0000
3001
0010
0100
0010
0100
,
0010
0001
1000
0001
0100
0010
1000
0000
,
0001
0100
0001
0100
0010
1000
0100
0010
,
0100
1000
0010
1000
0001
0100
0001
0010
,
0100
1000
0100
0010
0001
0000
1000
0010
,
1000
0001
1000
0100
0010
0000
0001
0000
,
1000
0010
1000
0010
0100
0001
0010
0100
,
0010
0001
0100
0001
1000
0010
1000
0100
,
0010
0001
0010
0100
1000
0001
0100
0010
,
0100
0000
0010
1000
0010
0000
0100
0001
,
1000
0100
0010
0001
0100
0001
0100
0010
,
1000
0100
1000
0100
0010
0001
0010
0100
,
1000
0010
1000
0001
0010
0100
0010
0100
,
0010
0001
0100
0010
1000
0100
1000
0001
,
0010
0001
0100
0001
1000
0010
1000
0001
,
0010
0100
0010
0100
1000
0001
1000
0010
,
0200
0000
0000
0300
1001
0000
0000
0000
,
0000
0001
0000
0001
1000
1000
1000
1000
,
0001
0100
0001
0100
0010
1000
0001
0010
0100
1000
0100
1000
0010
1000
0001
0100
,
0001
0100
0010
1000
0001
0010
0001
0010
0100
1000
0001
0100
0001
1000
0001
1000
,
0010
1000
0001
0100
0001
1000
0001
0010
0100
1000
0010
1000
0001
0100
0001
1000
,
0100
0010
0001
0100
0001
1000
0001
1000
0100
0010
0100
1000
0001
0100
0001
1000
,
0001
0010
0001
0010
0100
1000
0001
0100
0010
1000
0010
1000
0001
0010
0100
0010
,
0100
1000
0001
1000
0010
1000
0010
0100
0001
1000
0010
1000
0001
0010
0100
1000
,
0001
1000
0001
0010
0001
1000
0100
1000
0001
1000
0001
0100
0001
1000
0001
1000
,
0100
1000
0001
0010
0001
0010
0100
1000
0001
0100
0010
1000
0010
1000
0001
1000
,
0100
0010
0100
0010
0100
0000
1000
0000
,
0020
0000
0000
0000
0030
0000
0000
1000
,
0001
0010
0001
0010
0001
0000
0100
0000
,
0200
0000
0000
0000
0300
0000
0001
1000
,
0001
1000
0001
0000
0001
0000
0000
1000
,
0010
0000
0000
0000
,
1000
0010
1000
0001
1000
0100
0010
0001
0100
0001
1000
0001
0010
0100
1000
0100
,
1000
0001
0010
0001
1000
0010
1000
0001
0100
0001
1000
0001
0010
0100
1000
0100
,
1000
0001
0010
0001
1000
0001
1000
0010
1000
0001
0100
0001
0100
0010
0100
0001
,
1000
0100
1000
0001
0100
0010
1000
0100
1000
0001
0010
0001
1000
0001
0100
0010
,
1000
0010
1000
0001
1000
0100
0010
0001
0100
0001
1000
0001
0010
0100
1000
0100
,
1000
0001
0010
0001
1000
0010
1000
0001
0100
0001
1000
0001
0010
0100
1000
0100
,
1000
0001
0010
0001
1000
0001
1000
0010
1000
0001
0100
0001
0100
0010
0100
0001
,
1000
0100
1000
0001
1000
0010
1000
0001
0100
0001
1000
0100
0010
0001
1000
0001
,
2000
0000
0000
0000
0000
0000
3000
0001
1000
0000
0010
0000
1000
0000
0010
0000
,
1000
0000
0001
1000
0001
0010
0100
0000
,
2000
0000
0000
0000
3001
0100
0001
1000
,
0001
0010
0001
0000
1000
0001
0100
0000
,
0020
0000
0000
1030
0001
0010
0001
0010
,
0001
0000
1000
0010
0000
0100
0000
0100
,
0002
0000
0000
1003
0001
0000
1000
0100
,
1000
0000
0001
1000
0001
0000
0100
0010
,
1000
0100
1000
0100
0010
0001
0100
0010
,
0100
0001
0010
0001
1000
0100
1000
0010
,
0100
0001
0100
0010
1000
0000
1000
0000
,
0001
0100
0001
0000
0010
0000
0001
1000
,
0001
0100
0001
0100
0010
1000
0100
0010
,
0100
1000
0010
1000
0001
0100
0001
0010
,
0100
0010
0001
0100
0001
1000
0010
0100
,
0010
0000
0100
0001
0010
0000
0001
1000
,
0001
0100
0010
1000
0100
1000
0100
0010
,
0001
0100
0001
0100
0010
1000
0010
0100
,
0001
0010
0001
1000
0010
0100
0010
0100
,
0010
1000
0100
0010
0001
0100
0001
1000
,
0010
1000
0100
1000
0001
0010
0001
1000
,
0010
0100
0010
0100
0001
1000
0001
0010
,
0200
0000
0000
0000
,
0300
0000
0000
0000
,
1000
0100
1000
0100
0010
0001
1000
0010
0100
0001
0100
0001
0010
0001
1000
0100
,
1000
0100
0010
0001
1000
0010
1000
0010
0100
0001
1000
0100
1000
0001
1000
0001
,
0010
0001
1000
0100
1000
0001
1000
0010
0100
0001
0010
0001
1000
0100
1000
0001
,
0100
0010
1000
0100
1000
0001
1000
0001
0100
0010
0100
0001
1000
0100
1000
0001
,
1000
0010
1000
0010
0100
0001
1000
0100
0010
0001
0010
0001
1000
0010
0100
0010
,
0100
0001
1000
0001
0010
0001
0010
0100
1000
0001
0010
0001
1000
0010
0100
0001
,
1000
0001
1000
0010
1000
0001
0100
0001
1000
0001
1000
0100
1000
0001
1000
0001
,
0100
0001
1000
0010
1000
0010
0100
0001
1000
0100
0010
0001
0010
0001
1000
0001
,
0100
0010
0100
0010
0100
0000
0001
0000
,
0020
0000
0000
0000
0030
0000
0000
0001
,
1000
0010
1000
0010
1000
0000
0100
0000
,
0200
0000
0000
0000
0300
0000
1000
0001
,
1000
0001
1000
0000
1000
0000
0000
0001
,
0010
0000
0000
0000
,
0001
0010
0001
1000
0001
0100
0010
1000
0100
1000
0001
1000
0010
0100
0001
0100
,
0001
1000
0010
1000
0001
0010
0001
1000
0100
1000
0001
1000
0010
0100
0001
0100
,
0001
1000
0010
1000
0001
1000
0001
0010
0001
1000
0100
1000
0100
0010
0100
1000
,
0001
0100
0001
1000
0100
0010
0001
0100
0001
1000
0010
1000
0001
1000
0100
0010
,
0001
0010
0001
1000
0001
0100
0010
1000
0100
1000
0001
1000
0010
0100
0001
0100
,
0001
1000
0010
1000
0001
0010
0001
1000
0100
1000
0001
1000
0010
0100
0001
0100
,
0001
1000
0010
1000
0001
1000
0001
0010
0001
1000
0100
1000
0100
0010
0100
1000
,
0001
0100
0001
1000
0001
0010
0001
1000
0010
1000
0001
1000
0100
0010
0001
1000
,
0001
0100
0001
0100
0010
1000
0001
1000
0001
0100
0001
0100
0010
1000
0001
1000
,
0001
0010
0100
1000
0010
1000
0010
0100
0010
1000
0001
0010
0001
1000
0001
0100
,
0001
1000
0100
0010
0001
0100
0001
1000
0010
1000
0001
1000
0001
0010
0100
0010
,
0001
1000
0001
1000
0010
1000
0010
0100
0010
1000
0001
0010
0001
1000
0001
0100
,
0001
1000
0100
0010
0001
0100
0001
1000
0010
1000
0001
1000
0001
0010
0100
0010
,
0001
1000
0001
1000
0010
1000
0001
1000
0100
0010
0001
1000
0100
1000
0001
1000
,
0010
0100
0010
0100
0001
1000
0010
1000
0001
0010
0100
0010
0100
1000
0001
1000
,
0010
0100
0010
0100
0001
1000
0010
1000
0001
0010
0100
1000
0001
0100
0001
1000
,
0001
0010
0100
1000
0001
0010
0001
1000
0001
0100
0010
1000
0001
0100
0001
1000
,
0100
0010
0001
1000
0100
1000
0100
0010
0100
1000
0001
0100
0001
1000
0001
0010
,
0001
1000
0010
0100
0001
0010
0001
1000
0100
1000
0001
1000
0001
0100
0010
0100
,
0001
1000
0001
1000
0100
1000
0100
0010
0100
1000
0001
0100
0001
1000
0010
1000
,
0100
0010
0100
0010
0001
1000
0010
1000
0001
1000
0001
0100
0001
1000
0010
1000
,
0001
1000
0100
0010
0001
0100
0001
1000
0010
1000
0001
1000
0100
0010
0001
1000
,
0020
2030
3020
2030
,
3020
2030
3020
2030
,
3200
0320
0230
0320
,
0032
0010
0100
1003
,
0001
0100
0010
2000
,
0000
3002
0000
0023
,
0000
0000
0030
0000
0001
0010
0001
0010
,
0001
0100
0010
1000
,
0001
0010
0100
2000
,
0000
3002
0000
0203
,
0000
0000
0300
0000
,
0002
0000
2003
0000
,
3100
0010
0100
0010
0100
0000
1000
0000
,
0020
0000
0000
0000
0030
0000
0000
1000
,
0001
0010
0001
0010
0001
0000
0100
0000
,
0200
0000
0000
0000
0300
0000
0001
1000
,
0001
1000
0001
0000
0001
0000
0000
1000
,
0010
0000
0000
0000
,
1000
0010
1000
0001
1000
0100
0010
0001
0100
0001
1000
0001
0010
0100
1000
0100
,
1000
0001
0010
0001
1000
0010
1000
0001
0100
0001
1000
0001
0010
0100
1000
0100
,
1000
0001
0010
0001
1000
0001
1000
0010
1000
0001
0100
0001
0100
0010
0100
0001
,
1000
0100
1000
0001
0100
0010
1000
0100
1000
0001
0010
0001
1000
0001
0100
0010
,
1000
0010
1000
0001
1000
0100
0010
0001
0100
0001
1000
0001
0010
0100
1000
0100
,
1000
0001
0010
0001
1000
0010
1000
0001
0100
0001
1000
0001
0010
0100
1000
0100
,
1000
0001
0010
0001
1000
0001
1000
0010
1000
0001
0100
0001
0100
0010
0100
0001
,
1000
0100
1000
0001
1000
0010
1000
0001
0100
0001
1000
0100
0010
0001
1000
0001
,
1000
0100
1000
0001
1000
0010
0100
0001
0010
0001
1000
0001
0100
0010
1000
0010
,
1000
0001
0100
0001
1000
0100
1000
0001
0010
0001
1000
0001
0100
0010
1000
0010
,
1000
0001
0100
0001
1000
0001
1000
0010
1000
0100
0010
0100
0010
0001
0100
0001
,
1000
0010
1000
0001
0010
0100
1000
0010
1000
0001
0100
0001
1000
0001
0010
0100
,
1000
0100
1000
0001
1000
0010
0100
0001
0010
0001
1000
0001
0100
0010
1000
0010
,
1000
0001
0100
0001
1000
0100
1000
0001
0010
0001
1000
0001
0100
0010
1000
0010
,
1000
0001
0100
0001
1000
0001
1000
0100
1000
0001
0010
0001
0010
0100
0010
0001
,
1000
0010
1000
0001
1000
0100
1000
0001
0010
0001
1000
0001
1000
0010
0100
0001
,
2000
0000
0000
0000
,
0000
0000
0000
0000
,
3000
0000
0000
0000
;

//---------------dance-single - Gazebo----------------
#NOTES:
     dance-single:
     Gazebo:
     Hard:
     13:
     0.931,1.000,0.010,0.183,1.000,1312.000,2.000,38.000,0.000,0.000:
0000
0000
0000
0000
,
0000
0000
0000
0000
,
0000
0000
0000
0000
,
0000
0000
0000
0000
,
0000
0000
0000
0000
,
0000
0000
0000
0000
,
0000
0000
0000
0000
,
0000
0000
0000
0000
,
2000
0000
0000
0000
3001
0100
0001
0100
,
0001
0000
1000
0000
0001
0010
0100
0000
,
2000
0000
0000
0000
3001
0010
0001
0000
,
1000
0000
0001
0100
0010
0000
1000
0000
,
0002
0000
0000
0000
1003
0100
1000
0000
,
0001
0100
0010
0100
0010
1000
0001
0000
,
2000
0000
0000
3001
0010
0100
0010
0100
,
0010
0001
1000
0001
0100
0010
1000
0000
,
0001
0100
0001
0100
0010
1000
0100
0010
,
0100
1000
0010
1000
0001
0100
0001
0010
,
0100
1000
0100
0010
0001
0000
1000
0010
,
1000
0001
1000
0100
0010
0000
0001
0000
,
1000
0010
1000
0010
0100
0001
0010
0100
,
0010
0001
0100
0001
1000
0010
1000
0100
,
0010
0001
0010
0100
1000
0001
0100
0010
,
0100
0000
0010
1000
0010
0000
0100
0001
,
1000
0100
0010
0001
0100
0001
0100
0010
,
1000
0100
1000
0100
0010
0001
0010
0100
,
1000
0010
1000
0001
0010
0100
0010
0100
,
0010
0001
0100
0010
1000
0100
1000
0001
,
0010
0001
0100
0001
1000
0010
1000
0001
,
0010
0100
0010
0100
1000
0001
1000
0010
,
0200
0000
0000
0300
1001
0000
0000
0000
,
0000
0001
0000
0001
1000
1000
1000
1000
,
0001
0100
0001
0100
0010
1000
0001
0010
0100
1000
0100
1000
0010
1000
0001
0100
,
0001
0100
0010
1000
0001
0010
0001
0010
0100
1000
0001
0100
0001
1000
0001
1000
,
0010
1000
0001
0100
0001
1000
0001
0010
0100
1000
0010
1000
0001
0100
0001
1000
,
0100
0010
0001
0100
0001
1000
0001
1000
0100
0010
0100
1000
0001
0100
0001
1000
,
0001
0010
0001
0010
0100
1000
0001
0100
0010
1000
0010
1000
0001
0010
0100
0010
,
0100
1000
0001
1000
0010
1000
0010
0100
0001
1000
0010
1000
0001
0010
0100
1000
,
0001
1000
0001
0010
0001
1000
0100
1000
0001
1000
0001
0100
0001
1000
0001
1000
,
0100
1000
0001
0010
0001
0010
0100
1000
0001
0100
0010
1000
0010
1000
0001
1000
,
0100
0010
0100
0010
0100
0000
1000
0000
,
0020
0000
0000
0000
0030
0000
0000
1000
,
0001
0010
0001
0010
0001
0000
0100
0000
,
0200
0000
0000
0000
0300
0000
0001
1000
,
0001
1000
0001
0000
0001
0000
0000
1000
,
0010
0000
0000
0000
,
1000
0010
1000
0001
1000
0100
0010
0001
0100
0001
1000
0001
0010
0100
1000
0100
,
1000
0001
0010
0001
1000
0010
1000
0001
0100
0001
1000
0001
0010
0100
1000
0100
,
1000
0001
0010
0001
1000
0001
1000
0010
1000
0001
0100
0001
0100
0010
0100
0001
,
1000
0100
1000
0001
0100
0010
1000
0100
1000
0001
0010
0001
1000
0001
0100
0010
,
1000
0010
1000
0001
1000
0100
0010
0001
0100
0001
1000
0001
0010
0100
1000
0100
,
1000
0001
0010
0001
1000
0010
1000
0001
0100
0001
1000
0001
0010
0100
1000
0100
,
1000
0001
0010
0001
1000
0001
1000
0010
1000
0001
0100
0001
0100
0010
0100
0001
,
1000
0100
1000
0001
1000
0010
1000
0001
0100
0001
1000
0100
0010
0001
1000
0001
,
2000
0000
0000
0000
0000
0000
3000
0001
1000
0000
0010
0000
1000
0000
0010
0000
,
1000
0000
0001
1000
0001
0010
0100
0000
,
2000
0000
0000
0000
3001
0100
0001
1000
,
0001
0010
0001
0000
1000
0001
0100
0000
,
0020
0000
0000
1030
0001
0010
0001
0010
,
0001
0000
1000
0010
0000
0100
0000
0100
,
0002
0000
0000
1003
0001
0000
1000
0100
,
1000
0000
0001
1000
0001
0000
0100
0010
,
1000
0100
1000
0100
0010
0001
0100
0010
,
0100
0001
0010
0001
1000
0100
1000
0010
,
0100
0001
0100
0010
1000
0000
1000
0000
,
0001
0100
0001
0000
0010
0000
0001
1000
,
0001
0100
0001
0100
0010
1000
0100
0010
,
0100
1000
0010
1000
0001
0100
0001
0010
,
0100
0010
0001
0100
0001
1000
0010
0100
,
0010
0000
0100
0001
0010
0000
0001
1000
,
0001
0100
0010
1000
0100
1000
0100
0010
,
0001
0100
0001
0100
0010
1000
0010
0100
,
0001
0010
0001
1000
0010
0100
0010
0100
,
0010
1000
0100
0010
0001
0100
0001
1000
,
0010
1000
0100
1000
0001
0010
0001
1000
,
0010
0100
0010
0100
0001
1000
0001
0010
,
0200
0000
0000
0000
,
0300
0000
0000
0000
,
1000
0100
1000
0100
0010
0001
1000
0010
0100
0001
0100
0001
0010
0001
1000
0100
,
1000
0100
0010
0001
1000
0010
1000
0010
0100
0001
1000
0100
1000
0001
1000
0001
,
0010
0001
1000
0100
1000
0001
1000
0010
0100
0001
0010
0001
1000
0100
1000
0001
,
0100
0010
1000
0100
1000
0001
1000
0001
0100
0010
0100
0001
1000
0100
1000
0001
,
1000
0010
1000
0010
0100
0001
1000
0100
0010
0001
0010
0001
1000
0010
0100
0010
,
0100
0001
1000
0001
0010
0001
0010
0100
1000
0001
0010
0001
1000
0010
0100
0001
,
1000
0001
1000
0010
1000
0001
0100
0001
1000
0001
1000
0100
1000
0001
1000
0001
,
0100
0001
1000
0010
1000
0010
0100
0001
1000
0100
0010
0001
0010
0001
1000
0001
,
0100
0010
0100
0010
0100
0000
0001
0000
,
0020
0000
0000
0000
0030
0000
0000
0001
,
1000
0010
1000
0010
1000
0000
0100
0000
,
0200
0000
0000
0000
0300
0000
1000
0001
,
1000
0001
1000
0000
1000
0000
0000
0001
,
0010
0000
0000
0000
,
0001
0010
0001
1000
0001
0100
0010
1000
0100
1000
0001
1000
0010
0100
0001
0100
,
0001
1000
0010
1000
0001
0010
0001
1000
0100
1000
0001
1000
0010
0100
0001
0100
,
0001
1000
0010
1000
0001
1000
0001
0010
0001
1000
0100
1000
0100
0010
0100
1000
,
0001
0100
0001
1000
0100
0010
0001
0100
0001
1000
0010
1000
0001
1000
0100
0010
,
0001
0010
0001
1000
0001
0100
0010
1000
0100
1000
0001
1000
0010
0100
0001
0100
,
0001
1000
0010
1000
0001
0010
0001
1000
0100
1000
0001
1000
0010
0100
0001
0100
,
0001
1000
0010
1000
0001
1000
0001
0010
0001
1000
0100
1000
0100
0010
0100
1000
,
0001
0100
0001
1000
0001
0010
0001
1000
0010
1000
0001
1000
0100
0010
0001
1000
,
0001
0010
0001
0000
1000
0100
1000
0000
,
0001
1000
0010
0000
0010
0100
0000
0001
,
1000
0010
1000
0001
0010
0100
1000
0001
0010
0100
0010
0001
0010
0100
0010
0001
,
1000
0000
0010
0000
0010
0100
0000
0001
,
1000
0010
1000
0001
0010
0100
1000
0001
0010
0100
0010
0001
0010
0100
0010
0001
,
1000
0000
0001
0000
0011
1000
1000
0001
,
0100
0010
0100
0010
0000
0000
1000
0100
1000
0100
0000
0000
,
0010
0001
0010
0001
0000
0000
1000
0001
1000
0010
0000
0000
,
1000
0010
1000
0000
0001
0100
0001
0000
,
1000
0001
0010
0000
0010
0100
0000
1000
,
0001
0010
0001
1000
0010
0100
0001
1000
0010
0100
0010
1000
0010
0100
0010
1000
,
0001
0000
0010
0000
0010
0100
0000
1000
,
0010
0100
0010
1000
0001
1000
0100
1000
0001
0010
0100
0010
0001
0010
0100
1000
,
0001
0000
1000
0100
1000
0000
0001
0100
,
0020
2030
3020
2030
,
3020
2030
3020
2030
,
3200
0320
0230
0320
,
0032
0010
0100
1003
,
0001
0100
0010
2000
,
0000
3002
0000
0023
,
0000
0000
0030
0000
0001
0010
0001
0010
,
0001
0100
0010
1000
,
0001
0010
0100
2000
,
0000
3002
0000
0203
,
0000
0000
0300
0000
,
0002
0000
2003
0000
,
3100
0010
0100
0010
0100
0000
1000
0000
,
0020
0000
0000
0000
0030
0000
0000
1000
,
0001
0010
0001
0010
0001
0000
0100
0000
,
0200
0000
0000
0000
0300
0000
0001
1000
,
0001
1000
0001
0000
0001
0000
0000
1000
,
0010
0000
0000
0000
,
1000
0010
1000
0001
1000
0100
0010
0001
0100
0001
1000
0001
0010
0100
1000
0100
,
1000
0001
0010
0001
1000
0010
1000
0001
0100
0001
1000
0001
0010
0100
1000
0100
,
1000
0001
0010
0001
1000
0001
1000
0010
1000
0001
0100
0001
0100
0010
0100
0001
,
1000
0100
1000
0001
0100
0010
1000
0100
1000
0001
0010
0001
1000
0001
0100
0010
,
1000
0010
1000
0001
1000
0100
0010
0001
0100
0001
1000
0001
0010
0100
1000
0100
,
1000
0001
0010
0001
1000
0010
1000
0001
0100
0001
1000
0001
0010
0100
1000
0100
,
1000
0001
0010
0001
1000
0001
1000
0010
1000
0001
0100
0001
0100
0010
0100
0001
,
1000
0100
1000
0001
1000
0010
1000
0001
0100
0001
1000
0100
0010
0001
1000
0001
,
1000
0100
1000
0001
1000
0010
0100
0001
0010
0001
1000
0001
0100
0010
1000
0010
,
1000
0001
0100
0001
1000
0100
1000
0001
0010
0001
1000
0001
0100
0010
1000
0010
,
1000
0001
0100
0001
1000
0001
1000
0010
1000
0100
0010
0100
0010
0001
0100
0001
,
1000
0010
1000
0001
0010
0100
1000
0010
1000
0001
0100
0001
1000
0001
0010
0100
,
1000
0100
1000
0001
1000
0010
0100
0001
0010
0001
1000
0001
0100
0010
1000
0010
,
1000
0001
0100
0001
1000
0100
1000
0001
0010
0001
1000
0001
0100
0010
1000
0010
,
1000
0001
0100
0001
1000
0001
1000
0100
1000
0001
0010
0001
0010
0100
0010
0001
,
1000
0010
1000
0001
1000
0100
1000
0001
0010
0001
1000
0001
1000
0010
0100
0001
,
2000
0000
0000
0000
,
0000
0000
0000
0000
,
3000
0000
0000
0000
;

//---------------dance-single - Gazebo----------------
#NOTES:
     dance-single:
     Gazebo:
     Medium:
     12:
     0.693,1.000,0.014,0.366,0.388,927.000,3.000,76.000,0.000,0.000:

0000
0000
0000
0000
,
0000
0000
0000
0000
,
0000
0000
0000
0000
,
0000
0000
0000
0000
,
0000
0000
0000
0000
,
0000
0000
0000
0000
,
0000
0000
0000
0000
,
0000
0000
0000
0000
,
2000
0000
0000
0000
3001
0100
0001
0100
,
0001
0000
1000
0000
0001
0010
0100
0000
,
2000
0000
0000
0000
3001
0010
0001
0000
,
1000
0000
0001
0100
0010
0000
1000
0000
,
0002
0000
0000
0000
1003
0100
1000
0000
,
0001
0100
0010
0100
0010
1000
0001
0000
,
2000
0000
0000
3001
0010
0100
0010
0100
,
0010
0001
1000
0001
0100
0010
1000
0000
,
0001
0100
0001
0100
0010
1000
0100
0010
,
0100
1000
0010
1000
0001
0100
0001
0010
,
0100
1000
0100
0010
0001
0000
1000
0010
,
1000
0001
1000
0100
0010
0000
0001
0000
,
1000
0010
1000
0010
0100
0001
0010
0100
,
0010
0001
0100
0001
1000
0010
1000
0100
,
0010
0001
0010
0100
1000
0001
0100
0010
,
0100
0000
0010
1000
0010
0000
0100
0001
,
1000
0100
0010
0001
0100
0001
0100
0010
,
1000
0100
1000
0100
0010
0001
0010
0100
,
1000
0010
1000
0001
0010
0100
0010
0100
,
0010
0001
0100
0010
1000
0100
1000
0001
,
0010
0001
0100
0001
1000
0010
1000
0001
,
0010
0100
0010
0100
1000
0001
1000
0010
,
0200
0000
0000
0300
1001
0000
0000
0000
,
0000
1000
0010
0100
,
0002
2003
3200
0320
,
0000
0230
0000
2300
,
0000
0000
3000
0000
0001
0100
0001
0100
,
0010
1000
0001
0010
,
0200
2300
3002
0203
,
0000
0320
0000
2030
,
0000
0000
3000
0000
,
0002
0000
2003
0000
,
3100
0010
0100
0010
0100
0000
1000
0000
,
0020
0000
0000
0000
0030
0000
0000
1000
,
0001
0010
0001
0010
0001
0000
0100
0000
,
0200
0000
0000
0000
0300
0000
0001
1000
,
0001
1000
0001
0000
0001
0000
0000
1000
,
0010
0000
0000
0000
,
1000
0010
1000
0001
1000
0100
0010
0001
0100
0001
1000
0001
0010
0100
1000
0100
,
1000
0001
0010
0001
1000
0010
1000
0001
0100
0001
1000
0001
0010
0100
1000
0100
,
1000
0001
0010
0001
1000
0001
1000
0010
1000
0000
0000
0000
0001
0000
1000
0000
,
0010
0100
0010
1000
0100
0000
0010
0000
,
0001
0010
0001
1000
0001
0100
0010
1000
0100
1000
0001
1000
0010
0100
0001
0100
,
0001
1000
0010
1000
0001
0010
0001
1000
0100
1000
0001
1000
0010
0100
0001
0100
,
0001
1000
0010
1000
0001
1000
0001
0010
0001
0000
0000
0000
1000
0000
0001
0000
,
0010
0001
1000
0001
1000
0010
0100
0001
,
2000
0000
0000
0000
0000
0000
3000
0001
1000
0000
0010
0000
1000
0000
0010
0000
,
1000
0000
0001
1000
0001
0010
0100
0000
,
2000
0000
0000
0000
3001
0100
0001
1000
,
0001
0010
0001
0000
1000
0001
0100
0000
,
0020
0000
0000
1030
0001
0010
0001
0010
,
0001
0000
1000
0010
0000
0100
0000
0100
,
0002
0000
0000
1003
0001
0000
1000
0100
,
1000
0000
0001
1000
0001
0000
0100
0010
,
1000
0100
1000
0100
0010
0001
0100
0010
,
0100
0001
0010
0001
1000
0100
1000
0010
,
0100
0001
0100
0010
1000
0000
1000
0000
,
0001
0100
0001
0000
0010
0000
0001
1000
,
0001
0100
0001
0100
0010
1000
0100
0010
,
0100
1000
0010
1000
0001
0100
0001
0010
,
0100
0010
0001
0100
0001
1000
0010
0100
,
0010
0000
0100
0001
0010
0000
0001
1000
,
0001
0100
0010
1000
0100
1000
0100
0010
,
0001
0100
0001
0100
0010
1000
0010
0100
,
0001
0010
0001
1000
0010
0100
0010
0100
,
0010
1000
0100
0010
0001
0100
0001
1000
,
0010
1000
0100
1000
0001
0010
0001
1000
,
0010
0100
0010
0100
0001
1000
0001
1000
,
2100
0000
0000
0000
,
0000
3001
0010
0100
,
2000
3002
0203
0320
,
0000
0230
0000
0302
,
0000
0000
0003
0000
1000
0100
1000
0100
,
0010
0001
1000
0010
,
0200
0302
2003
3200
,
0000
0320
0000
0032
,
0000
0000
0003
0000
,
2000
0000
3002
0000
,
0103
0010
0100
0010
0100
0000
0001
0000
,
0020
0000
0000
0000
0030
0000
0000
0001
,
1000
0010
1000
0010
1000
0000
0100
0000
,
0200
0000
0000
0000
0300
0000
1000
0001
,
1000
0001
1000
0000
1000
0000
0000
0001
,
0010
0000
0000
0000
,
0001
0010
0001
1000
0001
0100
0010
1000
0100
1000
0001
1000
0010
0100
0001
0100
,
0001
1000
0010
1000
0001
0010
0001
1000
0100
1000
0001
1000
0010
0100
0001
0100
,
0001
1000
0010
1000
0001
1000
0001
0010
0001
0000
0000
0000
1000
0000
0001
0000
,
0010
0100
0010
0001
0100
0000
0010
0000
,
1000
0010
1000
0001
1000
0100
0010
0001
0100
0001
1000
0001
0010
0100
1000
0100
,
1000
0001
0010
0001
1000
0010
1000
0001
0100
0001
1000
0001
0010
0100
1000
0100
,
1000
0001
0010
0001
1000
0001
1000
0010
1000
0000
0000
0000
0001
0000
1000
0000
,
0010
1000
0001
1000
0200
0000
2300
0000
,
3001
0010
0001
0000
1000
0100
1000
0000
,
0001
1000
0010
0000
0010
0100
0000
0001
,
1000
0000
0100
0010
0200
0000
0000
0000
,
1300
0000
0001
0000
0001
0100
0000
0001
,
1000
0000
0100
0010
0200
0000
0000
0000
,
1300
0000
0001
0000
0011
1000
0001
0100
,
0020
0000
0230
0000
,
0302
0000
1003
0001
,
1000
0010
1000
0000
0001
0100
0001
0000
,
1000
0001
0010
0000
0010
0100
0000
1000
,
0001
0000
0100
0010
0200
0000
0000
0000
,
0301
0000
1000
0000
1000
0100
0000
1000
,
0010
0000
0100
0001
0200
0000
0000
0000
,
0301
0000
1000
0100
1000
0000
0001
0100
,
0020
2030
3020
2030
,
3020
2030
3020
2030
,
3200
0320
0230
0320
,
0032
0010
0100
1003
,
0001
0100
0010
2000
,
0000
3002
0000
0023
,
0000
0000
0030
0000
0001
0010
0001
0010
,
0001
0100
0010
1000
,
0001
0010
0100
2000
,
0000
3002
0000
0203
,
0000
0000
0300
0000
,
0002
0000
2003
0000
,
3100
0010
0100
0010
0100
0000
1000
0000
,
0020
0000
0000
0000
0030
0000
0000
1000
,
0001
0010
0001
0010
0001
0000
0100
0000
,
0200
0000
0000
0000
0300
0000
0001
1000
,
0001
1000
0001
0000
0001
0000
0000
1000
,
0010
0000
0000
0000
,
1000
0010
1000
0001
1000
0100
0010
0001
0100
0001
1000
0001
0010
0100
1000
0100
,
1000
0001
0010
0001
1000
0010
1000
0001
0100
0001
1000
0001
0010
0100
1000
0100
,
1000
0001
0010
0001
1000
0001
1000
0010
1000
0000
0000
0000
0001
0000
1000
0000
,
0010
0100
0010
1000
0100
0000
0010
0000
,
0001
0010
0001
1000
0001
0100
0010
1000
0100
1000
0001
1000
0010
0100
0001
0100
,
0001
1000
0010
1000
0001
0010
0001
1000
0100
1000
0001
1000
0010
0100
0001
0100
,
0001
1000
0010
1000
0001
1000
0001
0010
0001
0000
0000
0000
1000
0000
0001
0000
,
0010
0001
1000
0001
1000
0010
0100
0001
,
1000
0100
1000
0001
1000
0010
0100
0001
0010
0001
1000
0001
0100
0010
1000
0010
,
1000
0001
0100
0001
1000
0100
1000
0001
0010
0001
1000
0001
0100
0010
1000
0010
,
1000
0001
0100
0001
1000
0001
1000
0100
0020
0000
0000
0000
0031
0000
1000
0000
,
0100
0010
0100
1000
0010
0000
0100
0000
,
0001
0100
0001
1000
0001
0010
0100
1000
0010
1000
0001
1000
0100
0010
0001
0010
,
0001
1000
0100
1000
0001
0100
0001
1000
0010
1000
0001
1000
0100
0010
0001
0010
,
0001
1000
0100
1000
0001
1000
0001
0100
0001
0000
0000
0000
1000
0000
0001
0000
,
0100
0001
1000
0001
1000
0100
0010
0001
,
2000
0000
0000
0000
,
0000
0000
0000
0000
,
3000
0000
0000
0000
;
