#TITLE:VerTex;
#SUBTITLE:;
#ARTIST:ZiGZaG;
#TITLETRANSLIT:;
#SUBTITLETRANSLIT:;
#ARTISTTRANSLIT:;
#CREDIT:;
#BANNER:../fthescorept1bn.png;
#BACKGROUND:../fthescorept1bg.png;
#LYRICSPATH:;
#CDTITLE:;
#MUSIC:VerTex.ogg;
#OFFSET:-0.031;
#SAMPLESTART:0.040;
#SAMPLELENGTH:17.060;
#SELECTABLE:YES;
#BPMS:0.000=112.000,32.000=250.000,36.000=254.000,40.000=255.000,44.000=257.000,48.000=262.000,52.000=266.000,56.000=270.000,60.000=275.000,64.000=278.000,68.000=282.000,72.000=286.000,76.000=288.000,80.000=292.000,84.000=293.000,88.000=297.000,92.000=300.000,96.000=304.000,104.000=305.000,128.000=306.000;
#STOPS:;
#BGCHANGES:;
// cache tags:
#FIRSTBEAT:0.000;
#LASTBEAT:163.000;
#SONGFILENAME:Songs/Fuck The Score Part I/VerTex [Dossar]/VerTex.sm;
#HASMUSIC:1;
#HASBANNER:1;
#MUSICLENGTH:47.400;
// end cache tags

//---------------dance-single - ----------------
#NOTES:
     dance-single:
     :
     Hard:
     17:
     1.000,1.000,0.000,0.084,1.000,460.000,0.000,4.000,0.000,0.000:
1000
0010
0100
0001
1000
0000
0000
0000
0010
0000
0000
0000
0100
0000
0000
0000
0001
0000
0000
0000
1000
0000
0100
0000
0010
0000
0000
0000
0001
0000
0000
0000
,
1000
0100
0010
0001
1000
0000
0000
0000
0010
0000
0000
0000
0100
0000
0000
0000
0001
0000
0000
0000
0010
0000
0001
0000
0100
0000
0000
0000
0010
0000
0000
0000
,
1000
0000
0100
0010
0001
0000
0100
0000
0010
1000
0100
0000
0010
0000
0001
1000
,
0100
0000
0010
0001
1000
0000
0010
0000
0100
0000
0001
0000
0010
0000
0100
0000
,
1000
0010
1000
0100
0010
0100
1000
0001
1000
0010
0000
0000
,
0100
0001
0100
0010
1000
0010
0100
0001
0100
0010
0000
0000
,
1000
0100
1000
0001
0010
0001
1000
0100
1000
0001
0000
0000
,
1000
0010
1000
0001
0100
0001
2000
0000
0000
3002
0000
0000
,
1003
0000
0010
0000
0100
0000
0001
0000
1000
0100
1000
0001
0100
0001
0100
0010
,
1000
0000
0001
0000
0100
0000
0001
0000
1000
0010
0100
0001
1000
0010
1000
0001
,
0100
0000
0010
0000
0100
0000
0001
0000
1000
0100
0010
0001
1000
0100
0010
0001
,
1000
0000
0100
0000
0010
0000
0001
0000
1000
0100
0010
0001
1000
0100
0010
0001
,
1000
0000
0010
0000
0100
0000
0001
0000
1000
0010
0100
0001
1000
0010
1000
0001
,
0100
0000
0010
0000
1000
0000
0001
0000
0100
0010
1000
0001
0100
0001
1000
0100
,
1000
0000
0001
0000
0100
0000
0001
0000
1000
0100
0010
0001
1000
0100
1000
0001
,
0010
0000
0100
0000
1000
0000
0001
0000
1000
0100
0010
0001
1000
0100
0010
0001
,
1000
0000
0010
0000
0100
0000
0001
0000
1000
0010
0100
0001
1000
0010
1000
0001
,
0100
0000
0010
0000
1000
0000
0001
0000
1000
0100
1000
0001
1000
0001
0100
0010
,
1000
0000
0001
0000
0100
0000
0001
0000
1000
0100
0010
0001
1000
0100
0010
0001
,
1000
0000
0100
0000
0010
0000
0100
0000
1000
0100
1000
0001
0010
0100
1000
0100
,
0010
0000
0001
0000
1000
0000
0010
0000
1000
0001
0100
0001
1000
0010
0100
0001
,
1000
0000
0010
0000
0100
0000
0001
0000
1000
0010
1000
0001
0100
0001
1000
0010
,
0100
0000
0001
0000
1000
0000
0100
0000
0010
0001
1000
0100
0010
0001
0010
0100
,
1000
0000
0001
0000
1000
0000
0100
0000
0010
0001
1000
0100
0010
0001
1000
0100
,
1000
0000
0001
0000
0100
0000
0001
0000
1000
0100
1000
0001
0100
0001
0100
0010
,
1000
0000
0001
0000
0100
0000
0001
0000
1000
0010
0100
0001
1000
0010
1000
0001
,
0100
0000
0010
0000
0100
0000
0001
0000
1000
0100
0010
0001
1000
0100
0010
0001
,
1000
0000
0100
0000
0010
0000
0001
0000
1000
0100
0010
0001
1000
0100
0010
0001
,
1000
0000
0010
0000
0100
0000
0001
0000
1000
0010
0100
0001
1000
0010
1000
0001
,
0100
0000
0010
0000
1000
0000
0001
0000
0100
0010
1000
0001
0100
0001
1000
0100
,
1000
0000
0001
0000
0100
0000
0001
0000
1000
0100
0010
0001
1000
0100
0010
0001
,
1000
0100
1000
0001
0200
0000
0000
0000
,
0301
0000
1000
0000
0010
0000
1000
0000
0001
0100
0010
1000
0001
0100
0001
1000
,
0010
0000
0100
0000
0001
0000
1000
0000
0001
0010
0001
1000
0001
1000
0010
0100
,
0001
0000
1000
0000
0010
0000
1000
0000
0001
0010
0100
1000
0001
0010
0100
1000
,
0001
0000
0010
0000
0100
0000
0010
0000
0001
0010
0001
1000
0100
0010
0001
0010
,
0100
0000
1000
0000
0001
0000
0100
0000
0001
1000
0010
1000
0001
0100
0010
1000
,
0001
0000
0100
0000
0010
0000
1000
0000
0001
0100
0001
1000
0010
1000
0001
0100
,
0010
0000
1000
0000
0001
0000
0010
0000
0100
1000
0001
0010
0100
1000
0100
0010
,
0001
0000
1000
0000
0100
0000
0010
0000
0001
1000
0100
0010
0001
1000
0100
1000
,
0002
0000
0000
0003
;

//---------------dance-single - ----------------
#NOTES:
     dance-single:
     :
     Challenge:
     18:
     1.000,1.000,0.000,0.084,1.000,460.000,0.000,4.000,0.000,0.000:
1000
0010
0100
0001
0010
0000
0000
0000
0100
0000
0000
0000
1000
0000
0000
0000
0001
0000
0000
0000
1000
0000
0100
0000
0010
0000
0000
0000
0001
0000
0000
0000
,
1000
0100
0010
0001
0100
0000
0000
0000
0010
0000
0000
0000
1000
0000
0000
0000
0001
0000
0000
0000
0010
0000
0001
0000
0100
0000
0000
0000
0010
0000
0000
0000
,
1000
0000
0100
0010
0001
0000
0100
0000
0010
1000
0100
0000
0010
0000
0001
1000
,
0100
0000
0010
0001
1000
0000
0010
0000
0100
0000
0001
0000
0010
0000
0100
0000
,
1000
0100
0010
0001
0100
0010
1000
0100
0010
0001
0000
0000
,
1000
0100
0010
0001
0100
0010
1000
0100
0010
0001
0000
0000
,
1000
0100
0010
0001
0100
0010
1000
0100
0010
0001
0000
0000
,
1000
0100
0010
0001
0100
0010
2000
0000
0000
3002
0000
0000
,
1003
0000
0010
0000
0100
0000
0001
0000
1000
0100
0010
0001
0100
0010
0100
0001
,
1000
0000
0001
0000
0100
0000
0001
0000
1000
0010
0100
0001
0010
0100
1000
0001
,
0100
0000
0010
0000
0100
0000
0001
0000
1000
0100
0010
0001
0100
0010
1000
0100
,
0010
0000
0001
0000
0010
0000
0100
0000
1000
0100
0010
0001
0010
0100
1000
0010
,
0100
0000
0001
0000
0100
0000
0010
0000
1000
0100
0010
0001
0100
0010
1000
0001
,
0100
0000
0010
0000
1000
0000
0001
0000
0100
0010
1000
0100
0010
0001
0100
0010
,
1000
0000
0001
0000
0100
0000
0001
0000
1000
0010
1000
0100
1000
0001
0100
0010
,
1000
0000
0001
0000
0010
0000
0100
0000
0010
0001
1000
0100
0010
0001
0100
0010
,
1000
0000
0010
0000
0100
0000
0001
0000
1000
0100
1000
0010
0100
0001
0010
0100
,
1000
0000
0001
0000
0100
0000
0010
0000
0100
0001
0010
0100
1000
0001
0100
0010
,
1000
0000
0001
0000
0100
0000
0001
0000
1000
0100
0010
0001
0100
0010
1000
0001
,
0100
0000
0010
0000
1000
0000
0001
0000
0010
0100
1000
0010
0100
0001
1000
0100
,
0010
0000
0001
0000
1000
0000
0010
0000
0100
0001
0010
0100
1000
0001
0100
0001
,
1000
0000
0010
0000
0100
0000
0001
0000
1000
0010
0100
0001
0010
0001
0100
0010
,
1000
0000
0001
0000
0100
0000
0010
0000
1000
0100
1000
0010
0100
0001
0010
0001
,
1000
0000
0001
0000
0100
0000
0010
0000
1000
0001
0010
0100
1000
0010
0100
0001
,
1000
0000
0010
0000
0100
0000
0001
0000
1000
0100
0010
0001
0100
0010
1000
0100
,
0010
0000
0001
0000
1000
0000
0010
0000
0100
0001
1000
0100
0010
0001
0100
0010
,
1000
0000
0001
0000
0100
0000
0010
0000
1000
0100
0010
0001
0100
0010
1000
0100
,
1000
0000
0001
0000
0100
0000
0010
0000
1000
0001
0010
0100
1000
0010
0100
0001
,
1000
0000
0100
0000
0010
0000
0001
0000
1000
0100
0010
0001
1000
0010
0100
0001
,
0010
0000
0100
0000
1000
0000
0001
0000
0100
0010
1000
0100
0010
0001
0100
0010
,
1000
0000
0001
0000
0100
0000
0001
0000
1000
0100
0010
0001
0100
0010
1000
0001
,
0010
0100
1000
0001
0200
0000
0000
0000
,
0301
0000
1000
0000
0100
0000
0010
0000
0001
1000
0100
0010
0001
0100
0010
1000
,
0100
0000
0010
0000
0001
0000
1000
0000
0010
0100
0001
0010
0100
0010
0001
1000
,
0100
0000
0010
0000
0100
0000
1000
0000
0001
0100
0010
1000
0100
0010
0100
1000
,
0001
0000
0100
0000
0010
0000
1000
0000
0001
0100
0010
1000
0100
0010
0001
1000
,
0010
0000
0100
0000
0001
0000
1000
0000
0100
0010
0001
1000
0010
1000
0100
0010
,
0001
0000
1000
0000
0010
0000
0100
0000
0001
0010
0100
1000
0001
0100
0010
1000
,
0100
0000
0010
0000
0001
0000
1000
0000
0010
0100
0001
0010
0100
1000
0100
0010
,
0001
0000
0100
0000
0010
0000
1000
0000
0100
0010
0001
0100
0010
1000
0100
0010
,
0002
0000
0000
0003
;
