#TITLE:N-R-G;
#SUBTITLE:;
#ARTIST:Trance Techno;
#TITLETRANSLIT:;
#SUBTITLETRANSLIT:;
#ARTISTTRANSLIT:;
#CREDIT:owenviau1;
#BANNER:../owenviau1 Simfiles 5-bn.png;
#BACKGROUND:../owenviau1 Simfiles 5-bg.png;
#LYRICSPATH:;
#CDTITLE:../ov1_title.png;
#MUSIC:Trance Techno - N-R-G.mp3;
#OFFSET:-2.820;
#SAMPLESTART:271.320;
#SAMPLELENGTH:29.999;
#SELECTABLE:YES;
#DISPLAYBPM:143.000;
#BPMS:0.000=143.012,1.000=142.996,2.000=143.012,3.000=142.996,4.000=143.012,5.000=142.996,6.000=143.012,7.000=142.996,8.000=143.012,9.000=142.996,10.000=143.012,11.000=142.996,12.000=143.012,13.000=142.996,14.000=143.012,15.000=142.996,16.000=143.012,17.000=142.996,18.000=143.012,19.000=142.996,20.000=143.012,21.000=142.996,22.000=143.004,23.000=142.996,24.000=143.004,25.000=142.996,26.000=143.004,27.000=142.996,28.000=143.004,29.000=142.996,30.000=143.004,31.000=142.996,32.000=143.004,33.000=142.996,34.000=143.004,35.000=142.996,36.000=143.004,37.000=142.996,38.000=143.004,39.000=142.996,40.000=143.004,41.000=142.996,42.000=143.004,43.000=142.996,44.000=143.004,45.000=142.996,46.000=143.004,47.000=142.996,48.000=143.004,49.000=142.996,50.000=143.004,51.000=142.996,52.000=143.004,53.000=142.996,54.000=143.004,55.000=142.996,56.000=143.004,57.000=142.996,58.000=143.004,59.000=142.996,60.000=143.004,61.000=142.996,62.000=143.004,63.000=142.996,64.000=143.004,65.000=142.996,66.000=143.004,67.000=142.996,68.000=143.004,69.000=142.996,70.000=143.004,71.000=142.996,72.000=143.004,73.000=142.996,74.000=143.004,75.000=142.996,76.000=143.004,77.000=142.996,78.000=143.004,79.000=142.996,80.000=143.004,81.000=142.996,82.000=143.004,83.000=142.996,84.000=143.004,85.000=142.996,86.000=143.004,87.000=142.996,88.000=143.004,89.000=142.996,90.000=143.004,91.000=142.996,92.000=143.004,93.000=142.996,94.000=143.004,95.000=142.996,96.000=143.004,97.000=142.996,98.000=143.004,99.000=142.996,100.000=143.004,101.000=142.996,102.000=143.004,103.000=142.996,104.000=143.004,105.000=142.996,106.000=143.004,107.000=142.996,108.000=143.004,109.000=142.996,110.000=143.004,111.000=142.996,112.000=143.004,113.000=142.996,114.000=143.004,115.000=142.996,116.000=143.004,117.000=142.996,118.000=143.004,119.000=142.996,120.000=143.004,121.000=142.996,122.000=143.004,123.000=142.996,124.000=143.004,125.000=142.996,126.000=143.004,127.000=142.996,128.000=143.004,129.000=142.996,130.000=143.004,131.000=142.996,132.000=143.004,133.000=142.996,134.000=143.004,135.000=142.996,136.000=143.004,137.000=142.996,138.000=143.004,139.000=142.996,140.000=143.004,141.000=142.996,142.000=143.004,143.000=142.996,144.000=143.004,145.000=142.996,146.000=143.004,147.000=142.996,148.000=143.004,149.000=142.996,150.000=143.004,151.000=142.996,152.000=143.004,153.000=142.996,154.000=143.004,155.000=142.996,156.000=143.004,157.000=142.996,158.000=143.004,159.000=142.996,160.000=143.004,161.000=142.996,162.000=143.004,163.000=142.996,164.000=143.004,165.000=142.996,166.000=143.004,167.000=142.996,168.000=143.004,169.000=142.996,170.000=143.004,171.000=142.996,172.000=143.004,173.000=142.996,174.000=143.004,175.000=142.996,176.000=143.004,177.000=142.996,178.000=143.004,179.000=142.996,180.000=143.004,181.000=142.996,182.000=143.004,183.000=142.996,184.000=143.004,185.000=142.996,186.000=143.004,187.000=142.996,188.000=143.004,189.000=142.996,190.000=143.004,191.000=142.996,192.000=143.004,193.000=142.996,194.000=143.004,195.000=142.996,196.000=143.004,197.000=142.996,198.000=143.004,199.000=142.996,200.000=143.004,201.000=142.996,202.000=143.004,203.000=142.996,204.000=143.004,205.000=142.996,206.000=143.004,207.000=142.996,208.000=143.004,209.000=142.996,210.000=143.004,211.000=142.996,212.000=143.004,213.000=142.996,214.000=143.004,215.000=142.996,216.000=143.004,217.000=142.996,218.000=143.004,219.000=142.996,220.000=143.004,221.000=142.996,222.000=143.004,223.000=142.996,224.000=143.004,225.000=142.996,226.000=143.004,227.000=142.996,228.000=143.004,229.000=142.996,230.000=143.004,231.000=142.996,232.000=143.004,233.000=142.996,234.000=143.004,235.000=142.996,236.000=143.004,237.000=142.996,238.000=143.004,239.000=142.996,240.000=143.004,241.000=142.996,242.000=143.004,243.000=142.996,244.000=143.004,245.000=142.996,246.000=143.004,247.000=142.996,248.000=143.004,249.000=142.996,250.000=143.004,251.000=142.996,252.000=143.004,253.000=142.996,254.000=143.004,255.000=142.996,256.000=143.004,257.000=142.996,258.000=143.004,259.000=142.996,260.000=143.004,261.000=142.996,262.000=143.004,263.000=142.996,264.000=143.004,265.000=142.996,266.000=143.004,267.000=142.996,268.000=143.004,269.000=142.996,270.000=143.004,271.000=142.996,272.000=143.004,273.000=142.996,274.000=143.004,275.000=142.996,276.000=143.004,277.000=142.996,278.000=143.004,279.000=142.996,280.000=143.004,281.000=142.996,282.000=143.004,283.000=142.996,284.000=143.004,285.000=142.996,286.000=143.004,287.000=142.996,288.000=143.004,289.000=142.996,290.000=143.004,291.000=142.996,292.000=143.004,293.000=142.996,294.000=143.004,295.000=142.996,296.000=143.004,297.000=142.996,298.000=143.004,299.000=142.996,300.000=143.004,301.000=142.996,302.000=143.004,303.000=142.996,304.000=143.004,305.000=142.996,306.000=143.004,307.000=142.996,308.000=143.004,309.000=142.996,310.000=143.004,311.000=142.996,312.000=143.004,313.000=142.996,314.000=143.004,315.000=142.996,316.000=143.004,317.000=142.996,318.000=143.004,319.000=142.996,320.000=143.004,321.000=142.996,322.000=143.004,323.000=142.996,324.000=143.004,325.000=142.996,326.000=143.004,327.000=142.996,328.000=143.004,329.000=142.996,330.000=143.004,331.000=142.996,332.000=143.004,333.000=142.996,334.000=143.004,335.000=142.996,336.000=143.004,337.000=142.996,338.000=143.004,339.000=142.996,340.000=143.004,341.000=142.996,342.000=143.004,343.000=142.996,344.000=143.004,345.000=142.996,346.000=143.004,347.000=142.996,348.000=143.004,349.000=142.996,350.000=143.004,351.000=142.996,352.000=143.004,353.000=142.996,354.000=143.004,355.000=142.996,356.000=143.004,357.000=142.996,358.000=143.004,359.000=142.996,360.000=143.004,361.000=142.996,362.000=143.004,363.000=142.996,364.000=143.004,365.000=142.996,366.000=143.004,367.000=142.996,368.000=143.004,369.000=142.996,370.000=143.004,371.000=142.996,372.000=143.004,373.000=142.996,374.000=143.004,375.000=142.996,376.000=143.004,377.000=142.996,378.000=143.004,379.000=142.996,380.000=143.004,381.000=142.996,382.000=143.004,383.000=142.996,384.000=143.004,385.000=142.996,386.000=143.004,387.000=142.996,388.000=143.004,389.000=142.996,390.000=143.004,391.000=142.996,392.000=143.004,393.000=142.996,394.000=143.004,395.000=142.996,396.000=143.004,397.000=142.996,398.000=143.004,399.000=142.996,400.000=143.004,401.000=142.996,402.000=143.004,403.000=142.996,404.000=143.004,405.000=142.996,406.000=143.004,407.000=142.996,408.000=143.004,409.000=142.996,410.000=143.004,411.000=142.996,412.000=143.004,413.000=142.996,414.000=143.004,415.000=142.996,416.000=143.004,417.000=142.996,418.000=143.004,419.000=142.996,420.000=143.004,421.000=142.996,422.000=143.004,423.000=142.996,424.000=143.004,425.000=142.996,426.000=143.004,427.000=142.996,428.000=143.004,429.000=142.996,430.000=143.004,431.000=142.996,432.000=143.004,433.000=142.996,434.000=143.004,435.000=142.996,436.000=143.004,437.000=142.996,438.000=143.004,439.000=142.996,440.000=143.004,441.000=142.996,442.000=143.004,443.000=142.996,444.000=143.004,445.000=142.996,446.000=143.004,470.000=143.012,471.000=143.004,515.000=143.012,516.000=142.996,517.000=143.012,518.000=142.996,519.000=143.012,520.000=143.004,560.000=143.012,561.000=142.996,562.000=143.012,563.000=142.996,564.000=143.012,565.000=142.996,566.000=143.012,567.000=142.996,568.000=143.012,569.000=142.996,570.000=143.012,571.000=143.004,607.000=143.012,608.000=142.996,609.000=143.012,610.000=142.996,611.000=143.012,612.000=142.996,613.000=143.012,614.000=142.996,615.000=143.012,616.000=142.996,617.000=143.012,618.000=142.996,619.000=143.012,620.000=143.004,656.000=143.012,657.000=142.996,658.000=143.012,659.000=142.996,660.000=143.012,661.000=142.996,662.000=143.012,663.000=142.996,664.000=143.012,665.000=142.996,666.000=143.012,667.000=143.004,697.000=143.012,698.000=142.996,699.000=143.012,700.000=142.996,701.000=143.012,702.000=142.996,703.000=143.012,704.000=142.996,705.000=143.012,706.000=142.996,707.000=143.012,708.000=142.996,709.000=143.012,710.000=142.996,711.000=143.012,712.000=142.996,713.000=143.012,714.000=142.996,715.000=143.012,716.000=142.996,717.000=143.012,718.000=142.996,719.000=143.012,720.000=142.996,721.000=143.012,722.000=143.004,746.000=143.012,747.000=142.996,748.000=143.012,749.000=142.996,750.000=143.012,751.000=142.996,752.000=143.012,753.000=142.996,754.000=143.012,755.000=142.996,756.000=143.012,757.000=142.996,758.000=143.012,759.000=142.996,760.000=143.012,761.000=142.996,762.000=143.012,763.000=142.996,764.000=143.012,765.000=142.996,766.000=143.012,767.000=142.996,768.000=143.012,769.000=143.004,793.000=143.012,794.000=142.996,795.000=143.012,796.000=142.996,797.000=143.012,798.000=142.996,799.000=143.012,800.000=142.996,801.000=143.012,802.000=142.996,803.000=143.012,804.000=142.996,805.000=143.012,806.000=142.996,807.000=143.012,808.000=142.996,809.000=143.012,810.000=142.996,811.000=143.012,812.000=142.996,813.000=143.012,814.000=142.996,815.000=143.012,816.000=142.996,817.000=143.012,818.000=143.004,842.000=143.012,843.000=142.996,844.000=143.012,845.000=142.996,846.000=143.012,847.000=142.996,848.000=143.012,849.000=142.996,850.000=143.012,851.000=142.996,852.000=143.012,853.000=142.996,854.000=143.012,855.000=142.996,856.000=143.012,857.000=142.996,858.000=143.012,859.000=142.996,860.000=143.012,861.000=142.996,862.000=143.012,863.000=142.996,864.000=143.012,865.000=143.004,889.000=143.012,890.000=142.996,891.000=143.012,892.000=142.996,893.000=143.012,894.000=142.996,895.000=143.012,896.000=142.996,897.000=143.012,898.000=142.996;
#STOPS:;
#BGCHANGES:;
// cache tags:
#FIRSTBEAT:0.000;
#LASTBEAT:909.000;
#SONGFILENAME:Songs/owenviau1 Simfiles 5/N-R-G - [owenviau1] v1.5/N-R-G.sm;
#HASMUSIC:1;
#HASBANNER:1;
#MUSICLENGTH:384.447;
// end cache tags

//---------------dance-single - ----------------
#NOTES:
     dance-single:
     :
     Hard:
     9:
     0.712,0.768,0.507,0.013,0.121,1715.000,195.000,5.000,4.000,2.000:
1000
0001
1000
0100
0010
0001
0100
0010
,
1000
0010
0100
0001
0010
0001
1000
0010
,
0100
0001
0010
0100
1000
0010
0100
0001
,
1000
0001
0010
0001
1000
0010
0100
0001
,
0010
0100
1000
0010
0100
0001
1000
0001
,
0010
0001
0100
0010
1000
0001
0010
0100
,
1000
0001
0100
0010
1000
0100
0010
0001
,
0100
0001
0010
0100
1000
0010
0100
0001
,
1001
0100
0010
0001
0100
0001
1000
0100
,
0010
0001
0100
0010
1000
0001
0010
0100
,
1000
0010
0100
0001
0010
0001
1000
0010
,
0100
0001
0010
0100
1000
0010
0100
0001
,
1000
0001
0100
0010
1000
0100
1000
0010
,
0100
0001
1000
0001
0010
0001
1000
0010
,
0100
0001
0010
0100
1000
0010
0100
0001
,
1100
0000
0001
1000
0001
0000
1000
0010
1000
0000
0001
0000
1000
0001
1000
0000
,
0101
0001
1000
0100
0010
0001
0100
0001
,
1000
0100
1000
0010
0100
0001
1000
0001
,
0100
0010
0100
0001
1000
0010
0100
0010
,
1000
0100
0010
0001
0100
0010
1000
0100
,
1000
0001
0100
0010
1000
0001
0010
0100
,
1000
0010
0100
0001
1000
0001
0010
0001
,
1000
0010
0100
0001
0010
0100
1000
0010
,
0100
0001
1000
0001
0010
0001
0100
0010
,
1001
0100
0010
1000
0100
1000
0010
1000
,
0100
0010
0001
0100
0001
1000
0001
0100
,
0010
1000
0001
0010
0100
1000
0010
0100
,
0001
1000
0001
0010
0001
0100
0010
1000
,
0100
1000
0001
0100
0010
1000
0100
0010
,
0001
0100
0010
1000
0001
1000
0100
1000
,
0010
0100
0001
1000
0100
0010
0001
0100
,
1000
0000
0001
0100
0001
0000
1000
0010
1000
0000
0001
0000
0100
0010
0100
0000
,
1001
0100
0001
1000
0010
0100
0010
1000
,
0100
0010
0001
1000
0010
0100
0001
1000
,
0010
0100
0001
1000
0001
0010
0100
1000
,
0010
0100
0001
0010
0001
1000
0010
0100
,
0001
1000
0010
0100
0001
0010
0100
1000
,
0010
1000
0001
0010
0100
1000
0010
0100
,
0001
1000
0001
0010
0100
1000
0100
0010
,
0001
0010
1000
0010
0100
0001
1000
0010
,
0101
0100
1000
0010
0100
0001
0010
0100
,
1000
0010
0100
0001
0010
0001
0100
0010
,
1000
0100
1000
0010
0100
0001
0010
0100
,
1000
0010
1000
0001
0010
0100
1000
0010
,
1000
0001
0010
0001
0100
0010
1000
0100
,
0010
0001
0100
0010
1000
0001
1000
0100
,
1000
0010
0100
0001
1000
0010
0100
0001
,
1100
0000
0000
0000
0100
0000
0110
0000
0000
0011
0000
0000
1001
0000
0000
0000
,
1100
0010
0001
1000
0010
0100
0010
1000
,
0100
0010
0001
1000
0010
0100
0001
1000
,
0010
0100
0001
1000
0001
0010
0100
1000
,
0010
0100
0001
0010
0001
1000
0010
0100
,
0001
1000
0010
0100
0001
0010
0100
1000
,
0010
1000
0001
0010
0100
1000
0010
0100
,
0001
1000
0001
0010
0100
1000
0100
0010
,
0001
0010
1000
0010
0100
0001
1000
0010
,
0101
0100
1000
0010
0100
0001
0010
0100
,
1000
0010
0100
0001
0010
0001
0100
0010
,
1000
0100
1000
0010
0100
0001
0010
0100
,
1000
0010
1000
0001
0010
0100
1000
0010
,
1000
0001
0010
0001
0100
0010
1000
0100
,
0010
0001
0100
0010
1000
0001
1000
0100
,
1000
0010
0100
0001
1000
0010
0100
0001
,
1100
0010
0001
1000
0001
0100
0001
0010
,
2001
0000
3000
0101
0000
0000
1001
0000
0000
1010
0000
0000
0001
0000
1000
0000
,
1010
0000
0000
0101
0000
0000
1001
0000
0000
1010
0000
0000
0001
0000
0010
0000
,
1100
0000
0000
0011
0000
0000
1001
0000
0000
1000
0000
0000
0100
0000
0010
0000
,
1001
0000
0000
1010
0000
0000
0110
0000
0000
0001
0000
0000
0100
0000
1000
0000
,
0110
0000
0000
1100
0000
0000
0101
0000
0000
1000
0000
0000
0010
0000
0100
0000
,
0011
0000
0000
1010
0000
0000
0011
0000
0000
1000
0000
0000
0010
0000
1000
0000
,
0101
0000
0000
0110
0000
0000
1010
0000
0000
0001
0000
0000
0010
0000
0100
0000
,
1100
0000
0000
0110
0000
0000
0011
0000
0000
1000
0000
0000
0010
0000
0100
0000
,
1MM1
0000
0000
0101
0000
0000
1010
0000
0000
1001
0000
0000
0110
0000
1001
0000
,
1010
0000
0000
0110
0000
0000
0101
0000
0000
1001
0000
0000
1010
0000
0101
0000
,
0011
0000
0000
1100
0000
0000
0110
0000
0000
1001
0000
0000
0110
0000
1010
0000
,
1100
0000
0000
0101
0000
0000
1001
0000
0000
1010
0000
0000
0101
0000
1001
0000
,
1010
0000
0000
0110
0000
0000
0101
0000
0000
1100
0000
0000
1010
0000
0110
0000
,
0101
0000
0000
1001
0000
0000
1100
0000
0000
0110
0000
0000
0011
0000
0110
0000
,
1001
0010
0100
0001
0010
0100
1000
0010
,
1000
0001
0010
0100
1000
0010
0100
0001
,
1001
0010
1000
0001
0010
0100
1000
0010
,
0100
0001
0100
0010
1000
0100
0010
0001
,
0100
0010
1000
0001
1000
0100
1000
0010
,
0100
0001
0010
0001
1000
0010
0100
0001
,
1000
0001
0100
0001
0010
0100
1000
0010
,
1000
0001
0100
0010
1000
0100
0010
0001
,
0100
0010
1000
0100
1000
0010
0100
0001
,
1000
0001
0010
0001
1000
0010
0100
0001
,
1001
0100
1000
0010
0100
0001
1000
0001
,
1100
0010
0100
1000
0010
0100
0001
1000
,
0101
0010
0100
0001
0010
0001
1000
0010
,
0110
1000
0010
0100
0001
0010
0100
1000
,
0011
0001
0100
0001
1100
0010
0100
0001
,
1010
0100
0010
1000
0101
0001
0100
0010
,
1001
0000
0100
0000
0001
1000
0010
0100
0001
0000
1000
0000
0001
0100
0010
1000
,
0001
0000
2000
0000
,
3101
0010
0001
1000
0010
0100
0010
1000
,
0100
0010
0001
1000
0010
0100
0001
1000
,
0010
0100
0001
1000
0001
0010
0100
1000
,
0010
0100
0001
0010
0001
1000
0010
0100
,
0001
1000
0010
0100
0001
0010
0100
1000
,
0010
1000
0001
0010
0100
1000
0010
0100
,
0001
1000
0001
0010
0100
1000
0100
0010
,
0001
0010
1000
0010
0100
0001
1000
0010
,
1001
0001
1000
0010
0100
0001
0010
0100
,
1000
0010
0100
0001
0010
0001
0100
0010
,
1000
0100
1000
0010
0100
0001
0010
0100
,
1000
0010
1000
0001
0010
0100
1000
0010
,
1000
0001
0010
0001
0100
0010
1000
0100
,
0010
0001
0100
0010
1000
0001
1000
0100
,
1000
0010
0100
0001
1000
0010
0100
0001
,
1100
0000
0000
0000
0101
0000
0110
0000
0000
1010
0000
0000
1001
0000
0000
0000
,
0011
0100
0001
1000
0010
0100
0010
1000
,
0100
0010
0001
1000
0010
0100
0001
1000
,
0010
0100
0001
1000
0001
0010
0100
1000
,
0010
0100
0001
0010
0001
1000
0010
0100
,
0001
1000
0010
0100
0001
0010
0100
1000
,
0010
1000
0001
0010
0100
1000
0010
0100
,
0001
1000
0001
0010
0100
1000
0001
0100
,
0001
0010
0100
1000
0010
1000
0001
1000
,
1100
0001
1000
0010
0100
0001
0010
0100
,
1000
0010
0100
0001
0010
0001
0100
0010
,
1000
0100
1000
0010
0100
0001
0010
0100
,
1000
0010
1000
0001
0010
0100
1000
0010
,
1000
0001
0010
0001
0100
0010
1000
0100
,
0010
0001
0100
0010
1000
0001
1000
0100
,
1000
0010
0100
0001
1000
0010
0100
0001
,
1100
0010
0001
1000
0001
0100
0001
0010
,
2001
0000
3000
0101
0000
0000
1001
0000
0000
1010
0000
0000
0001
0000
1000
0000
,
1010
0000
0000
0101
0000
0000
1001
0000
0000
1010
0000
0000
0001
0000
0010
0000
,
1100
0000
0000
0011
0000
0000
1001
0000
0000
1000
0000
0000
0100
0000
0010
0000
,
1001
0000
0000
1010
0000
0000
0110
0000
0000
0001
0000
0000
0100
0000
1000
0000
,
0110
0000
0000
1100
0000
0000
0101
0000
0000
1000
0000
0000
0010
0000
0100
0000
,
0011
0000
0000
1010
0000
0000
0011
0000
0000
1000
0000
0000
0010
0000
1000
0000
,
0101
0000
0000
0110
0000
0000
1010
0000
0000
0001
0000
0000
0010
0000
0100
0000
,
1100
0000
0000
0110
0000
0000
0011
0000
0000
1000
0000
0000
0010
0000
0100
0000
,
1MM1
0000
0000
0101
0000
0000
1010
0000
0000
1001
0000
0000
0110
0000
1001
0000
,
1010
0000
0000
0110
0000
0000
0101
0000
0000
1001
0000
0000
1010
0000
0101
0000
,
0011
0000
0000
1100
0000
0000
0110
0000
0000
1001
0000
0000
0110
0000
1010
0000
,
1100
0000
0000
0101
0000
0000
1001
0000
0000
1010
0000
0000
0101
0000
1001
0000
,
1010
0000
0000
0110
0000
0000
0101
0000
0000
1100
0000
0000
1010
0000
0110
0000
,
0101
0000
0000
1001
0000
0000
1100
0000
0000
0110
0000
0000
0011
0000
0110
0000
,
1001
0010
0100
0001
0010
0100
1000
0010
,
1000
0001
0010
0100
1000
0010
0100
0001
,
1001
0000
0000
1100
0000
0000
0110
0000
0000
0101
0000
0000
1000
0000
0010
0000
,
0110
0000
0000
0001
0000
0000
0010
0000
0000
0100
0000
0000
1000
0000
0001
0000
,
0101
0000
0000
0110
0000
0000
1010
0000
0000
1001
0000
0000
0010
0000
1000
0000
,
1001
0000
0000
0001
0000
0000
0100
0000
0000
0010
0000
0000
0100
0000
0001
0000
,
1001
0000
0000
1100
0000
0000
0011
0000
0000
0110
0000
0000
1000
0000
0001
0000
,
0101
0000
0000
1000
0000
0000
0100
0000
0000
0001
0000
0000
0100
0000
0010
0000
,
1001
0000
0000
1100
0000
0000
0110
0000
0000
0101
0000
0000
1000
0000
0010
0000
,
0110
0000
0000
0001
0000
0000
0010
0000
0000
0100
0000
0000
1000
0000
0001
0000
,
0101
0100
1000
0010
0100
0001
1000
0001
,
0010
0001
0100
0010
1000
0100
1000
0001
,
0100
0010
1000
0100
0010
0001
0100
0001
,
1000
0010
0100
0001
0010
0100
1000
0010
,
0100
0001
0010
0001
1000
0100
1000
0010
,
0100
0001
1000
0001
0010
0001
0100
0010
,
1000
0000
0001
0000
0010
0100
1000
0001
0100
0000
0010
0000
1000
0100
0010
0001
,
1000
0000
0020
0000
,
1031
1000
0001
1000
0010
0100
0010
1000
,
0100
0010
0001
1000
0010
0100
0001
1000
,
0010
0100
0001
1000
0001
0010
0100
1000
,
0010
0100
0001
0010
0001
1000
0010
0100
,
0001
1000
0010
0100
0001
0010
0100
1000
,
0010
1000
0001
0010
0100
1000
0010
0100
,
0001
1000
0001
0010
0100
1000
0100
0010
,
0001
0010
0100
1000
0010
0100
0001
0010
,
1001
0001
1000
0010
0100
0001
0010
0100
,
1000
0010
0100
0001
0010
0001
0100
0010
,
1000
0100
1000
0010
0100
0001
0010
0100
,
1000
0010
1000
0001
0010
0100
1000
0010
,
1000
0001
0010
0001
0100
0010
1000
0100
,
0010
0001
0100
0010
1000
0001
1000
0100
,
1000
0010
0100
0001
1000
0010
0100
0001
,
1000
0000
0000
0000
0010
0100
0001
1000
,
0110
0001
0010
0100
1000
0001
0010
1000
,
0100
0010
0001
1000
0010
0100
0001
1000
,
0010
0100
0001
1000
0001
0010
0100
1000
,
0010
0100
0001
0010
0001
1000
0010
0100
,
0001
1000
0010
0100
0001
0010
0100
1000
,
0010
1000
0001
0010
0100
1000
0010
0100
,
0001
1000
0001
0010
0100
1000
0100
0001
,
1000
0001
1000
0010
0100
0001
1000
0010
,
1001
0001
1000
0010
0100
0001
0010
0100
,
1000
0010
0100
0001
0010
0001
0100
0010
,
1000
0100
1000
0010
0100
0001
0010
0100
,
1000
0010
1000
0001
0010
0100
1000
0010
,
1000
0001
0010
0001
0100
0010
1000
0100
,
0010
0001
0100
0010
1000
0001
1000
0100
,
1000
0010
0100
0001
1000
0010
0100
0001
,
0011
0000
0000
1100
0000
0000
0110
0000
0000
0101
0000
0000
1000
0000
0001
0000
,
0011
0100
0001
1000
0010
0100
0010
1000
,
0100
0010
0001
1000
0010
0100
0001
1000
,
0010
0100
0001
1000
0001
0010
0100
1000
,
0010
0100
0001
0010
0001
1000
0010
0100
,
0001
1000
0010
0100
0001
0010
0100
1000
,
0010
1000
0001
0010
0100
1000
0010
0100
,
0001
1000
0001
0010
0100
1000
0001
0100
,
0001
0010
0100
1000
0010
1000
0001
1000
,
1100
0001
1000
0010
0100
0001
0010
0100
,
1000
0010
0100
0001
0010
0001
0100
0010
,
1000
0100
1000
0010
0100
0001
0010
0100
,
1000
0010
1000
0001
0010
0100
1000
0010
,
1000
0001
0010
0001
0100
0010
1000
0100
,
0010
0001
0100
0010
1000
0001
1000
0100
,
1000
0010
0100
0001
1000
0010
0100
0001
,
1100
0010
0001
1000
0001
0100
0001
0010
,
1001
0001
1000
0100
0010
0001
0100
0010
,
1000
0010
0100
0001
0010
0001
1000
0010
,
0100
0001
0010
0100
1000
0010
0100
0001
,
1000
0001
0010
0001
1000
0010
0100
0001
,
0010
0100
1000
0010
0100
0001
1000
0001
,
0010
0001
0100
0010
1000
0001
0010
0100
,
1000
0001
0100
0010
1000
0100
0010
0001
,
0100
0001
0010
0100
1000
0010
0100
0001
,
1001
0100
0010
0001
0100
0001
1000
0100
,
0010
0001
0100
0010
1000
0001
0010
0100
,
1000
0010
0100
0001
0010
0001
1000
0010
,
0100
0001
0010
0100
1000
0010
0100
0001
,
1000
0001
0100
0010
1000
0100
1000
0010
,
0100
0001
1000
0001
0010
0001
1000
0010
,
0100
0001
0010
0100
1000
0010
0100
0001
,
1100
0000
0001
1000
0001
0000
1000
0010
1000
0000
0001
0000
1000
0001
1000
0000
,
2001
0000
0000
0000
,
0000
0000
0000
0000
,
0000
0000
0000
0000
,
0000
3000
0000
0000
;

//---------------dance-single - ----------------
#NOTES:
     dance-single:
     :
     Challenge:
     13:
     1.000,1.000,1.000,0.018,1.000,2812.000,390.000,7.000,37.000,2.000:
1010
0001
0101
0010
1001
0100
1010
0001
,
0110
1000
0011
1000
0110
0001
1100
0010
,
1010
0001
0110
1000
1001
0010
0101
1000
,
0110
0001
1100
0001
0110
1000
0101
0010
,
1001
0100
1010
0100
1001
0010
0101
1000
,
0110
0001
1100
0001
1010
0100
1001
1000
,
0101
0010
1100
0010
0011
1000
1100
0001
,
0110
0001
1001
0010
0101
1000
0011
1000
,
1100
0001
1010
0001
0110
1000
1001
0010
,
0101
0010
1001
0100
1010
0001
0110
1000
,
0011
1000
1100
0010
0101
1000
0110
0001
,
1010
0100
0011
0100
1100
0010
0101
1000
,
0110
1000
1001
0100
1010
0001
0110
1000
,
0011
0100
1001
0100
1010
0001
0110
1000
,
0101
0010
1001
0100
1010
0001
1100
0010
,
1001
0000
1000
0010
0100
0000
0001
0010
0100
0000
1001
0000
0100
0001
1000
0000
,
0101
0001
1000
0010
0100
0001
1000
0001
0010
0001
0100
0010
1000
0100
1000
0001
,
0010
0100
1000
0010
1000
0001
0100
0010
0100
0001
0010
0100
1000
0010
0100
0001
,
0010
0100
1000
0010
0100
0001
1000
0010
0100
0001
0010
0001
0100
0010
1000
0001
,
0010
0100
1000
0010
1000
0001
0010
0001
0100
0010
1000
0001
0100
0001
0010
0100
,
1000
0001
0010
0100
1000
0010
0100
0001
1000
0001
0100
0010
0100
0001
0010
0100
,
1000
0100
0010
0001
0100
0010
1000
0010
0100
0001
1000
0100
0010
0001
0010
0100
,
1000
0010
0100
0001
0100
0010
1000
0001
0100
0001
0010
0100
1000
0001
0100
0010
,
1000
0001
0100
0010
0100
0001
0010
0100
1000
0010
0100
0001
1000
0000
0010
0001
,
1M01
1000
0100
0010
0001
1000
0010
0100
0001
1000
0100
1000
0010
0100
0010
1000
,
0001
0100
0010
0100
0001
1000
0001
0100
0001
1000
0010
0100
0001
1000
0100
0010
,
0001
0100
0010
1000
0100
0010
0001
1000
0010
1000
0001
0100
0001
1000
0001
0100
,
0010
1000
0100
0010
0001
1000
0100
1000
0010
0100
0001
0010
0001
0100
0001
1000
,
0010
0100
0001
0010
0001
0100
0001
1000
0010
1000
0001
0100
0010
1000
0100
0010
,
0001
0100
0010
1000
0100
0010
0001
0100
0001
0010
0100
1000
0010
1000
0100
0010
,
0001
0100
0010
1000
0001
0100
0010
1000
0100
0010
0001
0010
0100
1000
0001
1000
,
1010
0000
0100
0001
1000
0000
0010
1000
0001
0000
0010
1000
0001
0000
1000
0010
,
1001
0001
1000
0010
0100
0001
1000
0010
1000
0001
0100
0010
0100
0001
0010
0100
,
1000
0010
0100
0001
0010
0001
1000
0010
0100
0001
1000
0010
0100
0010
1000
0100
,
0010
0001
1000
0001
0100
0010
0100
0001
0010
0100
1000
0010
0100
0001
1000
0001
,
0010
0001
0100
0010
1000
0100
1000
0001
0010
0100
1000
0010
0100
0001
1000
0100
,
0010
0001
1000
0001
0100
0010
0100
0001
1000
0010
0100
0010
1000
0001
0100
0001
,
1000
0100
0010
0001
1000
0010
0100
0001
0010
0100
1000
0010
1000
0001
1000
0001
,
0100
0010
1000
0010
0100
0001
0100
0010
1000
0001
0100
0010
0100
0001
0010
0100
,
1000
0010
1000
0001
0100
0010
1000
0001
1000
0100
0010
0000
0001
0000
1000
0001
,
1001
1000
0001
0100
0010
0100
0001
1000
0010
0100
0010
1000
0001
0100
0001
1000
,
0010
1000
0100
0010
0001
1000
0010
0100
0001
1000
0001
0010
0100
1000
0001
1000
,
0010
0100
0001
1000
0100
0010
0001
0010
0100
1000
0001
0100
0001
1000
0010
1000
,
0001
0100
0010
0100
0001
1000
0010
0100
0010
1000
0010
0100
0001
1000
0010
0100
,
0001
1000
0001
0010
0001
0100
0010
1000
0001
1000
0010
0100
0001
0010
0001
0100
,
0010
1000
0001
0100
0001
1000
0010
0100
0001
0010
0100
1000
0010
0100
0001
1000
,
0001
0100
0010
1000
0010
0100
0001
1000
0001
0010
0001
0100
0010
1000
0001
1000
,
1010
0000
0M00
0000
1001
0000
1100
0000
0000
0001
0101
0000
0110
0000
2000
0000
,
3100
0001
0010
0100
1000
0001
0100
0010
1000
0010
0100
0001
0010
0100
1000
0010
,
0100
0001
0100
0010
1000
0001
0010
0100
1000
0001
0100
0001
1000
0010
1000
0001
,
0010
0100
1000
0001
0100
0001
1000
0010
0100
0001
0010
0100
1000
0010
0100
0001
,
0010
0100
1000
0001
0100
0010
1000
0010
0100
0001
0010
0100
1000
0001
0010
0100
,
1000
0100
0010
0001
0100
0001
0010
0100
1000
0001
0100
0010
0100
0001
1000
0010
,
0100
0010
1000
0001
1000
0010
0100
0010
1000
0100
0010
0001
0100
0001
1000
0010
,
1000
0100
0010
0001
0100
0001
1000
0010
0100
0001
0010
0100
1000
0010
0100
0001
,
1000
0001
0100
0010
0100
0001
1000
0010
1000
0001
0100
0001
1000
0000
0010
0100
,
1001
1000
0001
0100
0001
0010
0100
1000
0010
1000
0001
0100
0010
1000
0001
0100
,
0001
1000
0100
0010
0001
0010
0100
1000
0010
0100
0001
1000
0010
1000
0001
1000
,
0010
0100
0010
1000
0001
0100
0010
0100
0001
1000
0010
1000
0100
1000
0010
0100
,
0001
1000
0001
0100
0001
0010
0100
1000
0010
1000
0001
0100
0001
1000
0010
0100
,
0001
1000
0001
0100
0010
1000
0100
0010
0001
1000
0010
0100
0001
1000
0100
0010
,
1001
0010
0100
1000
0001
0100
0001
1000
0010
0100
0001
0010
0100
1000
0100
0010
,
1001
0000
1000
0100
0010
0001
1000
0010
1001
0000
0010
1000
0001
1000
0010
0100
,
1001
0000
1000
0010
0100
0001
0010
0100
1010
0000
0001
1000
0010
0100
0001
1000
,
2001
0000
0000
0101
3000
0000
1001
0000
0000
1010
0000
0000
0001
0000
1000
0000
,
1010
0000
0000
0101
0000
0000
1001
0000
0000
1010
0000
0000
0001
0000
0010
0000
,
1100
0000
0000
0011
0000
0000
1001
0000
0000
1000
0000
0000
0100
0000
0010
0000
,
1001
0000
0000
1010
0000
0000
0110
0000
0000
0001
0000
0000
0100
0000
1000
0000
,
0110
0000
0000
1100
0000
0000
0101
0000
0000
1000
0000
0000
0010
0000
0100
0000
,
0011
0000
0000
1010
0000
0000
0011
0000
0000
1000
0000
0000
0010
0000
1000
0000
,
0101
0000
0000
0110
0000
0000
1010
0000
0000
0001
0000
0000
0010
0000
0100
0000
,
1100
0000
0000
0110
0000
0000
0011
0000
0000
1000
0000
0000
0010
0000
0100
0000
,
1MM1
0000
0000
0101
0000
0000
1010
0000
0000
1001
0000
0000
0110
0000
1001
0000
,
1010
0000
0000
0110
0000
0000
0101
0000
0000
1001
0000
0000
1010
0000
0101
0000
,
0011
0000
0000
1100
0000
0000
0110
0000
0000
1001
0000
0000
0110
0000
1010
0000
,
1100
0000
0000
0101
0000
0000
1001
0000
0000
1010
0000
0000
0101
0000
1001
0000
,
1010
0000
0000
0110
0000
0000
0101
0000
0000
1100
0000
0000
1010
0000
0110
0000
,
0101
0000
0000
1001
0000
0000
1100
0000
0000
0110
0000
0000
0011
0000
0110
0000
,
1000
0100
0010
0001
1000
0001
0100
0010
1000
0100
0010
0001
1000
0010
0100
0001
,
0010
0001
1000
0001
0100
0010
1000
0100
0010
0001
0100
0010
1000
0001
0100
0001
,
1010
0000
0000
0101
0000
0000
0110
0000
0000
1001
0000
0000
0101
0000
1001
0000
,
1010
0000
0000
0110
0000
0000
0101
0000
0000
1001
0000
0000
1010
0000
0101
0000
,
0011
0000
0000
1100
0000
0000
0110
0000
0000
1001
0000
0000
0110
0000
1001
0000
,
1100
0000
0000
0101
0000
0000
1001
0000
0000
1010
0000
0000
0101
0000
0110
0000
,
1010
0000
0000
1001
0000
0000
0101
0000
0000
1100
0000
0000
1010
0000
0110
0000
,
0101
0000
0000
1001
0000
0000
1100
0000
0000
0110
0000
0000
0011
0000
0110
0000
,
1001
0000
0000
1010
0000
0000
0101
0000
0000
1100
0000
0000
1010
0000
1001
0000
,
0101
0000
0000
1100
0000
0000
1010
0000
0000
1001
0000
0000
0101
0000
1001
0000
,
1010
0010
1000
0001
0100
0010
1000
0000
0010
0100
1000
0001
0100
0010
1000
0000
,
0001
0000
0000
1000
0000
0000
0100
0000
0000
0010
0000
0000
0001
0000
0000
1000
0000
0000
0010
0000
0000
0000
0000
0000
1000
0000
0000
0001
0000
0000
0010
0000
0000
0100
0000
0000
1000
0000
0001
0000
1000
0000
0001
0000
1000
0000
0001
0000
,
1000
0100
0010
0001
1000
0010
0100
0000
0001
0010
0100
1000
0001
1000
0010
0000
,
1000
0000
0000
0001
0000
0000
0100
0000
0000
0001
0000
0000
1000
0000
0000
0010
0000
0000
0100
0000
0000
0000
0000
0000
0001
0000
0000
0010
0000
0000
0100
0000
0000
1000
0000
0000
0010
0000
0100
0000
0010
0000
0100
0000
0010
0000
0100
0000
,
0010
0000
0000
1000
0000
0000
0001
0000
0000
0100
0000
0000
0001
0000
0000
1000
0000
0000
0100
0000
0000
0010
0000
0000
0001
0000
0000
1000
0000
0000
0010
0000
0000
0100
0000
0000
0001
0000
0010
0000
0001
0000
0010
0000
0001
0000
0010
0000
,
0001
0000
0000
1000
0000
0000
0010
0000
0000
0100
0000
0000
0001
0000
0000
1000
0000
0000
0100
0000
0000
0010
0000
0000
0001
0000
0000
1000
0000
0000
0001
0000
0000
0100
0000
0000
0010
0000
1000
0000
0010
0000
1000
0000
0010
0000
1000
0000
,
0010
0000
0000
1000
0000
0000
0001
0000
0000
0100
0000
0000
0001
0000
1000
0000
0001
0000
1000
0000
0001
0000
1000
0000
0001
0000
0000
0010
0000
0000
0100
0000
0000
1000
0000
0000
0010
0000
0100
0000
0010
0000
0100
0000
0010
0000
0100
0000
,
M01M
0000
0000
0000
0000
0000
0000
M00M
MMMM
0000
0000
0000
0000
0MM0
0000
0000
2000
0000
0000
0000
0000
0000
0000
0000
0000
0000
0000
0000
0000
0000
0000
0000
,
3010
0001
1000
0010
0100
0001
1000
0010
1000
0001
0100
0010
0100
0001
0010
0100
,
1000
0010
0100
0001
0010
0001
1000
0010
0100
0001
1000
0010
0100
0010
1000
0100
,
0010
0001
1000
0001
0100
0010
0100
0001
0010
0100
1000
0010
0100
0001
1000
0001
,
0010
0001
0100
0010
1000
0100
1000
0001
0010
0100
1000
0010
0100
0001
1000
0100
,
0010
0001
1000
0001
0100
0010
0100
0001
1000
0010
0100
0010
1000
0001
0100
0001
,
1000
0100
0010
0001
1000
0010
0100
0001
0010
0100
1000
0010
1000
0001
1000
0001
,
0100
0010
1000
0010
0100
0001
0100
0010
1000
0001
0100
0010
0100
0001
0010
0100
,
1000
0010
1000
0001
0100
0010
1000
0001
1000
0100
0010
0000
0001
0000
1000
0001
,
1001
1000
0001
0100
0010
0100
0001
1000
0010
0100
0010
1000
0001
0100
0001
1000
,
0010
1000
0100
0010
0001
1000
0010
0100
0001
1000
0001
0010
0100
1000
0001
1000
,
0010
0100
0001
1000
0100
0010
0001
0010
0100
1000
0001
0100
0001
1000
0010
1000
,
0001
0100
0010
0100
0001
1000
0010
0100
0010
1000
0010
0100
0001
1000
0010
0100
,
0001
1000
0001
0010
0001
0100
0010
1000
0001
1000
0010
0100
0001
0010
0001
0100
,
0010
1000
0001
0100
0001
1000
0010
0100
0001
0010
0100
1000
0010
0100
0001
1000
,
0001
0100
0010
1000
0010
0100
0001
1000
0001
0010
0001
0100
0010
1000
0001
1000
,
1010
0000
0M00
0000
1001
0000
1100
0000
0000
0001
0101
0000
0110
0000
2000
0000
,
3100
0001
0010
0100
1000
0001
0100
0010
1000
0010
0100
0001
0010
0100
1000
0010
,
0100
0001
0100
0010
1000
0001
0010
0100
1000
0001
0100
0001
1000
0010
1000
0001
,
0010
0100
1000
0001
0100
0001
1000
0010
0100
0001
0010
0100
1000
0010
0100
0001
,
0010
0100
1000
0001
0100
0010
1000
0010
0100
0001
0010
0100
1000
0001
0010
0100
,
1000
0100
0010
0001
0100
0001
0010
0100
1000
0001
0100
0010
0100
0001
1000
0010
,
0100
0010
1000
0001
1000
0010
0100
0010
1000
0100
0010
0001
0100
0001
1000
0010
,
1000
0100
0010
0001
0100
0001
1000
0010
0100
0001
0010
0100
1000
0010
0100
0001
,
1000
0001
0100
0010
0100
0001
1000
0010
1000
0001
0100
0001
1000
0000
0010
0100
,
1001
1000
0001
0100
0001
0010
0100
1000
0010
1000
0001
0100
0010
1000
0001
0100
,
0001
1000
0100
0010
0001
0010
0100
1000
0010
0100
0001
1000
0010
1000
0001
1000
,
0010
0100
0010
1000
0001
0100
0010
0100
0001
1000
0010
1000
0100
1000
0010
0100
,
0001
1000
0001
0100
0001
0010
0100
1000
0010
1000
0001
0100
0001
1000
0010
0100
,
0001
1000
0001
0100
0010
1000
0100
0010
0001
1000
0010
0100
0001
1000
0100
0010
,
1001
0010
0100
1000
0001
0100
0001
1000
0010
0100
0001
0010
0100
1000
0100
0010
,
1001
0000
1000
0100
0010
0001
1000
0010
1001
0000
0010
1000
0001
1000
0010
0100
,
1001
0000
1000
0010
0100
0001
0010
0100
1010
0000
0001
1000
0010
0100
0001
1000
,
2001
0000
0000
0101
3000
0000
1001
0000
0000
1010
0000
0000
0001
0000
1000
0000
,
1010
0000
0000
0101
0000
0000
1001
0000
0000
1010
0000
0000
0001
0000
0010
0000
,
1100
0000
0000
0011
0000
0000
1001
0000
0000
1000
0000
0000
0100
0000
0010
0000
,
1001
0000
0000
1010
0000
0000
0110
0000
0000
0001
0000
0000
0100
0000
1000
0000
,
0110
0000
0000
1100
0000
0000
0101
0000
0000
1000
0000
0000
0010
0000
0100
0000
,
0011
0000
0000
1010
0000
0000
0011
0000
0000
1000
0000
0000
0010
0000
1000
0000
,
0101
0000
0000
0110
0000
0000
1010
0000
0000
0001
0000
0000
0010
0000
0100
0000
,
1100
0000
0000
0110
0000
0000
0011
0000
0000
1000
0000
0000
0010
0000
0100
0000
,
1MM1
0000
0000
0101
0000
0000
1010
0000
0000
1001
0000
0000
0110
0000
1001
0000
,
1010
0000
0000
0110
0000
0000
0101
0000
0000
1001
0000
0000
1010
0000
0101
0000
,
0011
0000
0000
1100
0000
0000
0110
0000
0000
1001
0000
0000
0110
0000
1010
0000
,
1100
0000
0000
0101
0000
0000
1001
0000
0000
1010
0000
0000
0101
0000
1001
0000
,
1010
0000
0000
0110
0000
0000
0101
0000
0000
1100
0000
0000
1010
0000
0110
0000
,
0101
0000
0000
1001
0000
0000
1100
0000
0000
0110
0000
0000
0011
0000
0110
0000
,
1000
0100
0010
0001
1000
0001
0100
0010
1000
0100
0010
0001
1000
0010
0100
0001
,
0010
0001
1000
0001
0100
0010
1000
0100
0010
0001
0100
0010
1000
0001
0100
0001
,
1010
0000
0000
0000
0000
0000
0000
0000
0000
0101
0000
0000
0000
0000
0000
0000
0000
0000
0110
0000
0000
0000
0000
0000
0000
0000
0000
1001
0000
0000
0000
0000
0000
0000
0000
0000
0101
0000
0000
0000
0000
0000
0001
0000
1000
0000
0001
0000
,
1000
0000
0000
0110
0000
0000
1010
0000
0000
1001
0000
0000
1100
0000
0110
0000
,
1001
0000
0000
0000
0000
0000
0000
0000
0000
1010
0000
0000
0000
0000
0000
0000
0000
0000
0110
0000
0000
0000
0000
0000
0000
0000
0000
0101
0000
0000
0000
0000
0000
0000
0000
0000
1001
0000
0000
0000
0000
0000
0010
0000
1000
0000
0010
0000
,
1000
0000
0000
0110
0000
0000
0101
0000
0000
1001
0000
0000
1010
0000
0110
0000
,
1001
0000
0000
0000
0000
0000
0000
0000
0000
0101
0000
0000
0000
0000
0000
0000
0000
0000
0110
0000
0000
0000
0000
0000
0000
0000
0000
1010
0000
0000
0000
0000
0000
0000
0000
0000
1001
0000
0000
0000
0000
0000
0001
0000
0100
0000
0001
0000
,
0100
0000
0000
1010
0000
0000
1001
0000
0000
0101
0000
0000
0110
0000
1010
0000
,
1001
0000
0000
0000
0000
0000
0000
0000
0000
0101
0000
0000
0000
0000
0000
0000
0000
0000
0110
0000
0000
0000
0000
0000
0000
0000
0000
1001
0000
0000
0000
0000
0000
0000
0000
0000
0101
0000
0000
0000
0000
0000
0001
0000
1000
0000
0001
0000
,
1000
0000
0000
0110
0000
0000
1010
0000
0000
1001
0000
0000
0101
0000
0110
0000
,
1010
0010
1000
0001
0100
0010
1000
0000
0010
0100
1000
0001
0100
0010
1000
0000
,
0001
0000
0000
1000
0000
0000
0100
0000
0000
0010
0000
0000
0001
0000
0000
1000
0000
0000
0010
0000
0000
0000
0000
0000
1000
0000
0000
0001
0000
0000
0010
0000
0000
0100
0000
0000
1000
0000
0001
0000
1000
0000
0001
0000
1000
0000
0001
0000
,
1000
0100
0010
0001
1000
0010
0100
0000
0001
0010
0100
1000
0001
1000
0010
0000
,
1000
0000
0000
0001
0000
0000
0100
0000
0000
0001
0000
0000
1000
0000
0000
0010
0000
0000
0100
0000
0000
0000
0000
0000
0001
0000
0000
0010
0000
0000
0100
0000
0000
1000
0000
0000
0010
0000
0100
0000
0010
0000
0100
0000
0010
0000
0100
0000
,
0010
0000
0000
1000
0000
0000
0001
0000
0000
0100
0000
0000
0001
0000
0000
1000
0000
0000
0100
0000
0000
0010
0000
0000
0001
0000
0000
1000
0000
0000
0010
0000
0000
0100
0000
0000
0001
0000
0010
0000
0001
0000
0010
0000
0001
0000
0010
0000
,
0001
0000
0000
1000
0000
0000
0010
0000
0000
0100
0000
0000
0001
0000
0000
1000
0000
0000
0100
0000
0000
0010
0000
0000
0001
0000
0000
1000
0000
0000
0001
0000
0000
0100
0000
0000
0010
0000
1000
0000
0010
0000
1000
0000
0010
0000
1000
0000
,
0010
0000
0000
1000
0000
0000
0001
0000
0000
0100
0000
0000
0001
0000
1000
0000
0001
0000
1000
0000
0001
0000
1000
0000
0001
0000
0000
0010
0000
0000
0100
0000
0000
1000
0000
0000
0010
0000
0100
0000
0010
0000
0100
0000
0010
0000
0100
0000
,
M01M
0000
0000
0000
0000
0000
0000
M00M
MMMM
0000
0000
0000
0000
0MM0
0000
0000
0002
0000
0000
0000
0000
0000
0000
0000
0000
0000
0000
0000
0000
0000
0000
0000
,
1003
0001
0010
0100
1000
0001
0100
0010
1000
0010
0100
0001
0010
0100
1000
0010
,
0100
0001
0100
0010
1000
0001
0010
0100
1000
0001
0100
0001
1000
0010
1000
0001
,
0010
0100
1000
0001
0100
0001
1000
0010
0100
0001
0010
0100
1000
0010
0100
0001
,
0010
0100
1000
0001
0100
0010
1000
0010
0100
0001
0010
0100
1000
0001
0010
0100
,
1000
0100
0010
0001
0100
0001
0010
0100
1000
0001
0100
0010
0100
0001
1000
0010
,
0100
0010
1000
0001
1000
0010
0100
0010
1000
0100
0010
0001
0100
0001
1000
0010
,
1000
0100
0010
0001
0100
0001
1000
0010
0100
0001
0010
0100
1000
0010
0100
0001
,
1000
0001
0100
0010
0100
0001
1000
0010
1000
0001
0100
0001
1000
0000
0010
0100
,
1001
1000
0001
0100
0001
0010
0100
1000
0010
1000
0001
0100
0010
1000
0001
0100
,
0001
1000
0100
0010
0001
0010
0100
1000
0010
0100
0001
1000
0010
1000
0001
1000
,
0010
0100
0010
1000
0001
0100
0010
0100
0001
1000
0010
1000
0100
1000
0010
0100
,
0001
1000
0001
0100
0001
0010
0100
1000
0010
1000
0001
0100
0001
1000
0001
0010
,
1001
0010
0100
1000
0001
0100
0001
1000
0010
0100
0001
0010
0100
1000
0100
0010
,
1001
0000
1000
0100
0010
0001
1000
0010
1001
0000
0010
1000
0001
1000
0010
0100
,
1001
0000
1000
0010
0100
0001
0010
0100
1010
0000
0001
1000
0010
0100
0001
1000
,
0MM1
0000
0000
0000
0000
0000
0000
M00M
MMMM
0000
0000
0000
0000
0MM0
0000
0000
1001
0000
0000
0000
1000
0000
0000
0000
0110
0000
0000
0000
0010
0000
0000
0000
,
1001
0001
1000
0010
0100
0001
1000
0010
1000
0001
0100
0010
0100
0001
0010
0100
,
1000
0010
0100
0001
0010
0001
1000
0010
0100
0001
1000
0010
0100
0010
1000
0100
,
0010
0001
1000
0001
0100
0010
0100
0001
0010
0100
1000
0010
0100
0001
1000
0001
,
0010
0001
0100
0010
1000
0100
1000
0001
0010
0100
1000
0010
0100
0001
1000
0100
,
0010
0001
1000
0001
0100
0010
0100
0001
1000
0010
0100
0010
1000
0001
0100
0001
,
1000
0100
0010
0001
1000
0010
0100
0001
0010
0100
1000
0010
1000
0001
1000
0001
,
0100
0010
1000
0010
0100
0001
0100
0010
1000
0001
0100
0010
0100
0001
0010
0100
,
1000
0010
1000
0001
0100
0010
1000
0001
1000
0100
0010
0000
0001
0000
1000
0001
,
1001
1000
0001
0100
0010
0100
0001
1000
0010
0100
0010
1000
0001
0100
0001
1000
,
0010
1000
0100
0010
0001
1000
0010
0100
0001
1000
0001
0010
0100
1000
0001
1000
,
0010
0100
0001
1000
0100
0010
0001
0010
0100
1000
0001
0100
0001
1000
0010
1000
,
0001
0100
0010
0100
0001
1000
0010
0100
0010
1000
0010
0100
0001
1000
0010
0100
,
1001
0010
0100
1000
0001
0100
0001
1000
0010
0100
0001
0010
0100
1000
0100
0010
,
1001
0000
1000
0100
0010
0001
1000
0010
0100
0000
0010
1000
0001
1000
0010
0100
,
1001
0000
1000
0010
0100
0001
0010
0100
1010
0000
0001
1000
0010
0100
0001
1000
,
0101
0000
0000
0110
0000
0000
1010
0000
0000
0101
0000
0000
1010
0000
0110
0000
,
1001
0001
1000
0010
0100
0001
1000
0010
1000
0001
0100
0010
0100
0001
0010
0100
,
1000
0010
0100
0001
0010
0001
1000
0010
0100
0001
1000
0010
0100
0010
1000
0100
,
0010
0001
1000
0001
0100
0010
0100
0001
0010
0100
1000
0010
0100
0001
1000
0001
,
0010
0001
0100
0010
1000
0100
1000
0001
0010
0100
1000
0010
0100
0001
1000
0100
,
0010
0001
1000
0001
0100
0010
0100
0001
1000
0010
0100
0010
1000
0001
0100
0001
,
1000
0100
0010
0001
1000
0010
0100
0001
0010
0100
1000
0010
1000
0001
1000
0001
,
0100
0010
1000
0010
0100
0001
0100
0010
1000
0001
0100
0010
0100
0001
0010
0100
,
1000
0010
1000
0001
0100
0010
1000
0001
1000
0100
0010
0000
0001
0000
1000
0001
,
1001
1000
0001
0100
0010
0100
0001
1000
0010
0100
0010
1000
0001
0100
0001
1000
,
0010
1000
0100
0010
0001
1000
0010
0100
0001
1000
0001
0010
0100
1000
0001
1000
,
0010
0100
0001
1000
0100
0010
0001
0010
0100
1000
0001
0100
0001
1000
0010
1000
,
0001
0100
0010
0100
0001
1000
0010
0100
0010
1000
0010
0100
0001
1000
0010
0100
,
0001
1000
0100
1000
0010
0100
0001
1000
0001
0100
0001
1000
0010
0100
0001
1000
,
0100
0010
0001
1000
0001
0010
0100
1000
0001
0100
0010
1000
0010
0100
0001
0100
,
0010
1000
0001
1000
0001
0100
0001
1000
0010
0100
0001
1000
0100
1000
0001
0100
,
1001
0000
0100
0001
1000
0000
0010
1000
0001
0000
0010
1000
0001
0000
1000
0010
,
1001
1000
0101
0010
1001
0100
1010
0001
,
0110
1000
0011
1000
0110
0001
1100
0010
,
1010
0001
0110
1000
1001
0010
0101
1000
,
0110
0001
1100
0001
0110
1000
0101
0010
,
1001
0100
1010
0100
1001
0010
0101
1000
,
0110
0001
1100
0001
1010
0100
1001
1000
,
0101
0010
1100
0010
0011
1000
1100
0001
,
0110
0001
1001
0010
0101
1000
0011
1000
,
1100
0001
1010
0001
0110
1000
1001
0010
,
0101
0010
1001
0100
1010
0001
0110
1000
,
0011
1000
1100
0010
0101
1000
0110
0001
,
1010
0100
0011
0100
1100
0010
0101
1000
,
0110
1000
1001
0100
1010
0001
0110
1000
,
0011
0100
1001
0100
1010
0001
0110
1000
,
0101
0010
1001
0100
1010
0001
1100
0010
,
1001
0000
1000
0010
0100
0000
0001
0010
0100
0000
1001
0000
0100
0001
1000
0000
,
1002
0000
0000
0000
,
0000
0000
0000
0000
,
0000
0000
0000
0000
,
0000
0003
0000
0000
;
