#TITLE:The Final Hour;
#SUBTITLE:;
#ARTIST:Dimrain47;
#TITLETRANSLIT:;
#SUBTITLETRANSLIT:;
#ARTISTTRANSLIT:;
#CREDIT:Mad Matt;
#BANNER:../Zeppelin_bn.png;
#BACKGROUND:../bg_Zeppelin.png;
#LYRICSPATH:;
#CDTITLE:../cdtitle_ZAiA.png;
#MUSIC:Dimrain47 - The Final Hour.ogg;
#OFFSET:-1.410;
#SAMPLESTART:33.412;
#SAMPLELENGTH:23.480;
#SELECTABLE:YES;
#BPMS:0.000=165.000;
#STOPS:;
#BGCHANGES:;
// cache tags:
#FIRSTBEAT:20.000;
#LASTBEAT:424.500;
#SONGFILENAME:Songs/Cirque du Zeppelin/The Final Hour - [Zaia]/The Final Hour.sm;
#HASMUSIC:1;
#HASBANNER:1;
#MUSICLENGTH:158.529;
// end cache tags

//---------------dance-single - 8/8-8/4----------------
#NOTES:
     dance-single:
     8/8-8/4:
     Challenge:
     13:
     1.000,1.000,0.164,0.196,1.000,1148.000,26.000,31.000,0.000,0.000:
0000
0000
0000
0000
,
0000
0000
0000
0000
,
0000
0000
0000
0000
,
0000
0000
0000
0000
,
0000
0000
0000
0000
,
0001
0010
0001
0000
0010
0100
0010
0000
0100
1000
0100
0000
1000
0001
1000
0010
,
0100
0000
0001
0000
1000
0010
1000
0000
0001
0010
0001
0000
0100
0010
0100
0001
,
1000
0000
0001
0000
1000
0100
1000
0000
0100
0010
0100
0000
0010
0001
1000
0010
,
0100
0001
0100
0000
0001
1000
0001
0000
0010
0100
0010
0000
0001
1000
0001
0010
,
0100
0000
0000
1000
0000
0000
0001
0000
0000
0000
0100
0000
0010
0000
0010
0000
,
1000
0000
0000
0001
0000
0000
0010
0000
0000
0000
0100
1000
0010
1000
0001
0100
,
0001
0010
0001
1000
0100
1000
0010
0100
0001
1000
0100
1000
0001
0100
0010
1000
,
0001
0010
0100
1000
0001
1000
0010
0100
0010
1000
0100
0010
0001
1000
0010
1000
,
0001
0100
0100
0010
1000
0001
0010
0200
,
2300
3001
0001
0010
0001
0100
0010
2000
,
3200
0310
0010
0100
1000
0010
0100
0002
,
0023
0130
0100
1000
0010
0100
1001
0010
,
1001
0001
0001
0010
0100
1000
0010
0200
,
0302
0013
0010
0100
1000
0001
0100
0002
,
2003
3100
0100
0010
0100
1000
0001
0100
,
0110
0000
0010
0000
1000
0000
0001
0000
0010
0100
1000
0001
1000
0001
0100
0000
,
0010
0000
1000
0000
0100
0000
1000
0000
0001
0000
0010
0000
0001
0100
0010
1000
,
0001
1000
0100
0010
0001
0100
0001
1000
0010
1000
0100
1000
0001
0100
0010
0100
,
0001
0010
0100
1000
0010
1000
0001
0100
0001
0010
0100
0010
0001
1000
0010
1000
,
0100
1000
0001
0010
0001
0100
0001
1000
0010
0100
0001
1000
0100
0010
0001
0100
,
0010
0100
0001
1000
0001
0010
0100
1000
0010
0100
0001
0100
0010
1000
0100
0010
,
0100
1000
0001
0100
0001
0010
0100
1000
0100
0010
0001
0100
0010
1000
0100
1000
,
0010
0100
0001
1000
0001
0010
0100
0010
0001
0100
0010
1000
0100
1000
0001
0100
,
0001
0010
0001
1000
0010
1000
0100
0010
0001
1000
0001
0100
0001
1000
0100
1000
,
0010
0100
0001
0010
0001
0100
0010
1000
0001
0010
0100
1000
0001
0100
0010
1000
,
0001
0100
0001
0000
1000
0100
1000
0000
0001
0100
0001
0000
0100
0010
1000
0010
,
0100
0000
0001
0000
0010
0001
0010
0000
0100
1000
0100
0000
1000
0001
1000
0010
,
0100
0001
1000
0000
0100
0010
0001
0000
1000
0010
0100
0000
0001
1000
0010
1000
,
0100
0000
1000
0000
0001
0100
0001
0000
1000
0100
1000
0000
0001
0010
0100
1000
,
0001
0100
0010
0000
1000
0100
0010
0000
0100
1000
0001
0000
0100
0001
0010
0001
,
1000
0000
0010
0000
1000
0001
1000
0000
0100
0010
0100
0000
1000
0001
0010
0001
,
1000
0010
0100
0000
0001
0100
0010
0000
1000
0001
0010
0000
0100
1000
0001
1000
,
0010
0100
0001
0000
0010
0100
2000
0000
3020
0000
0230
0000
0302
0000
2003
0000
,
3001
0101
1000
1100
,
0100
0110
0010
0011
,
1000
1010
0001
0101
,
0100
0000
0000
0000
1001
0000
0000
0000
0001
0000
1000
0000
0010
0100
0010
0100
,
0001
0000
1000
0100
0010
0000
0001
0100
0010
0000
0100
0001
0010
0100
1000
0001
,
0100
0010
1000
0100
1000
0001
0010
0001
0100
0000
0010
0000
1000
0000
0001
0000
,
0010
0100
1000
0001
0100
0010
1000
0000
0100
1000
0010
1000
0001
0100
0001
0010
,
0100
1000
0001
0000
0100
0000
0010
0000
1000
0010
1000
0000
0001
0100
0001
1000
,
0000
0000
0000
0000
,
0001
0100
0010
0100
0001
1000
0001
0010
0100
1000
0001
1000
0010
0100
0001
0100
,
0001
0010
0100
1000
0001
1000
0010
0100
0010
1000
0001
0010
0100
1000
0100
1000
,
0010
0100
0001
0100
0010
1000
0100
0010
0100
1000
0001
0010
0001
0100
0010
0100
,
0001
0010
0100
1000
0001
0100
0010
1000
0100
1000
0001
0100
0010
1000
0001
1000
,
0100
0010
0100
1000
0001
1000
0010
0100
0001
1000
0001
0010
0100
1000
0100
1000
,
0010
0100
0001
1000
0001
0010
0100
0010
0001
1000
0010
0100
0001
0100
0001
0010
,
0100
1000
0100
0010
0001
0100
0010
0100
0001
1000
0010
1000
0100
0010
0100
1000
,
0010
0100
0001
1000
0100
0010
0001
0100
0001
1000
0010
0100
0001
1000
0001
1000
,
0020
0000
0230
0000
0302
0000
2003
0000
3002
0000
0023
0000
0130
1000
0001
1000
,
0100
1000
0010
0100
0001
0010
0001
1000
0100
1000
0010
1000
0001
0010
0100
0010
,
0001
0100
0010
1000
0100
1000
0001
0010
0001
0100
0010
0100
0001
1000
0100
1000
,
0010
1000
0001
0100
0001
0010
0001
1000
0100
0010
0001
1000
0010
0100
0001
0010
,
0100
0010
0001
1000
0001
0100
0010
1000
0100
0010
0001
0010
0100
1000
0010
0100
,
0010
1000
0001
0010
0001
0100
0010
1000
0010
0100
0001
0010
0100
1000
0010
1000
,
0100
0010
0001
1000
0001
0100
0010
0100
0001
0010
0100
1000
0010
1000
0001
0010
,
0001
0100
0001
1000
0100
1000
0010
0100
0001
1000
0001
0010
0001
1000
0010
1000
,
0100
0010
0001
0100
0001
0010
0100
1000
0001
0100
0010
1000
0001
0010
0100
1000
,
0001
0100
0001
0000
0100
0010
0100
0000
0010
1000
0010
0000
1000
0001
1000
0100
,
0010
0000
0001
0000
1000
0100
1000
0000
0001
0100
0001
0000
0010
0100
0010
0001
,
1000
0001
1000
0000
0001
0100
0001
0000
0100
0010
0100
0000
0010
1000
0001
0010
,
0200
0000
2300
0000
3001
0100
0001
0000
0100
0010
0100
0000
0001
1000
0001
0010
,
0100
1000
0100
0000
1000
0001
1000
0000
0001
0100
0001
0000
0100
0010
1000
0001
,
0020
0000
0230
0000
1300
0010
1000
0000
0001
0010
0001
0000
1000
0100
1000
0001
,
0100
0010
0100
0000
0001
1000
0001
0000
0010
0001
0010
0000
0100
1000
0100
0010
,
0001
1000
0001
0000
1000
0010
2000
0000
3002
0000
0023
0000
0230
0000
2300
0000
,
3001
0100
0101
0001
1000
0100
1100
1000
,
0001
0100
0110
0010
1000
0001
1001
0010
,
0010
0100
1001
0001
0010
0100
1100
1000
,
0001
0000
0100
0000
0101
0000
0001
0000
0010
0000
0100
0000
0010
0001
1000
0001
,
0100
0010
1010
1000
0001
0010
0011
0001
,
1000
0010
0110
0100
0001
1000
1001
0100
,
0100
0010
1001
1000
0100
0010
0110
0001
,
0001
0000
1000
0000
0110
0000
0001
0000
1000
0000
0010
0100
0001
1000
0001
1000
,
0100
0010
0001
0000
0100
0010
1000
0000
0001
1000
0010
0000
0100
0001
1000
0100
,
0010
0000
0001
0000
1000
0100
1000
0000
0001
0100
0001
0000
0010
0100
1000
0001
,
0100
0010
1000
0000
0001
1000
0100
0000
0010
0001
1000
0000
0100
1000
0001
1000
,
0010
0000
0100
0000
0001
1000
0001
0000
0010
0100
0010
0100
1000
0100
1000
0001
,
1000
0010
0100
0000
0001
0010
0100
0000
1000
0001
0100
0000
0010
1000
0001
1000
,
0010
0000
0100
0000
0001
0010
0001
0000
1000
0010
1000
0000
0100
1000
0010
1000
,
0001
0100
0010
0000
1000
0100
0010
0000
0100
1000
0001
0000
0100
0001
1000
0001
,
0010
0100
1000
0000
0010
0100
0001
0000
1000
0000
0001
0000
1000
0001
1000
0001
,
0100
0010
1000
0001
,
0010
0000
0100
0000
1000
0000
0010
0100
,
0010
1000
0001
0010
,
0100
0000
0000
0000
1000
0000
0000
0000
0001
0000
0001
0000
0010
0001
1000
0001
,
0100
0010
1000
0001
,
0010
0000
0001
0000
1000
0000
0100
0010
,
0100
0000
1000
0000
0001
0000
0100
0010
,
1001
0000
0000
0000
1000
0000
0100
0000
1001
0000
0001
0000
1000
0010
1000
0001
,
0000
0000
0000
0000
,
1000
0001
0001
1000
0010
0100
0001
0010
,
0100
1000
1000
0001
0100
0001
0010
0001
,
1000
0010
0010
0100
0001
1000
0100
1000
,
0001
0000
0100
0000
0100
0000
0001
0000
0010
0000
0100
1000
0001
0000
0100
0000
,
0001
0010
0100
0010
0001
1000
0001
0100
0010
1000
0001
1000
0100
0010
0001
0010
,
0001
0100
0010
1000
0001
1000
0100
0010
0100
1000
0001
0100
0010
1000
0010
1000
,
0100
0010
0001
0010
0100
1000
0010
0100
0010
1000
0001
0100
0001
0010
0100
0010
,
0001
0100
0010
1000
0001
0010
0100
1000
0010
1000
0001
0010
0001
1000
0001
1000
,
0200
0000
0000
0000
,
0000
0300
0000
0000
0000
0000
0000
0000
;

//---------------dance-single - 4/8/4----------------
#NOTES:
     dance-single:
     4/8/4:
     Hard:
     12:
     0.998,1.000,0.189,0.315,0.902,1027.000,30.000,50.000,0.000,0.000:
0000
0000
0000
0000
,
0000
0000
0000
0000
,
0000
0000
0000
0000
,
0000
0000
0000
0000
,
0000
0000
0000
0000
,
0001
0010
0001
0000
0010
0100
0010
0000
0100
1000
0100
0000
1000
0001
1000
0010
,
0100
0000
0001
0000
1000
0010
1000
0000
0001
0010
0001
0000
0100
0010
0100
0001
,
1000
0000
0001
0000
1000
0100
1000
0000
0100
0010
0100
0000
0010
0001
1000
0010
,
0100
0001
0100
0000
0001
1000
0001
0000
0010
0100
0010
0000
0001
1000
0001
0010
,
0100
0000
0000
1000
0000
0000
0001
0000
0000
0000
0100
0000
0010
0000
0010
0000
,
1000
0000
0000
0001
0000
0000
0010
0000
0000
0000
0100
1000
0010
1000
0001
0100
,
0001
0010
0001
1000
0100
1000
0010
0100
0001
1000
0100
1000
0001
0100
0010
1000
,
0001
0010
0100
1000
0001
1000
0010
0100
0010
1000
0100
0010
0001
1000
0010
1000
,
0001
0100
0100
0010
1000
0001
0010
0200
,
2300
3001
0001
0010
0001
0100
0010
2000
,
3200
0310
0010
0100
1000
0010
0100
0002
,
0023
0130
0100
1000
0010
0100
1001
0010
,
1001
0001
0001
0010
0100
1000
0010
0200
,
0302
0013
0010
0100
1000
0001
0100
0002
,
2003
3100
0100
0010
0100
1000
0001
0100
,
0110
0000
0010
0000
1000
0000
0001
0000
0010
0100
1000
0001
1000
0001
0100
0000
,
0010
0000
1000
0000
0100
0000
1000
0000
0001
0000
0010
0000
0001
0100
0010
1000
,
0001
1000
0100
0010
0001
0100
0001
1000
0010
1000
0100
1000
0001
0100
0010
0100
,
0001
0010
0100
1000
0010
1000
0001
0100
0001
0010
0100
0010
0001
1000
0010
1000
,
0100
1000
0001
0010
0001
0100
0001
1000
0010
0100
0001
1000
0100
0010
0001
0100
,
0010
0100
0001
1000
0001
0010
0100
1000
0010
0100
0001
0100
0010
1000
0100
0010
,
0100
1000
0001
1000
0010
0100
0001
0010
,
0100
1000
0010
1000
0001
0100
0001
1000
,
0100
0010
0001
0100
0010
1000
0100
1000
,
0001
0100
0010
1000
0100
1000
0010
1000
,
0001
0100
0001
0000
1000
0100
1000
0000
0001
0100
0001
0000
0100
0010
1000
0010
,
0100
0000
0001
0000
0010
0001
0010
0000
0100
1000
0100
0000
1000
0001
1000
0010
,
0100
0001
1000
0000
0100
0010
0001
0000
1000
0010
0100
0000
0001
1000
0010
1000
,
0100
0000
1000
0000
0001
0100
0001
0000
1000
0100
1000
0000
0001
0010
0100
1000
,
0001
0100
0010
0000
1000
0100
0010
0000
0100
1000
0001
0000
0100
0001
0010
0001
,
1000
0000
0010
0000
1000
0001
1000
0000
0100
0010
0100
0000
1000
0001
0010
0001
,
1000
0010
0100
0000
0001
0100
0010
0000
1000
0001
0010
0000
0100
1000
0001
1000
,
0010
0100
0001
0000
0010
0100
2000
0000
3020
0000
0230
0000
0302
0000
2003
0000
,
3001
0101
1000
1100
,
0100
0110
0010
0011
,
1000
1010
0001
0101
,
0100
0000
0000
0000
1001
0000
0000
0000
0001
0000
1000
0000
0010
0100
0010
0100
,
0001
0000
1000
0100
0010
0000
0001
0100
0010
0000
0100
0001
0010
0100
1000
0001
,
0100
0010
1000
0100
1000
0001
0010
0001
0100
0000
0010
0000
1000
0000
0001
0000
,
0010
0100
1000
0001
0100
0010
1000
0000
0100
1000
0010
1000
0001
0100
0001
0010
,
0100
1000
0001
0000
0100
0000
0010
0000
1000
0010
1000
0000
0001
0100
0001
1000
,
0000
0000
0000
0000
,
0001
0010
0010
0100
1000
0001
0100
0020
,
2030
3001
0001
0100
0001
0010
0100
2000
,
3020
0130
0100
0010
1000
0100
0010
0002
,
0203
0310
0010
1000
0100
0010
1001
0100
,
1001
0001
0001
0100
0010
1000
0100
0020
,
0032
0103
0100
0010
1000
0001
0010
0002
,
2003
3010
0010
0100
0010
1000
0001
0010
,
0110
0000
0100
0000
1000
0000
0001
0000
0010
0100
1000
0001
1000
0001
0100
0000
,
0020
0000
0230
0000
0302
0000
2003
0000
3002
0000
0023
0000
0130
1000
0001
1000
,
0100
1000
0010
0100
0001
0010
0001
1000
0100
1000
0010
1000
0001
0010
0100
0010
,
0001
0100
0010
1000
0100
1000
0001
0010
0001
0100
0010
0100
0001
1000
0100
1000
,
0010
1000
0001
0100
0001
0010
0001
1000
0100
0010
0001
1000
0010
0100
0001
0010
,
0100
0010
0001
1000
0001
0100
0010
1000
0100
0010
0001
0010
0100
1000
0010
0100
,
0010
1000
0001
0010
0001
0100
0010
1000
0010
0100
0001
0010
0100
1000
0010
1000
,
0100
0010
0001
1000
0001
0100
0010
0100
0001
0010
0100
1000
0010
1000
0001
0010
,
0001
0100
0001
1000
0100
1000
0010
0100
0001
1000
0001
0010
0001
1000
0010
1000
,
0100
0010
0001
0100
0001
0010
0100
1000
0001
0100
0010
1000
0001
0010
0100
1000
,
0001
0100
0001
0000
0100
0010
0100
0000
0010
1000
0010
0000
1000
0001
1000
0100
,
0010
0000
0001
0000
1000
0100
1000
0000
0001
0100
0001
0000
0010
0100
0010
0001
,
1000
0001
1000
0000
0001
0100
0001
0000
0100
0010
0100
0000
0010
1000
0001
0010
,
0200
0000
2300
0000
3001
0100
0001
0000
0100
0010
0100
0000
0001
1000
0001
0010
,
0100
1000
0100
0000
1000
0001
1000
0000
0001
0100
0001
0000
0100
0010
1000
0001
,
0020
0000
0230
0000
1300
0010
1000
0000
0001
0010
0001
0000
1000
0100
1000
0001
,
0100
0010
0100
0000
0001
1000
0001
0000
0010
0001
0010
0000
0100
1000
0100
0010
,
0001
1000
0001
0000
1000
0010
2000
0000
3002
0000
0023
0000
0230
0000
2300
0000
,
3001
0100
0101
0001
1000
0100
1100
1000
,
0001
0100
0110
0010
1000
0001
1001
0010
,
0010
0100
1001
0001
0010
0100
1100
1000
,
0001
0000
0100
0000
0101
0000
0001
0000
0010
0000
0100
0000
0010
0001
1000
0001
,
0100
0010
1010
1000
0001
0010
0011
0001
,
1000
0010
0110
0100
0001
1000
1001
0100
,
0100
0010
1001
1000
0100
0010
0110
0001
,
0001
0000
1000
0000
0110
0000
0001
0000
1000
0000
0010
0100
0001
1000
0001
1000
,
0100
0010
0001
0000
0100
0010
1000
0000
0001
1000
0010
0000
0100
0001
1000
0100
,
0010
0000
0001
0000
1000
0100
1000
0000
0001
0100
0001
0000
0010
0100
1000
0001
,
0100
0010
1000
0000
0001
1000
0100
0000
0010
0001
1000
0000
0100
1000
0001
1000
,
0010
0000
0100
0000
0001
1000
0001
0000
0010
0100
0010
0100
1000
0100
1000
0001
,
1000
0010
0100
0000
0001
0010
0100
0000
1000
0001
0100
0000
0010
1000
0001
1000
,
0010
0000
0100
0000
0001
0010
0001
0000
1000
0010
1000
0000
0100
1000
0010
1000
,
0001
0100
0010
0000
1000
0100
0010
0000
0100
1000
0001
0000
0100
0001
1000
0001
,
0010
0100
1000
0000
0010
0100
0001
0000
1000
0000
0001
0000
1000
0001
1000
0001
,
0100
0010
1000
0001
,
0010
0000
0100
0000
1000
0000
0010
0100
,
0010
1000
0001
0010
,
0100
0000
0000
0000
1000
0000
0000
0000
0001
0000
0001
0000
0010
0001
1000
0001
,
0100
0010
1000
0001
,
0010
0000
0001
0000
1000
0000
0100
0010
,
0100
0000
1000
0000
0001
0000
0100
0010
,
1001
0000
0000
0000
1000
0000
0100
0000
1001
0000
0001
0000
1000
0010
1000
0001
,
0000
0000
0000
0000
,
1000
0001
0001
1000
0010
0100
0001
0010
,
0100
1000
1000
0001
0100
0001
0010
0001
,
1000
0010
0010
0100
0001
1000
0100
1000
,
0001
0000
0100
0000
0100
0000
0001
0000
0010
0000
0100
1000
0001
0000
0100
0000
,
1001
0001
0001
0010
0100
1000
0010
0200
,
0302
0013
0010
0100
1000
0001
0100
0020
,
2030
3001
0001
0010
0100
1000
0001
0200
,
0320
0000
2030
0000
3002
0000
0023
0000
0130
1000
0001
0100
0001
1000
0001
1000
,
0200
0000
0000
0000
,
0000
0300
0000
0000
0000
0000
0000
0000
;

//---------------dance-single - ----------------
#NOTES:
     dance-single:
     :
     Medium:
     10:
     0.898,0.971,0.189,0.315,0.555,917.000,30.000,50.000,0.000,0.000:
0000
0000
0000
0000
,
0000
0000
0000
0000
,
0000
0000
0000
0000
,
0000
0000
0000
0000
,
0000
0000
0000
0000
,
0001
0010
0001
0000
0010
0100
0010
0000
0100
1000
0100
0000
1000
0001
1000
0010
,
0100
0000
0001
0000
1000
0010
1000
0000
0001
0010
0001
0000
0100
0010
0100
0001
,
1000
0000
0001
0000
1000
0100
1000
0000
0100
0010
0100
0000
0010
0001
1000
0010
,
0100
0001
0100
0000
0001
1000
0001
0000
0010
0100
0010
0000
0001
1000
0001
0010
,
0100
0000
0000
1000
0000
0000
0001
0000
0000
0000
0100
0000
0010
0000
0010
0000
,
1000
0000
0000
0001
0000
0000
0010
0000
0000
0000
0100
1000
0010
1000
0001
0100
,
0001
0010
0001
1000
0100
1000
0010
0100
,
0001
0000
0010
0000
0100
0000
0010
0000
0001
1000
0001
0000
0010
0100
0010
0000
,
0001
0100
0100
0010
1000
0001
0010
0200
,
2300
3001
0001
0010
0001
0100
0010
2000
,
3200
0310
0010
0100
1000
0010
0100
0002
,
0023
0130
0100
1000
0010
0100
1001
0010
,
1001
0001
0001
0010
0100
1000
0010
0200
,
0302
0013
0010
0100
1000
0001
0100
0002
,
2003
3100
0100
0010
0100
1000
0001
0100
,
0110
0000
0010
0000
1000
0000
0001
0000
0010
0100
1000
0001
1000
0001
0100
0000
,
0010
0000
1000
0000
0100
0000
1000
0000
0001
0000
0010
0000
0001
0100
0010
1000
,
0001
0100
0001
1000
0100
0010
0001
0100
,
0010
1000
0100
1000
0001
0010
0001
1000
,
0010
0100
0001
0010
0100
1000
0010
1000
,
0001
0010
0100
1000
0010
1000
0100
0010
,
0001
0100
0001
1000
0010
0100
0001
0010
,
0100
1000
0010
1000
0001
0100
0001
1000
,
0100
0010
0001
0100
0010
1000
0100
1000
,
0001
0100
0010
1000
0100
1000
0010
1000
,
0001
0100
0001
0000
1000
0100
1000
0000
0001
0100
0001
0000
0100
0010
1000
0010
,
0100
0000
0001
0000
0010
0001
0010
0000
0100
1000
0100
0000
1000
0001
1000
0010
,
0100
0001
1000
0000
0100
0010
0001
0000
1000
0010
0100
0000
0001
1000
0010
1000
,
0100
0000
1000
0000
0001
0100
0001
0000
1000
0100
1000
0000
0001
0010
0100
1000
,
0001
0100
0010
0000
1000
0100
0010
0000
0100
1000
0001
0000
0100
0001
0010
0001
,
1000
0000
0010
0000
1000
0001
1000
0000
0100
0010
0100
0000
1000
0001
0010
0001
,
1000
0010
0100
0000
0001
0100
0010
0000
1000
0001
0010
0000
0100
1000
0001
1000
,
0010
0100
0001
0000
0010
0100
2000
0000
3020
0000
0230
0000
0302
0000
2003
0000
,
3001
0101
1000
1100
,
0100
0110
0010
0011
,
1000
1010
0001
0101
,
0100
0000
0000
0000
1001
0000
0000
0000
0001
0000
1000
0000
0010
0100
0010
0100
,
0001
0000
1000
0100
0010
0000
0001
0100
0010
0000
0100
0001
0010
0100
1000
0001
,
0100
0010
1000
0100
1000
0001
0010
0001
0100
0000
0010
0000
1000
0000
0001
0000
,
0010
0100
1000
0001
0100
0010
1000
0000
0100
1000
0010
1000
0001
0100
0001
0010
,
0100
1000
0001
0000
0100
0000
0010
0000
1000
0010
1000
0000
0001
0100
0001
1000
,
0000
0000
0000
0000
,
0001
0010
0010
0100
1000
0001
0100
0020
,
2030
3001
0001
0100
0001
0010
0100
2000
,
3020
0130
0100
0010
1000
0100
0010
0002
,
0203
0310
0010
1000
0100
0010
1001
0100
,
1001
0001
0001
0100
0010
1000
0100
0020
,
0032
0103
0100
0010
1000
0001
0010
0002
,
2003
3010
0010
0100
0010
1000
0001
0010
,
0110
0000
0100
0000
1000
0000
0001
0000
0010
0100
1000
0001
1000
0001
0100
0000
,
0020
0000
0230
0000
0302
0000
2003
0000
3002
0000
0023
0000
0130
1000
0001
1000
,
0001
0010
0001
1000
0010
0100
0001
0010
,
0100
1000
0010
1000
0001
0100
0001
1000
,
0100
0010
0001
0100
0010
1000
0100
1000
,
0001
0100
0010
1000
0100
1000
0010
0100
,
0001
0010
0001
1000
0100
0010
0001
0100
,
0010
1000
0100
1000
0001
0010
0001
1000
,
0010
0100
0001
0010
0100
1000
0010
1000
,
0001
0010
0100
1000
0010
1000
0100
1000
,
0001
0100
0001
0000
0100
0010
0100
0000
0010
1000
0010
0000
1000
0001
1000
0100
,
0010
0000
0001
0000
1000
0100
1000
0000
0001
0100
0001
0000
0010
0100
0010
0001
,
1000
0001
1000
0000
0001
0100
0001
0000
0100
0010
0100
0000
0010
1000
0001
0010
,
0200
0000
2300
0000
3001
0100
0001
0000
0100
0010
0100
0000
0001
1000
0001
0010
,
0100
1000
0100
0000
1000
0001
1000
0000
0001
0100
0001
0000
0100
0010
1000
0001
,
0020
0000
0230
0000
1300
0010
1000
0000
0001
0010
0001
0000
1000
0100
1000
0001
,
0100
0010
0100
0000
0001
1000
0001
0000
0010
0001
0010
0000
0100
1000
0100
0010
,
0001
1000
0001
0000
1000
0010
2000
0000
3002
0000
0023
0000
0230
0000
2300
0000
,
3001
0100
0101
0001
1000
0100
1100
1000
,
0001
0100
0110
0010
1000
0001
1001
0010
,
0010
0100
1001
0001
0010
0100
1100
1000
,
0001
0000
0100
0000
0101
0000
0001
0000
0010
0000
0100
0000
0010
0001
1000
0001
,
0100
0010
1010
1000
0001
0010
0011
0001
,
1000
0010
0110
0100
0001
1000
1001
0100
,
0100
0010
1001
1000
0100
0010
0110
0001
,
0001
0000
1000
0000
0110
0000
0001
0000
1000
0000
0010
0100
0001
1000
0001
1000
,
0100
0010
0001
0000
0100
0010
1000
0000
0001
1000
0010
0000
0100
0001
1000
0100
,
0010
0000
0001
0000
1000
0100
1000
0000
0001
0100
0001
0000
0010
0100
1000
0001
,
0100
0010
1000
0000
0001
1000
0100
0000
0010
0001
1000
0000
0100
1000
0001
1000
,
0010
0000
0100
0000
0001
1000
0001
0000
0010
0100
0010
0100
1000
0100
1000
0001
,
1000
0010
0100
0000
0001
0010
0100
0000
1000
0001
0100
0000
0010
1000
0001
1000
,
0010
0000
0100
0000
0001
0010
0001
0000
1000
0010
1000
0000
0100
1000
0010
1000
,
0001
0100
0010
0000
1000
0100
0010
0000
0100
1000
0001
0000
0100
0001
1000
0001
,
0010
0100
1000
0000
0010
0100
0001
0000
1000
0000
0001
0000
1000
0001
1000
0001
,
0100
0010
1000
0001
,
0010
0000
0100
0000
1000
0000
0010
0100
,
0010
1000
0001
0010
,
0100
0000
0000
0000
1000
0000
0000
0000
0001
0000
0001
0000
0010
0001
1000
0001
,
0100
0010
1000
0001
,
0010
0000
0001
0000
1000
0000
0100
0010
,
0100
0000
1000
0000
0001
0000
0100
0010
,
1001
0000
0000
0000
1000
0000
0100
0000
1001
0000
0001
0000
1000
0010
1000
0001
,
0000
0000
0000
0000
,
1000
0001
0001
1000
0010
0100
0001
0010
,
0100
1000
1000
0001
0100
0001
0010
0001
,
1000
0010
0010
0100
0001
1000
0100
1000
,
0001
0000
0100
0000
0100
0000
0001
0000
0010
0000
0100
1000
0001
0000
0100
0000
,
1001
0001
0001
0010
0100
1000
0010
0200
,
0302
0013
0010
0100
1000
0001
0100
0020
,
2030
3001
0001
0010
0100
1000
0001
0200
,
0320
0000
2030
0000
3002
0000
0023
0000
0130
1000
0001
0100
0001
1000
0001
1000
,
0200
0000
0000
0000
,
0000
0300
0000
0000
0000
0000
0000
0000
;
