#TITLE:Extratone Pirates;
#SUBTITLE:(French Break Mix);
#ARTIST:Annoying Ringtone;
#TITLETRANSLIT:;
#SUBTITLETRANSLIT:;
#ARTISTTRANSLIT:;
#CREDIT:;
#BANNER:../speedcore rejects ban.png;
#BACKGROUND:../speedcore rejects bg.png;
#LYRICSPATH:;
#CDTITLE:;
#MUSIC:Extratone Pirates (French Break Mix).ogg;
#OFFSET:0.009;
#SAMPLESTART:38.340;
#SAMPLELENGTH:12.000;
#SELECTABLE:YES;
#BPMS:0.000=250.000;
#STOPS:;
#BGCHANGES:;
// cache tags:
#FIRSTBEAT:0.000;
#LASTBEAT:550.000;
#SONGFILENAME:Songs/Speedcore Rejects/Extratone Pirates (FrenchBreak Mix) - [Aoreo]/Extratone Pirates (French Break Mix).SM;
#HASMUSIC:1;
#HASBANNER:1;
#MUSICLENGTH:132.463;
// end cache tags

//---------------dance-single - J. Nero----------------
#NOTES:
     dance-single:
     J. Nero:
     Challenge:
     19:
     1.000,1.000,0.242,0.528,1.000,1415.000,32.000,70.000,0.000,2.000:

0202
0303
0010
0000
0202
0303
0010
0000
,
2020
3030
1000
0000
0202
0303
0001
0000
,
2200
3300
1000
0000
0220
0330
0010
0000
,
0202
0303
0001
0000
2002
3003
2000
3000
,
2020
3030
0010
0000
0202
0303
0100
0000
,
0220
0330
0010
0000
2020
3030
1000
0000
,
0220
0330
0010
0000
0202
0303
0100
0000
,
0001
0000
1000
0000
0100
0000
0010
0000
0001
0000
0100
0010
0100
0000
0000
0000
,
0001
0100
0100
0010
1000
1000
0001
0010
,
0100
0100
1000
0001
0001
0100
0010
1000
,
0001
0000
0010
0000
0100
0000
1000
0000
0010
0100
0010
0000
0100
0000
0001
0000
,
1000
0010
1000
0001
0100
0010
1000
0001
1000
0100
0010
0001
1000
0010
0100
0001
,
1000
0000
0001
0000
0100
0000
0010
0000
0100
0001
1000
0001
1000
0000
0001
0000
,
0010
0100
0010
0100
1000
0000
0001
0000
0100
0010
0100
0010
1000
0000
0001
0000
,
0100
0000
0001
0000
0100
0000
0001
0000
1000
0100
0010
0100
1000
0001
0010
0100
,
1000
0000
0001
0000
0100
0000
0010
0000
1000
0001
1000
0000
0001
0100
0010
0100
,
0001
1000
1000
0010
0100
0100
0001
0010
,
0100
0000
1000
0000
0001
0100
0010
0100
,
0001
0000
0010
0000
0100
0000
0100
0000
1000
0000
0001
0000
0100
0001
0100
0010
,
1000
0000
0001
0000
0100
0000
0001
0000
0010
0000
0100
0000
1000
0100
1000
0000
,
0001
0100
0001
1000
0010
0100
0001
1000
0001
0000
0000
0000
1000
0000
0000
0000
,
0001
0000
0000
0000
0100
0000
0001
0000
0000
0000
0100
0000
0001
1000
0001
0000
,
1000
0010
1000
0010
0100
0000
0001
0000
1000
0010
1000
0010
0100
0000
0001
0000
,
0110
0110
1001
1001
,
1000
0010
1000
0001
0100
0001
1000
0010
0100
0010
1000
0001
1000
0001
0100
0001
,
1000
0010
0100
0010
1000
0001
1000
0010
0100
0001
1000
0001
0010
0100
1000
0001
,
1000
0100
0010
0100
1000
0001
0010
0100
1000
0001
0010
0100
1000
0001
0010
0001
,
1000
0100
0010
0100
1000
0001
0010
0100
1000
0001
0100
0010
1000
0001
0010
0100
,
1000
0001
1000
0010
0100
0001
0100
0010
1000
0001
1000
0010
0100
0001
0100
0010
,
1000
0001
1000
0001
0100
0010
0100
0001
1000
0010
0100
0010
1000
0001
1000
0001
,
0010
0100
0010
0001
1000
0100
0010
0001
1000
0100
1000
0100
0010
0001
1000
0001
,
1000
0100
0010
0001
1000
0010
0100
0001
,
1000
0010
1000
0010
0100
0001
1000
0010
0100
0001
0100
0010
1000
0001
1000
0010
,
0100
0010
1000
0001
0100
0001
0100
0010
1000
0010
0100
0001
0100
0001
1000
0001
,
1000
0100
0010
0001
1000
0001
0010
0100
1000
0001
0010
0001
1000
0100
0010
0100
,
1000
0001
0010
0100
1000
0001
0010
0100
1000
0001
1000
0100
0010
0001
1000
0001
,
1000
0010
0100
0001
0100
0010
1000
0001
1000
0100
0010
0001
0010
0100
1000
0001
,
1000
0010
0100
0010
1000
0001
0100
0001
1000
0100
0010
0001
1000
0100
1000
0001
,
0100
0010
1000
0001
0010
0100
1000
0001
0100
0010
0100
0001
1000
0100
0010
0001
,
2000
3000
2002
3003
2002
3003
0000
0000
,
2222
0000
0000
0000
0000
0000
0000
3333
,
0000
0000
0000
0000
0000
0000
1000
0001
,
2222
0000
0000
0000
0000
0000
0000
3333
,
0000
0000
0000
0000
0000
0000
0000
0000
1000
0000
0001
0000
0010
0001
0010
0100
,
2000
0000
3000
0000
0001
0100
0010
1000
,
2002
0000
0000
0000
3003
0000
0000
0000
0001
1000
0010
0100
0040
0000
0000
0030
,
2002
3003
0000
0000
2002
3003
0000
0000
,
0001
0100
0001
1000
0010
0100
0001
1000
0001
1000
0100
1000
0001
0010
0100
1000
,
0001
0100
0100
0001
1000
1000
0010
0100
,
0001
0010
0010
0100
1000
1000
0001
0100
,
0010
0100
0001
1000
0100
0010
0001
0100
,
0020
0000
0030
0000
0020
0000
0030
0000
1000
0000
0001
0000
0100
0010
1000
0001
,
1000
0000
0001
0000
0010
0000
0100
0000
1000
0010
1000
0010
0100
0000
0001
0000
,
0100
0010
0100
0000
0001
0000
0010
0000
0001
1000
0001
1000
0010
0100
0001
1000
,
0001
0000
0010
0000
0100
0000
0010
0000
0001
0000
1000
0000
0001
0010
0001
0010
,
0100
0000
1000
0000
0001
0100
0001
0100
0010
0000
1000
0000
0001
0010
0100
1000
,
0001
0100
0100
0001
0010
0010
0100
1000
,
0001
0100
0010
0100
0001
1000
0100
0010
,
0001
1000
0001
1000
0001
1000
0001
1000
0100
0000
0010
0000
0001
0000
1000
0000
,
0010
0100
0010
1000
0001
0000
0010
0000
0100
0000
1000
0000
0002
0000
0003
0000
,
0001
1000
0100
1000
0001
0010
0100
1000
0001
0000
0100
0000
0040
0000
4030
0000
,
3004
0403
0340
0030
1000
0100
1000
0001
,
0200
0000
0300
0000
0001
0000
1000
0000
0001
0000
0010
0000
0100
1000
0001
0100
,
0040
0030
0100
0000
0001
0000
1000
0000
0001
0000
0010
0000
0100
1000
0001
1000
,
0010
0100
0010
0100
0004
0003
1000
0000
0010
0000
0100
0000
0004
0003
1000
0000
,
0001
0010
0001
1000
0100
0010
0001
1000
0004
0000
0000
0000
0000
0000
0000
0000
,
1003
0010
1000
0001
0100
0010
0100
0001
1000
0001
1000
0010
0100
0001
0100
0010
,
1000
0001
1000
0010
0100
0010
1000
0001
0100
0010
1000
0001
0100
0001
1000
0001
,
0010
0100
0010
0001
1000
0100
0010
0001
1000
0001
0010
0100
1000
0001
0010
0100
,
1000
0100
1000
0001
0100
0001
1000
0010
0100
0001
1000
0010
1000
0001
0010
0100
,
1000
0001
1000
0010
0100
0001
0100
0010
1000
0001
1000
0010
0100
0001
1000
0001
,
0100
0010
0100
0001
1000
0001
1000
0010
0100
0001
0100
0001
1000
0010
0100
0001
,
1000
0010
1000
0010
0100
0000
0000
0000
0001
0100
0001
0100
0010
0000
0000
0000
,
1000
0000
0100
0000
1000
0000
0001
0000
0100
0001
0100
0000
0001
1000
0001
0000
,
1000
0010
0100
0001
1000
0001
1000
0010
0100
0010
1000
0001
0100
0001
1000
0010
,
0100
0010
1000
0001
0100
0001
1000
0010
0100
0001
1000
0001
1000
0000
0000
0000
,
0001
0010
0001
1000
0100
0010
0001
1000
0100
0010
0001
1000
0001
0010
0100
1000
,
0001
1000
0100
0010
0100
1000
0001
0010
0100
1000
0001
1000
0001
0000
0000
0000
,
1000
0010
1000
0001
0100
0010
1000
0001
1000
0010
0100
0001
1000
0000
0000
0000
,
0001
0010
0001
1000
0100
0010
0001
1000
0001
1000
0100
0010
0001
1000
0001
1000
,
0010
0100
0001
1000
0001
0010
0100
1000
0001
1000
0010
0100
0001
1000
0100
0010
,
0001
0010
0100
1000
0010
0100
0001
1000
0100
0010
0001
1000
0010
0100
0001
1000
,
0001
0100
0001
1000
0010
0100
0010
1000
0001
1000
0010
0100
0001
1000
0001
1000
,
0010
0100
0001
0100
0010
1000
0001
1000
0001
0000
0000
0000
1000
0000
0001
0000
,
1000
0100
0010
0100
1000
0001
0010
0100
1000
0010
0100
0001
1000
0100
0010
0001
,
1000
0000
0001
0100
0000
0001
1000
0100
,
1000
0001
0100
0001
0100
0010
1000
0010
0100
0001
1000
0100
0010
0001
0100
0010
,
1000
0001
1000
0010
0100
0001
1000
0001
0100
0000
0000
0000
0001
0000
0000
0000
,
1000
0001
0010
0001
1000
0100
0010
0001
1000
0001
0010
0100
1000
0010
0100
0001
,
1000
0100
0010
0001
1000
0010
0100
0001
1000
0000
0001
0000
0010
0100
1000
0001
,
1000
0010
0100
0001
0100
0010
1000
0001
1000
0010
0100
0001
1000
0100
0010
0001
,
0100
0010
1000
0001
1000
0010
0100
0001
0100
0010
1000
0010
1000
0001
0100
0001
,
1000
0100
0010
0100
1000
0001
0010
0100
1000
0001
1000
0100
0010
0001
1000
0001
,
1000
0000
0010
0000
0100
0000
0001
0000
1000
0100
1000
0000
0001
0000
0100
0000
,
0001
1000
0100
0010
0100
1000
0001
0100
0010
0100
0001
0010
0100
1000
0010
0100
,
0001
0010
0100
0010
0001
1000
0100
0010
0100
1000
0001
0010
0100
0010
0001
1000
,
0100
1000
0010
0100
0001
0010
0001
0100
0010
1000
0100
1000
0010
0100
0001
0010
,
0001
0000
1000
0000
0010
0000
0100
0000
0001
0010
0100
1000
0010
0000
0100
0000
,
1001
0000
0001
0000
1000
0000
0000
0000
0000
0000
0001
0100
0010
0000
0000
0000
,
1001
0000
0000
0000
1000
0000
0100
0000
0000
0000
1000
0000
0001
0100
0001
1000
,
0100
0000
1000
0000
0001
0000
0000
0000
0000
0000
0010
0000
0100
1000
0100
1000
,
0001
0000
0100
0000
0010
0000
0100
0000
0001
0000
1000
0000
0001
0100
0001
1000
,
0100
0000
0000
0000
1000
0000
0001
0000
0100
0001
0100
0010
1000
0000
0001
0000
,
0011
0010
0100
1100
1000
0001
1001
1000
,
0010
0000
0100
0000
0001
0000
1000
0000
0000
0000
0001
1000
0100
0000
0000
0000
,
1000
0000
0001
0000
0010
0000
0100
0000
1000
0001
1000
0000
0001
0100
0001
0000
,
1000
0000
0010
0000
0100
0000
0010
0000
2000
0000
3000
0000
0001
0100
0001
0000
,
0010
0100
0100
1000
0001
0001
0100
0010
,
1000
0000
0100
0000
1000
0001
1000
0001
0200
0000
0000
0000
0300
0000
0001
0100
,
0001
1000
0010
0100
0001
0000
0010
0000
0100
0000
1000
0000
0100
0000
1000
0000
,
0001
0100
0010
0000
0110
0000
0100
0001
,
0010
0000
0100
0000
1000
0000
0001
0000
1000
0000
0000
0000
0001
1000
0100
1000
,
0001
0010
0100
1000
0001
0100
0001
1000
,
0010
1000
0010
0100
0001
1000
0010
0100
0001
0010
0100
1000
0010
0100
0010
1000
,
0001
0001
0100
0100
0001
0010
0001
1000
,
0010
0100
0001
1000
0100
0010
0100
0010
,
0001
0001
0100
0100
0020
0030
0020
0030
,
1000
0100
1000
0001
0100
0000
0001
0000
0010
0100
1000
0001
1000
0010
0100
0001
,
1000
0000
1000
0000
0010
0000
0010
0000
0100
0001
0100
0010
1000
0001
1000
0001
,
0100
0010
0010
1000
0001
0001
0010
0100
,
1000
0001
1000
0001
0100
0000
0001
0000
0010
0000
0010
0000
0100
0000
1000
0000
,
0001
0000
0000
0000
0001
0000
0100
0000
0010
0100
0001
1000
0001
0010
0100
1000
,
0001
0100
0001
0010
0200
0300
0200
0300
,
1000
0100
1000
0001
0200
0300
0200
0300
,
0002
0003
0002
0003
0020
0030
0020
0030
,
0001
1000
0100
1000
0001
0010
0100
1000
0001
0000
0100
0000
0010
0000
1000
0000
,
0001
0100
0001
1000
0010
0000
1000
0000
0002
0000
0003
0000
0002
0000
0003
0000
,
0200
0000
0300
0000
0200
0000
0300
0000
0001
0000
1000
0000
0010
0100
0010
0000
,
1000
0001
0100
0000
0020
0000
0030
0000
,
1000
0010
1000
0001
0100
0001
1000
0010
0100
0001
1000
0010
0100
0001
1000
0001
,
1000
0100
0010
0100
1000
0001
0010
0100
,
1000
0010
0100
0001
1000
0100
0010
0001
,
1000
0100
1000
0001
0100
0001
1000
0010
,
0100
0000
0001
0000
1000
0000
0100
0000
0010
0000
0001
0000
1000
0001
1000
0000
,
0001
1000
0010
0100
0001
0010
0100
1000
,
0001
1000
0010
0100
0001
1000
0100
0010
,
0001
1000
0010
0100
0001
1000
0001
1000
,
0004
0000
0003
0000
;
