#TITLE:State Of Emergency;
#SUBTITLE:(DTX Version);
#ARTIST:e^2 (Electronic Elation);
#TITLETRANSLIT:;
#SUBTITLETRANSLIT:;
#ARTISTTRANSLIT:;
#CREDIT:;
#BANNER:state of emergency.banner.jpg;
#BACKGROUND:state of emergency.bg.jpg;
#LYRICSPATH:;
#CDTITLE:CDTITLE.jpg;
#MUSIC:State Of Emergency.mp3;
#OFFSET:0.120;
#SAMPLESTART:31.576;
#SAMPLELENGTH:12.000;
#SELECTABLE:YES;
#BPMS:0.000=190.020;
#STOPS:;
#BGCHANGES:;
// cache tags:
#FIRSTBEAT:0.500;
#LASTBEAT:302.500;
#SONGFILENAME:Songs/Definitive Keyboard Megapack/State Of Emergency(Leone510)/State Of Emergency.sm;
#HASMUSIC:1;
#HASBANNER:1;
#MUSICLENGTH:96.055;
// end cache tags

//---------------dance-single - ----------------
#NOTES:
     dance-single:
     :
     Hard:
     13:
     1.000,1.000,1.000,1.000,0.510,614.000,395.000,154.000,0.000,38.000:
0000
2020
0000
0000
0000
0000
0000
0000
,
3030
0000
0000
0000
,
1001
0000
0102
0000
1003
0010
0001
0000
1100
0000
0010
0100
0001
0000
1010
0000
,
0101
0000
0120
0000
1030
0001
0010
0000
0101
0000
1000
0100
0010
0000
1100
0000
,
0101
0000
2010
0000
3100
0001
0010
0000
1100
0000
0001
0100
1000
0000
0101
0000
,
1001
0000
0210
0000
0301
1000
0001
0000
0110
0000
0100
0010
1000
0000
0110
0000
,
1001
0000
0102
0000
1003
0010
0001
0000
1100
0000
0010
0100
0001
0000
1010
0000
,
0101
0000
0120
0000
1030
0001
0010
0000
0101
0000
1000
0100
0010
0000
1100
0000
,
0101
0000
2010
0000
3100
0001
0010
0000
1100
0000
0001
0100
1000
0000
0101
0000
,
1001
0000
0000
0000
0210
0000
0000
0000
0302
0000
1000
0003
0002
0000
0000
0003
0120
0000
0000
0000
2032
0000
0000
0000
0000
0000
0000
0000
3003
0000
0000
0000
,
1001
0000
0102
0000
1003
0010
0001
0000
1100
0000
0010
0100
0001
0000
1010
0000
,
0101
0000
0120
0000
1030
0001
0010
0000
0101
0000
1000
0100
0010
0000
1100
0000
,
0101
0000
2010
0000
3100
0001
0010
0000
1100
0000
0001
0100
1000
0000
0101
0000
,
1001
0000
0210
0000
0301
1000
0001
0000
0110
0000
0100
0010
1000
0000
0110
0000
,
1001
0000
0102
0000
1003
0010
0001
0000
1100
0000
0010
0100
0001
0000
1010
0000
,
0101
0000
0120
0000
1030
0001
0010
0000
0101
0000
1000
0100
0010
0000
1100
0000
,
0101
0000
2010
0000
3100
0001
0010
0000
1100
0000
0001
0100
1000
0000
0101
0000
,
1001
0000
0000
0000
0220
0000
0000
0000
0000
0000
0000
0000
0000
0000
0000
0000
0000
0000
0000
0000
0000
0000
0000
0030
0020
0000
0000
0300
0200
0000
0000
0000
,
1331
0101
0101
1020
0230
0300
0101
0101
,
1010
0000
0110
0110
1010
1010
0101
0101
,
1001
0110
0110
2001
3020
0030
0101
0101
,
1010
0000
0000
0000
0101
0000
0101
0000
0110
0000
0220
0000
0000
0330
2020
0000
,
3030
1001
1001
0021
2030
3000
0110
0110
,
0101
0000
1010
1010
0101
0101
1001
1001
,
0101
0110
0110
2001
3020
0030
0101
0101
,
1010
0000
0101
0101
0110
0220
0000
0000
,
0330
0101
0101
1020
0230
0300
0101
0101
,
1010
0000
0110
0110
1010
1010
0101
0101
,
1001
0110
0110
2001
3020
0030
0101
0101
,
1010
0000
0000
0000
0101
0000
0101
0000
0110
0000
0220
0000
0000
0330
2020
0000
,
3030
1001
1001
0021
2030
3000
0110
0110
,
0101
0000
1010
1010
0101
0101
1001
1001
,
0101
0110
0110
2001
3020
0030
0101
0101
,
1010
0000
0101
0101
0110
0220
0000
0000
,
0330
0000
0101
0000
0101
0010
2000
0000
3101
0000
0110
2000
3101
0000
0101
0000
,
1001
0010
2000
0000
3101
0000
0110
0000
0110
0000
1100
0000
1100
0000
0011
1000
,
0011
0000
0101
0000
0101
0000
1001
0000
0101
0000
0011
0100
2000
0000
3101
0000
,
0110
0000
0000
0000
0101
0000
1000
0000
0101
0000
0000
0000
1001
0000
0000
0000
1001
0000
0000
0000
2020
0000
0000
0000
3232
0000
0000
0303
2002
0000
0000
0000
,
3003
0000
1100
0000
1100
0001
0020
0000
0131
0000
1100
0020
1130
0000
1001
0000
,
0101
1000
0020
0000
0131
0000
1001
0000
1001
0000
0110
0000
0110
0000
0101
0010
,
0101
0000
1001
0000
1001
0000
0011
0000
0011
0000
1001
0100
0020
0000
0131
0000
,
0110
0000
0000
0000
0101
0000
1000
0000
0101
0000
0000
0000
1001
0000
0000
0000
1001
0000
0000
0000
0220
0000
0000
0330
0220
0000
0000
0330
0220
0000
0000
0000
,
1331
0000
0101
0000
0101
0010
2000
0000
3101
0000
0110
2000
3101
0000
0101
0000
,
1001
0010
2000
0000
3101
0000
0110
0000
0110
0000
1100
0000
1100
0000
0011
1000
,
0011
0000
0101
0000
0101
0000
1001
0000
0101
0000
0011
0100
2000
0000
3101
0000
,
0110
0000
0000
0000
0101
0000
1000
0000
0101
0000
0000
0000
1001
0000
0000
0000
1001
0000
0000
0000
2020
0000
0000
0000
3232
0000
0000
0303
2002
0000
0000
0000
,
3003
0000
1100
0000
1100
0001
0020
0000
0131
0000
1100
0020
1130
0000
1001
0000
,
0101
1000
0020
0000
0131
0000
1001
0000
1001
0000
0110
0000
0110
0000
0101
0010
,
0101
0000
1001
0000
1001
0000
0011
0000
0011
0000
1001
0100
0020
0000
0131
0000
,
0110
0000
0000
0000
0101
0000
1000
0000
0101
0000
0000
0000
1001
0000
0000
0000
1001
0000
0000
0000
0220
0000
0000
0330
0220
0000
0000
0330
0220
0000
0000
0000
,
1331
0010
1001
0000
0100
0001
1010
0000
0110
0000
0000
0000
0101
0000
0110
0000
,
0100
0010
0101
0000
0000
0000
0101
0000
1001
0000
0000
0000
0101
0000
0010
0000
,
1100
0000
0010
0001
1100
0000
0001
0000
1100
0000
0000
0000
1000
0100
0010
0001
,
0010
0100
2020
0000
3030
0000
0202
0000
0303
0000
0220
0000
0330
0000
0200
0000
,
0300
0000
1001
0000
0000
0000
1010
0000
0110
0000
0000
0000
0001
1000
0101
0000
,
0100
0010
0001
0010
0100
1000
0101
0000
1001
0000
0000
0000
0101
0000
0010
0000
,
1100
0000
0010
0001
1100
0000
0101
0000
0101
0000
0010
1000
0011
0000
1010
0000
,
1010
0000
2020
0000
3030
0000
0202
0000
2303
0000
0010
0100
3010
0000
0101
0010
,
1000
0000
0000
0000
0101
0000
0000
0000
0101
0000
0000
0000
0101
0000
0000
0000
0101
0000
0000
0000
2020
0000
0000
0000
3030
0000
0000
0000
0220
0000
0000
0330
,
1100
0000
1100
0000
1100
0000
1100
0000
0000
0000
0202
0000
0313
1000
0101
0000
,
0000
0000
0202
0303
1000
0010
0001
0010
0100
1000
0100
0010
0202
0313
0100
1000
,
0100
0010
0202
0313
0100
1000
0200
0010
0302
0010
0103
1000
0100
0010
1001
0000
,
0000
0000
1100
0010
0001
0010
1100
0000
1100
0000
0000
0000
0101
0000
0000
0000
,
1001
0000
1001
0010
0100
1000
0101
0000
0101
0000
0000
0000
1100
0000
0110
0000
,
0011
2200
3300
0000
0202
0303
0001
2200
,
3300
0000
0000
0000
2002
0000
0000
0000
0000
0000
0000
0000
0000
0000
0000
3000
2023
0000
0000
0000
0000
0000
0000
0000
0000
0000
0000
0030
3220
0000
0000
0000
,
0000
0330
0101
0000
0101
0010
2000
0000
3101
0000
0110
2000
3101
0000
0101
0000
,
1001
0010
2000
0000
3101
0000
0110
0000
0110
0000
1100
0000
1100
0000
0011
1000
,
0011
0000
0101
0000
0101
0000
1001
0000
0101
0000
0011
0100
2000
0000
3101
0000
,
0110
0000
0000
0000
0101
0000
1000
0000
0101
0000
0000
0000
1001
0000
0000
0000
1001
0000
0000
0000
2020
0000
0000
0000
3232
0000
0000
0303
2002
0000
0000
0000
,
3003
0000
1100
0000
1100
0001
0020
0000
0131
0000
1100
0020
1130
0000
1001
0000
,
0101
1000
0020
0000
0131
0000
1001
0000
1001
0000
0110
0000
0110
0000
0101
0010
,
0101
0000
1001
0000
1001
0000
0011
0000
0011
0000
1001
0100
0020
0000
0131
0000
,
0110
0000
0000
0000
0101
0000
1000
0000
0101
0000
0000
0000
1001
0000
0000
0000
1001
0000
0000
0000
0220
0000
0000
0330
0220
0000
0000
0330
0220
0000
0000
0000
,
1331
2002
0000
0000
0000
0000
0000
0000
,
0000
0000
0000
0000
0000
3003
0000
0000
;
