#TITLE:Insaner;
#SUBTITLE:(L.E.D.'s Punishment Mix);
#ARTIST:Jondi & Spesh;
#TITLETRANSLIT:;
#SUBTITLETRANSLIT:;
#ARTISTTRANSLIT:;
#CREDIT:;
#BANNER:InsanerLEDsPunishmentMix-banner.png;
#BACKGROUND:InsanerLEDsPunishmentMix-bg.png;
#LYRICSPATH:;
#CDTITLE:wyde-cdtitle.png;
#MUSIC:Insaner (L.E.D.'s Punishment Mix).mp3;
#OFFSET:-3.155;
#SAMPLESTART:46.108;
#SAMPLELENGTH:12.000;
#SELECTABLE:YES;
#BPMS:0.000=155.000,37.000=77.500,45.000=155.000,57.000=77.500,57.500=155.000,58.500=310.000,60.500=155.000,109.000=77.500,115.000=165.000,147.000=82.500,149.000=165.000,181.000=77.500,187.000=43.750,188.000=175.000,236.000=87.500;
#STOPS:4.000=1.160
,60.500=0.180
;
#BGCHANGES:;
// cache tags:
#FIRSTBEAT:5.000;
#LASTBEAT:238.500;
#SONGFILENAME:Songs/KBU/Insaner (L.E.D.'s Punishment Mix) (Wyde)/Insaner (L.E.D.'s Punishment Mix).sm;
#HASMUSIC:1;
#HASBANNER:1;
#MUSICLENGTH:106.744;
// end cache tags

//---------------dance-single - ----------------
#NOTES:
     dance-single:
     :
     Hard:
     11:
     1.000,1.000,1.000,0.806,1.000,703.000,168.000,86.000,0.000,64.000:
0000
0000
0000
0000
,
0000
0000
0220
1330
0011
1000
0001
0100
,
1010
0000
0001
0000
0100
0000
0001
0000
1100
0000
0010
0000
0100
0000
0010
0010
,
1001
0000
0010
0000
1000
0000
0001
0000
0110
0000
0001
0000
0100
1000
0000
1000
,
0011
0000
0100
0000
0001
0010
0000
0010
0101
0010
1000
0000
1000
0000
1000
0100
,
0011
0100
1000
0000
0022
1000
0133
1000
0100
1000
0100
1000
0100
0010
0100
0010
,
0100
0010
0100
0010
0001
0010
0001
0010
0001
0010
0001
0010
0001
1000
0001
1000
,
0001
0000
0000
0000
1000
0000
0000
0000
0001
0000
0000
0000
1000
0000
0000
0000
0220
0000
0000
0000
0001
0000
0000
0300
0130
0000
0000
0000
0001
0000
0000
0000
0100
0000
0000
0000
0001
0000
0000
0000
0100
0000
0000
0000
0001
0000
0000
0000
0010
0000
0000
0000
0100
0000
0000
0000
0010
0000
0000
0000
0100
0000
0000
0000
,
0010
0000
0000
0000
0100
0000
0000
0000
0010
0000
0000
0000
0100
0000
0000
0000
2020
0000
0000
0000
0001
0000
0000
3030
1000
0000
0000
0000
0001
0000
0000
0000
1000
0000
0000
0000
0001
0000
0000
0000
1000
0000
0000
0000
0001
0000
0000
0000
1000
0000
0000
0000
0001
0000
0000
0000
1000
0000
0000
0000
0001
0000
0000
0000
,
0220
0000
0000
0000
0000
0000
0000
0000
0000
0000
0000
0000
0001
0000
0000
0000
0000
0000
0000
0000
0000
0000
0000
0000
1330
0000
0000
0000
0000
0000
0000
0000
0000
0000
0000
0000
0001
0000
0000
0000
0000
0000
0000
0000
0000
0000
0000
0000
0220
0000
0000
0000
0000
0000
0000
0000
0000
0000
0300
0000
0130
0000
0000
0000
0000
0000
0000
0000
0000
0000
0000
0000
1100
0000
0000
0000
0000
0000
0000
0000
0000
0000
0000
0000
0100
0000
0000
0000
0000
0000
0000
0000
0000
0000
0000
0000
0100
0000
0000
0000
0000
0000
0000
0000
0000
0000
0000
0000
0110
0000
0000
0000
0000
0000
0000
0000
0000
0000
0000
0000
0100
0000
0000
0000
0000
0000
0000
0000
0000
0000
0000
0000
0100
0000
0000
0000
0000
0000
0000
0000
0000
0000
0000
0000
0101
0000
0000
0000
0000
0000
0000
0000
0000
0000
0000
0000
0100
0000
0000
0000
0000
0000
0000
0000
0000
0000
0000
0000
0100
0000
0000
0000
0000
0000
0000
0000
0000
0000
0000
0000
1100
0000
0000
0000
0000
0000
0000
0000
0000
0000
0000
0000
,
0100
0000
0000
0000
0000
0000
0000
0000
0000
0000
0000
0000
0100
0000
0000
0000
0000
0000
0000
0000
0000
0000
0000
0000
1100
0000
0000
0000
0000
0000
0000
0000
0000
0000
0000
0000
0022
0000
0000
0000
0000
0000
0000
0000
0000
0000
0030
0000
2023
0000
0000
0000
0000
0000
0000
0000
0000
0000
3030
0000
0022
0000
0000
0000
0000
0000
0000
0000
0000
0000
0000
0000
1133
0000
0000
0000
0000
0000
0000
0000
0000
0000
0000
0000
0100
0000
0000
0000
0000
0000
0000
0000
0000
0000
0000
0000
0100
0000
0000
0000
0000
0000
0000
0000
0000
0000
0000
0000
0110
0000
0000
0000
0000
0000
0000
0000
0000
0000
0000
0000
0100
0000
0000
0000
0000
0000
0000
0000
0000
0000
0000
0000
0100
0000
0000
0000
0000
0000
0000
0000
0000
0000
0000
0000
0101
0000
0000
0000
0000
0000
1000
0000
0000
0000
0000
0000
0001
0000
0000
0000
0000
0000
0000
0000
0000
0000
0000
0000
0001
0000
0000
0000
0000
0000
0000
0000
0000
0000
0000
0000
1001
0000
0000
0000
0000
0000
0010
0000
0000
0000
0000
0000
,
0100
0010
0100
0000
0011
0000
0000
0000
2200
0000
0000
0000
3310
0000
0000
0000
1001
0000
0000
0000
0010
0000
0000
0000
0100
0000
0000
0000
0011
0000
0100
0000
,
1001
0000
0010
0000
1100
0000
0001
0000
0110
0000
1010
0000
0100
0000
0011
0100
,
1010
0000
0100
0000
1000
0100
1000
0100
1000
0100
1000
0100
0010
0001
0010
0001
,
0010
0000
0000
0000
0000
0000
0000
0000
0000
0000
0000
0000
0001
0000
0000
0000
0000
0000
0000
0000
0000
0000
0000
0000
0010
0000
0000
0000
0000
0000
0000
0000
0000
0000
0000
0000
0001
0000
0000
0000
0000
0000
0000
0000
0000
0000
0000
0000
0100
0000
0000
0000
0000
0000
1000
0000
0000
0000
0000
0000
0100
0000
0000
0000
0000
0000
1000
0000
0000
0000
0000
0000
0011
0000
0000
0000
0000
0000
0000
0000
0000
0000
0000
0000
0000
0000
0000
0000
0000
0000
0000
0000
0000
0000
0000
0000
0011
0000
0000
0000
0000
0000
0000
0000
0000
0000
0000
0000
0000
0000
0000
0000
0000
0000
0000
0000
0000
0000
0000
0000
0001
0000
0000
0000
0000
0000
0000
0000
0000
0000
0000
0000
0000
0000
0000
0000
0100
0000
0000
0000
0000
0000
0000
0000
0000
0000
0000
0000
0000
0000
0000
0000
1000
0000
0000
0000
0000
0000
0000
0000
0000
0000
0000
0000
0000
0000
0000
0000
0001
0000
0000
0000
0000
0000
0000
0000
0000
0000
0000
0000
0000
0000
0000
0000
0100
0000
0000
0000
0000
0000
0000
0000
,
0000
0000
0000
0000
0000
0000
0000
0000
1000
0000
0000
0000
0000
0000
0000
0000
0000
0000
0000
0000
0000
0000
0000
0000
0011
0000
0000
1000
0000
0000
0000
0000
0000
0000
0000
0000
0000
0000
0000
0000
0000
0000
0000
0000
0000
0000
0000
0000
2020
0000
0000
0000
0000
0000
0000
0000
0000
0000
0000
0000
0000
0000
0000
0000
0000
0000
0000
0000
0000
0030
0000
0000
3110
0000
0000
0000
0000
0000
0000
0000
0000
0000
0000
0000
0000
0000
0000
0000
0000
0000
0000
0000
0000
0000
0000
0000
1010
0000
0000
0000
0000
0000
0000
0000
0000
0000
0000
0000
0001
0000
0000
0000
0000
0000
0000
0000
0000
0000
0000
0000
0110
0000
0000
0000
0000
0000
0000
0000
0000
0000
0000
0000
0000
0000
0000
0000
0000
0000
0000
0000
0000
0000
0000
0000
0100
0000
0000
0000
0000
0000
0000
0000
0000
0000
0000
0000
0000
0000
0000
0000
0000
0000
0000
0000
0000
0000
0000
0000
0101
0000
0000
0000
0000
0000
0000
0000
0000
0000
0000
0000
0000
0000
0000
0000
0000
0000
0000
0000
0000
0000
0000
0000
,
0100
0000
1100
0000
0100
0000
1100
0000
0100
0000
0101
0000
0100
0000
0101
0010
,
1100
0000
0101
0000
0001
0000
0011
0000
0110
0000
0011
0000
0001
1000
0000
1000
,
0011
0000
1001
0000
1000
0001
0000
0001
1010
0000
1001
0000
0001
0000
0011
0100
,
1001
0000
0000
0000
0000
0000
0000
0000
0010
0000
0000
0000
0100
0000
0000
0000
2020
0000
0000
0000
0000
0000
0000
3000
1031
0000
0000
0000
0000
0000
0000
0000
1010
0000
0000
0000
0100
0000
0000
0000
1001
0000
0000
0000
0000
0000
0000
0000
0001
0000
0000
0000
0000
0000
0000
0000
1001
0000
0000
0000
0000
0000
0000
0000
,
1000
0000
1100
0000
0100
0000
1100
0000
0100
0000
0110
0000
0010
0000
0011
1000
,
0101
0000
1000
0000
1010
0000
0110
0000
1010
0000
0110
0000
0100
0010
0000
0010
,
0101
0000
0010
0000
1000
0010
0000
0010
1100
0001
0110
0000
0100
0000
1100
0001
,
1100
0000
0000
0000
0000
0000
0000
0000
0100
0000
0000
0000
0001
0000
0000
0000
2020
0000
0000
0000
0001
0000
0000
3000
1030
0000
0000
0000
0100
0000
0000
0000
0010
0000
0000
0000
0001
0000
0000
0000
1000
0000
0000
0000
0100
0000
0000
0000
0010
0000
0000
0000
0001
0000
0000
0000
1000
0000
0000
0000
0100
0000
0000
0000
,
0010
0000
0000
0000
0001
0000
0000
0000
1000
0000
0000
0000
0001
0000
0000
0000
0220
0000
0000
0000
0001
0000
0000
0030
0310
0000
0000
0000
0100
0000
0000
0000
1000
0000
0000
0000
0001
0000
0000
0000
0010
0000
0000
0000
0100
0000
0000
0000
1000
0000
0000
0000
0001
0000
0000
0000
0010
0000
0000
0000
0100
0000
0000
0000
,
1000
0000
0000
0000
0001
0000
0000
0000
0010
0000
0000
0000
0001
0000
0000
0000
2200
0000
0000
0000
0010
0000
0000
0300
3100
0000
0000
0000
0001
0000
0000
0000
1000
0000
0000
0000
0010
0000
0000
0000
0100
0000
0000
0000
0001
0000
0000
0000
1000
0000
0000
0000
0010
0000
0000
0000
0100
0000
0000
0000
0001
0000
0000
0000
,
1000
0000
0000
0000
0010
0000
0000
0000
0100
0000
0000
0000
0001
0000
0000
0000
0220
0000
0000
0000
1000
0000
0000
0030
0310
0000
0000
0000
0001
0000
0000
0000
0100
0000
0000
0000
1000
0000
0000
0000
0010
0000
0000
0000
0001
0000
0000
0000
0100
0000
0000
0000
1000
0000
0000
0000
0010
0000
0000
0000
0001
0000
0000
0000
,
0220
0000
0000
0000
1000
0000
0000
0030
0310
0000
0000
0000
0001
0000
0000
0000
2020
0000
0100
0000
3031
0000
0000
0000
0010
0000
0001
0000
0010
0000
0000
0000
0001
0000
1000
0000
0000
0000
0100
0000
0001
0000
0000
0000
1000
0000
0001
0000
0100
0000
0001
0000
1000
0000
0000
0000
0010
0000
1000
0000
0010
0000
0000
0000
,
0001
0100
0000
0100
1000
0000
1000
0100
0001
1000
0001
0000
0010
0100
0010
0000
0001
1000
0000
1000
0001
0000
0010
0001
0200
0000
0000
0000
0000
0000
0000
0000
,
1000
0000
0001
0000
0010
0000
0001
0000
0010
1000
0001
1000
0311
0000
1000
0000
,
0100
1001
0001
0100
1001
1000
0100
0110
,
0010
0000
1100
0000
0100
0000
0011
0100
0011
0000
1100
0000
0001
0000
1100
0000
,
0100
0000
1000
0000
0110
0001
0000
0001
1100
0000
0011
0000
0010
1000
0000
1000
,
0101
0100
0110
1010
1001
0101
0011
0001
,
0001
1001
1000
1000
1100
0100
0100
0110
,
0100
0000
1100
0000
0100
0000
0110
1000
0110
0000
0001
0000
0010
0100
0010
0100
,
1001
0000
0000
0000
0100
0000
0000
0000
0110
0000
1000
0000
0000
0000
1000
0000
0011
0000
0000
0000
0010
0000
0000
0000
2000
0000
0002
3000
2000
0003
0002
3000
,
0200
0000
0003
0000
0002
0000
0300
0000
0020
0000
0003
0000
2000
0000
0030
3000
1100
0000
0000
0000
0000
0000
0000
0000
0001
0000
0000
0000
0000
0000
0000
0000
0001
0000
0000
0000
0000
0000
0000
0000
1100
0000
0000
0000
0000
0000
0000
0000
0001
0000
0000
0000
0000
0000
0000
0000
0001
0000
0000
0000
0000
0000
0000
0000
,
0110
0000
0001
0000
0001
0000
1010
0000
0001
0000
0110
0000
0001
0000
1010
0001
,
0110
1100
0101
1000
1000
1000
0110
0011
,
1000
0000
0011
0000
1000
0010
1000
0010
0202
0000
1303
0000
0010
0001
1000
0001
,
2200
0000
0000
0000
0000
0000
0000
0000
3301
0000
0000
0000
0000
0000
0000
0000
0220
0000
0000
0000
0001
0000
0000
0030
0310
0000
0000
0000
1000
0000
0000
0000
0100
0000
0000
0000
0001
0000
0000
0000
0010
0000
0000
0000
1000
0000
0000
0000
0100
0000
0000
0000
0001
0000
0000
0000
0010
0000
0000
0000
1000
0000
0000
0000
,
0100
0000
0000
0000
0001
0000
0000
0000
0010
0000
0000
0000
1000
0000
0000
0000
0202
0000
0000
0000
0010
0000
0000
0003
0301
0000
0000
0000
0100
0000
0000
0000
1000
0000
0000
0000
0010
0000
0000
0000
0001
0000
0000
0000
0100
0000
0000
0000
1000
0000
0000
0000
0010
0000
0000
0000
0001
0000
0000
0000
0100
0000
0000
0000
,
1000
0000
0000
0000
0010
0000
0000
0000
0001
0000
0000
0000
0100
0000
0000
0000
2020
0000
0000
0000
0001
0000
0000
0000
3130
0000
0000
0000
1000
0000
0000
0000
0010
0000
0000
0000
0001
0000
0000
0000
0100
0000
0000
0000
1000
0000
0000
0000
0220
0000
0000
0000
0001
0000
0000
0300
0130
0000
0000
0000
1000
0000
0000
0000
,
0010
0000
0000
0000
0001
0000
0000
0000
0100
0000
0000
0000
1000
0000
0000
0000
0022
0000
0000
0000
1000
0000
0000
0003
0031
0000
0000
0000
0100
0000
0000
0000
0010
0000
0000
0000
1000
0000
0000
0000
0001
0000
0000
0000
0100
0000
0000
0000
0010
0000
0000
0000
1000
0000
0000
0000
0001
0000
0000
0000
0100
0000
0000
0000
,
0022
0000
0000
0000
1000
0000
0000
0003
0031
0000
0000
0000
0100
0000
0000
0000
1001
0000
0000
0000
0000
0000
0000
0000
1000
0000
0000
0000
0100
0000
0000
0000
0011
0000
0000
0000
0000
0000
0000
0000
1000
0000
0000
0000
0000
0000
0000
0000
1001
0000
0000
0000
0100
0000
0000
0000
1000
0000
0000
0000
0100
0000
0000
0000
,
0011
0000
0000
0000
0000
0000
0000
0000
1000
0000
0000
0000
0100
0000
0000
0000
1001
0000
0000
0000
0100
0000
0000
0000
1000
0000
0000
0000
0100
0000
0000
0000
0011
0000
0000
0000
0000
0000
2000
0000
0000
0000
0000
0000
0000
0000
0000
0000
0020
0000
0000
0000
3200
0000
0000
0030
0000
0010
0000
0000
0310
0000
0100
0000
,
0022
1033
0111
0001
1000
0100
1110
0001
,
0100
0000
0100
0000
1110
0000
0100
1001
0100
0000
0100
0000
1011
0000
1000
0000
,
0001
1000
0111
1000
0100
0010
1101
0010
,
0001
0010
1101
0010
1000
0001
1110
0001
,
2020
3130
0111
0100
0010
1000
1110
1000
,
0100
0000
0010
0000
1110
0000
0010
1001
0010
0000
0100
0000
0111
0000
0100
0000
,
0010
1000
0111
1000
0100
1000
1110
0001
,
0100
0000
0001
0000
0111
0000
0111
0000
1000
0001
0100
0010
1101
0000
0110
0000
,
2002
0100
3013
0001
1000
0100
0010
0001
1000
0100
0010
0001
1000
0100
0010
0001
,
0220
1000
0331
0100
0010
1000
0001
0100
0010
1000
0001
0100
0010
1000
0001
0100
,
2020
0000
0000
0000
0001
0000
0000
0000
3130
0000
0000
0000
0001
0000
0000
0000
0100
0000
0000
0000
0001
0000
0000
0000
0100
0000
0000
0000
0001
0000
0000
0000
0220
0000
0000
0000
1000
0000
0000
0300
0130
0000
0000
0000
1000
0000
0000
0000
0100
0000
0000
0000
1000
0000
0000
0000
0100
0000
0000
0000
1000
0000
0000
0000
,
0022
1000
0133
1000
0022
1000
0133
1000
0022
1000
0133
1000
0022
1000
0133
1000
,
0220
0000
0330
0000
0000
0000
0001
0000
0000
0000
0000
0000
0000
0000
0000
0000
0100
0000
0000
0000
0000
0000
0000
0010
0000
0000
0000
0000
0000
0000
1000
0000
0000
0000
0000
0000
0000
0000
0000
0000
0001
0000
0000
0000
0000
0000
0000
0000
0000
0000
0000
0000
0000
0000
0000
0000
0000
0000
0000
0000
0000
0000
0000
0000
;

//---------------dance-single - ----------------
#NOTES:
     dance-single:
     :
     Medium:
     8:
     0.913,0.978,0.899,0.094,0.670,576.000,96.000,10.000,0.000,0.000:
0000
0000
0000
0000
,
0000
0000
1010
1000
1001
1000
0100
1000
,
1001
0000
0010
0000
0100
0000
0010
0000
0011
0000
0001
0000
0100
0000
0010
1000
,
0001
0000
1000
0000
0100
0000
0010
0000
0011
0000
0010
0000
0100
1000
0000
1000
,
0001
0000
1000
0000
0100
0010
0000
0100
0010
0000
0001
0000
0001
0000
0001
0100
,
0010
1000
0001
0000
1001
0000
0001
1000
0010
0000
1000
0000
0100
0010
0000
0100
,
0010
0000
0001
0000
0100
0010
0000
0100
0010
0000
1000
0000
0001
0000
0001
1000
,
0010
1000
0001
0000
1100
0000
1000
0001
0010
0000
0100
0000
1000
0001
0000
1000
,
0001
0000
0010
0000
0001
1000
0000
0001
1000
0000
0010
0000
1000
0100
0000
0100
,
0010
0001
1000
0001
0100
0100
1000
0100
0100
0010
0100
0100
0001
0100
0100
1000
,
0100
0000
0100
0000
0001
0000
0011
0000
0110
0000
1100
0000
1000
0000
0100
0000
0100
0000
0001
0000
0100
0000
0100
0000
1000
0001
1000
0000
0001
0000
0100
0001
,
1000
0001
1000
0000
0100
0000
0000
0000
1010
0000
0000
0000
0100
0000
0000
0000
1001
0000
0000
0000
1000
0000
0000
0000
0001
0000
0000
0000
0011
0000
0000
0000
,
0001
0010
0110
0100
1000
1100
1000
0010
,
1010
0101
0001
0001
0011
0010
0010
0110
,
0100
0000
0000
0000
0000
0000
0000
0000
0000
0000
0000
0000
0000
0000
0000
0000
0000
0000
0000
0000
0000
0000
0000
0000
0100
0000
0000
0000
0000
0000
0000
0000
0000
0000
0000
0000
0000
0000
0000
0000
0000
0000
0000
0000
0000
0000
0000
0000
1000
0000
0000
0000
0000
0000
0100
0000
0000
0000
0000
0000
1000
0000
0000
0000
0000
0000
0100
0000
0000
0000
0000
0000
0010
0000
0000
0000
0000
0000
0000
0000
0000
0000
0000
0000
0000
0000
0000
0000
0000
0000
0000
0000
0000
0000
0000
0000
0010
0000
0000
0000
0000
0000
0000
0000
0000
0000
0000
0000
0000
0000
0000
0000
0000
0000
0000
0000
0000
0000
0000
0000
0001
0000
0000
0000
0000
0000
0000
0000
0000
0000
0000
0000
0000
0000
0000
0000
0000
0000
0000
0000
0000
0000
0000
0000
0000
0000
0000
0000
0000
0000
0000
0000
0100
0000
0000
0000
0000
0000
0000
0000
0000
0000
0000
0000
0000
0000
0000
0000
0000
0000
0000
0000
0000
0000
0000
0000
0000
0000
0000
0000
0000
0000
0000
0000
0001
0000
0000
0000
0000
0000
0000
0000
,
0000
0000
0101
0000
1010
0000
0100
0000
0010
0001
1000
0000
0100
0000
1000
0000
,
1100
0000
0010
0000
0001
0000
0100
0000
1001
0000
0100
0000
0001
0000
0001
1000
,
0100
0000
0010
0000
0001
0000
1000
0000
0110
0000
0001
0000
1000
0010
0000
0100
,
0010
0000
1000
0000
0100
0010
0000
0001
0010
0100
1000
0000
1000
0000
1000
0010
,
0100
0000
0010
1000
0001
0000
0010
0000
0011
0000
1000
0000
0100
0000
1001
0000
,
0010
0000
0001
0000
1100
0000
0010
0000
0100
0000
1001
0000
0100
0000
0010
1000
,
0010
0000
0110
0000
0001
0000
1000
0000
0101
0000
0100
0000
0010
0000
1000
0001
,
0010
0000
0100
0000
1100
0000
0100
0010
0001
0000
1001
0000
1000
0000
0100
0010
,
0001
0000
0001
0010
0100
1000
0100
0000
0010
0001
0010
0000
0100
1000
0100
0000
,
0010
0001
0010
0001
1000
0010
1000
0000
0001
0100
0001
0000
1000
0010
1000
0000
,
0001
0100
0001
0100
0010
0100
0010
0000
1000
0001
1000
0000
0010
0100
0010
0000
,
1000
0001
1000
0001
0100
0001
1000
0100
1000
0010
0100
0001
1000
0100
0010
0000
,
1010
0000
0000
0000
0100
0000
0000
0000
1001
0000
0001
0000
0010
0001
0010
0000
0100
0000
0000
1000
0001
0000
1000
0000
0100
0010
0100
0000
0010
0001
0010
0000
,
0001
0000
0000
0001
1000
0000
0001
0000
0100
0001
0100
0000
0001
0010
0001
0000
0010
0000
0000
0100
1000
0000
0001
0000
1001
0000
0000
0000
0000
0000
0000
0000
,
0100
0000
1000
0000
0010
0000
1000
0000
0010
0100
0001
0100
0010
0000
0000
0000
,
0100
2010
0000
3001
0120
0000
0130
1010
,
0010
0000
0210
0000
0000
0300
0001
0010
0001
0000
0110
0000
1000
0000
0120
0000
,
0000
0000
0130
0000
1100
0000
1001
0000
0001
0000
1001
0000
0000
0001
1000
0001
,
0100
0010
0001
0010
1000
0100
0011
0000
,
0100
0120
0000
0031
1002
0000
1003
1010
,
0100
0000
0102
0000
0000
0003
1000
0010
1000
0000
0001
0000
0010
0001
1000
0001
,
0100
0000
0001
0000
0010
0000
0100
0000
1000
0000
0001
0000
0010
0001
0100
0001
,
0010
1000
0010
0100
1001
0000
0001
0000
0100
0000
0101
0000
0100
0000
0010
0000
,
0110
0000
0010
0000
1000
0000
1010
0000
0100
0000
1001
0000
0001
0000
0010
0001
,
1000
0000
1100
0000
0100
0000
1100
0000
1000
0000
0001
0000
0010
0001
0000
0001
,
1000
0000
1010
0000
1000
0100
0010
0000
0110
0000
0001
0000
0010
0000
0001
0000
,
0101
0010
1100
0010
0001
1010
0100
0001
,
0110
0000
1000
0000
0001
0000
0110
0000
1000
0000
0101
0000
1000
0000
0010
1000
,
0001
0000
0100
0000
0010
1000
0010
1000
0100
0000
1000
0000
0110
0000
0001
0000
,
0010
0000
1000
0000
0001
0010
0001
0010
0100
0000
1000
0000
1001
0000
0011
0000
,
0110
0000
1100
0000
1000
0000
0100
0000
1001
0000
0010
0000
0100
0010
0001
0100
,
0110
0000
0000
0000
0000
0000
0010
0000
1000
0000
0010
0000
0100
0000
0001
0000
1001
0000
0000
0200
0000
0000
0000
0000
0000
0000
0000
0000
0000
0000
0300
0000
,
0110
0001
0011
0100
0100
1000
1010
0100
,
0100
0000
0001
0000
0110
0000
0010
1000
0000
0000
0100
0000
0110
0000
0100
0000
,
1000
0100
0011
0001
0001
1000
0011
1000
,
1000
0000
0010
0000
1001
0000
0001
0010
0000
0000
0100
0000
1001
0000
0100
0000
,
1010
0001
0110
1000
1000
0100
0011
0001
,
0100
0000
0001
0000
0011
0000
0100
0010
0001
0000
1000
0000
0110
0000
0001
0000
,
1000
0010
0110
0100
0001
1000
1001
1000
,
0010
0000
0100
0000
0110
0000
0010
1000
0010
0000
0100
0001
1000
0100
1000
0001
,
0010
0100
0010
0000
0100
1000
0100
0000
1000
0001
1000
0000
0001
0010
0001
0010
,
0100
1000
0100
0000
1000
0001
1000
0000
0010
1000
0010
0000
0100
0010
0100
0010
,
0100
0001
0100
0000
0110
0000
0010
0000
1000
0010
1000
0000
1001
0000
0001
0000
,
0011
0001
1001
1000
1010
0100
0011
0100
,
2002
0000
0000
0000
0000
3003
0000
0000
;
