#TITLE:Chaos Energy;
#SUBTITLE:;
#ARTIST:Zag-X;
#TITLETRANSLIT:;
#SUBTITLETRANSLIT:;
#ARTISTTRANSLIT:;
#CREDIT:;
#BANNER:../fallback-bn.png;
#BACKGROUND:../fallback-bg.png;
#LYRICSPATH:;
#CDTITLE:;
#MUSIC:Chaos Energy.ogg;
#OFFSET:-0.045;
#SAMPLESTART:32.820;
#SAMPLELENGTH:11.620;
#SELECTABLE:YES;
#BPMS:0.000=82.500,8.000=165.000,24.000=330.000,152.000=120.000,155.000=137.000,158.000=98.000,159.000=100.000,160.000=93.000,161.000=75.000,162.000=57.000,163.000=82.500,172.000=165.000,178.000=325.000,182.000=400.000,214.000=420.000,216.000=420.000,220.000=420.000,246.000=440.000,278.000=460.000,310.000=150.000,336.000=300.000,436.000=330.000,438.000=330.000,484.000=165.000;
#STOPS:322.000=0.200
,326.500=0.200
,331.000=0.200
,335.500=0.200
,344.000=0.200
,353.000=0.200
,362.000=0.200
,371.000=0.200
;
#BGCHANGES:;
// cache tags:
#FIRSTBEAT:6.000;
#LASTBEAT:488.000;
#SONGFILENAME:Songs/SSSC PACK/[Rynker] - Chaos Energy/Chaos Energy.sm;
#HASMUSIC:1;
#HASBANNER:1;
#MUSICLENGTH:118.320;
// end cache tags

//---------------dance-single - Rynker----------------
#NOTES:
     dance-single:
     Rynker:
     Challenge:
     13:
     1.000,1.000,0.228,0.135,0.528,834.000,27.000,16.000,76.000,0.000:

0000
0000
0000
0000
,
0000
0000
0000
0000
M000
0M00
00M0
000M
,
1000
0100
1000
0010
0100
0001
0010
0100
1000
0100
1000
0010
0100
0001
0010
0100
,
1000
0010
1000
0010
0100
0001
0010
0100
0010
0001
1000
0001
0100
0010
0200
0000
,
0310
1000
0001
0010
0100
0010
0001
1000
0001
0010
0001
0100
0010
1000
0100
1000
,
0001
0010
0001
1000
0010
0100
0001
1000
0010
0100
0001
1000
0010
0100
0001
0000
,
0001
0200
1000
0000
1300
0000
0100
0001
,
1000
0000
1000
0001
0000
0001
0010
0000
,
0001
0020
1000
0030
1010
0000
0001
0100
,
0010
0000
0010
1000
0000
1000
0001
0000
,
1000
0200
0001
0300
0110
0000
0100
1000
,
0001
0000
0100
0010
0000
1000
0010
0000
,
1000
0020
0001
0030
0011
0000
0010
1000
,
0001
0000
0010
0100
0000
1000
0010
0100
,
0010
0001
0010
0000
0011
0000
1000
0001
,
0010
0000
0100
0010
0000
0001
1000
0000
,
0001
0200
1000
0300
1100
0000
0100
0001
,
1000
0000
0100
0010
0000
0010
0001
0010
,
0001
0010
1000
0000
1010
0000
0010
0001
,
0100
0000
0001
0100
0000
0100
0010
0000
,
0010
0001
0010
0000
1001
0000
0001
0010
,
0100
0000
0010
0001
1000
0001
0100
0000
,
0010
0100
0001
1000
0100
0010
0001
0010
,
0001
1000
0001
0100
0001
0100
0010
1000
,
0100
0010
0001
1000
0001
0010
0100
1000
,
0001
0100
0010
0100
0001
1000
0001
0010
,
0100
0010
0001
1000
0001
0100
0001
1000
,
0100
0010
0001
0100
0010
0100
0010
1000
,
0001
0010
0100
0010
0001
1000
0010
0100
,
0001
0010
0100
1000
0100
1000
0100
1000
,
0001
0100
0010
0100
0010
1000
0001
0010
,
0100
0010
0001
1000
0001
0100
0010
1000
,
0010
0100
0001
1000
0100
0010
0001
0010
,
0100
0010
0001
1000
0001
0100
0010
1000
,
0010
0100
0001
1000
0100
0010
0001
0010
,
0100
0010
0001
1000
0001
0100
0010
1000
,
0001
0010
0100
1000
0010
0100
0001
0010
,
0001
0000
0000
1000
0000
0000
0100
0000
0000
0010
0000
0000
0001
0000
1000
0000
0001
0000
1000
0000
0001
0000
1000
0000
,
0MM2
0000
0000
0000
10M3
0000
0000
0000
0100
000M
0000
M000
0010
0000
0000
0M00
,
0000
0000
00M0
0000
0000
0000
M000
0000
0001
0000
0M00
0000
1000
000M
0000
0000
,
M010
0000
0000
0000
0100
00M0
0000
0000
1002
0M00
0000
0000
1000
00M3
0000
0000
,
0100
0000
0000
M000
0000
0000
0010
0000
0000
0000
0000
0000
0M02
0000
0000
0000
0000
0000
0000
0000
0003
0000
0000
0000
2000
0000
0000
0M00
0000
0000
3000
0000
0000
0000
0000
0000
001M
0000
0000
0000
0000
0000
M100
0000
0000
0000
0000
0000
,
0020
0000
0030
0M00
0000
0000
00M0
0000
2000
0000
30M0
0000
0200
0000
M000
0300
,
M00M
0000
0000
0000
0000
MMMM
0000
0000
,
0000
0000
MMMM
0000
,
0000
0000
0000
0000
1000
0001
0010
0001
,
0010
0000
0001
0100
0001
0000
0100
0001
,
0100
0010
1000
0000
0010
0100
0010
0000
,
0100
0000
0001
0010
0001
0000
0010
0001
,
0100
0010
1000
0000
0100
0010
0100
0010
,
0100
0010
0011
0001
,
0010
0001
1000
0000
0010
1000
0001
0010
,
0100
0000
0000
0010
0000
0000
0001
0010
0100
1000
0000
0000
,
0001
0010
0100
1000
0000
0000
1001
0000
0000
0001
0000
0000
,
1001
0000
1000
0001
0100
0000
0110
0000
,
0010
1000
0001
0000
1000
0001
1000
0001
,
0010
0000
0110
0000
0100
1000
0010
1000
,
0010
0100
0001
0010
0100
0010
0100
0010
,
0100
0000
1000
0000
0010
0100
0001
0100
,
0010
0000
1000
0100
0010
0001
0010
0001
,
1000
0000
0010
0000
0100
0010
0100
0001
,
0100
0000
0010
0000
1010
0000
1000
0100
,
1000
0000
0100
0000
0010
0001
0010
0001
,
0010
0000
0001
0000
1000
0001
1000
0001
,
1000
0000
0001
0000
0100
0010
0100
0010
,
0100
0000
0010
0000
1000
0010
1000
0010
,
1000
0000
0001
0000
0010
0100
0010
0100
,
0010
0001
0010
0000
0001
0100
0010
0100
,
0010
0000
0010
0000
0100
0001
0100
0001
,
0100
0000
0001
0000
1001
0000
1000
0001
,
1000
0000
0100
0000
0010
0100
0010
0100
,
0010
0000
0001
0000
1000
0001
1000
0001
,
1000
0000
0100
0000
0010
0001
0010
0001
,
0010
0000
0001
0000
1000
0001
1000
0001
,
1000
0000
0001
0000
0100
0010
0100
0010
,
0100
0000
0010
0000
1000
0001
1000
0001
,
1000
0000
0100
0000
0010
0001
0010
0001
,
0010
0001
0010
0000
2002
0000
0000
0000
,
3003
0MM0
0000
0000
0000
0000
0000
0000
0000
0000
M0M0
0000
0000
0000
0000
0000
,
0000
0000
0000
0M0M
0000
0000
0000
0000
1000
0100
0010
0000
0011
0000
0001
0100
,
0000
0100
0010
1000
0100
0001
0100
1000
0100
0000
0100
1000
0001
0000
1001
0000
,
1000
0000
0010
0000
0000
0000
0010
0000
0100
0000
0010
1000
0001
0000
0010
0000
0100
0000
0010
0000
0001
0000
0000
0000
1000
0000
0100
0000
0001
0000
0000
0000
,
0001
0100
1000
0000
0001
0010
1000
0010
1000
0010
0001
0000
1010
0000
0100
0001
,
0100
0010
1000
0000
1001
0000
0001
0010
0100
0001
0100
0000
0010
0000
1001
0000
,
0001
1000
0010
010M
1000
000M
0100
M010
,
0000
0M10
1000
0001
M010
0100
0010
0M01
,
1000
0M00
0001
0M10
1000
000M
1010
0M00
,
0010
0000
M001
0000
0100
0000
M010
0000
0100
0000
00M1
0000
1000
0100
0010
0000
,
0001
10M0
0100
00M0
100M
0100
00M1
M000
,
0001
0100
10M0
0000
0M01
0010
100M
0010
,
0001
1M00
0001
00M0
1001
0M00
0001
0010
,
M100
0001
0100
00M0
1001
0M00
1000
001M
,
0100
1000
01M0
0000
0101
00M0
1001
0000
,
1000
0001
0010
0100
0010
0001
1000
0001
,
0100
0010
0100
0001
1000
0100
0010
0100
,
1000
0001
0100
0010
0100
0001
1000
0100
,
0010
0000
0001
0000
1000
0000
0001
0000
0010
0001
1000
0000
0001
0100
0010
0000
,
0100
0001
0010
0001
1000
0001
0100
0010
,
1000
0010
0100
0001
1000
0001
0010
0100
,
0010
0001
1000
0001
0100
0010
1000
0010
,
0100
0000
0001
0000
1000
0000
0100
0000
0000
0010
0000
0000
0001
0000
0010
0000
0100
0000
1000
0000
0000
0001
0000
0000
,
0100
0010
0100
0001
1000
0100
0010
0001
,
0010
0100
1000
0010
0100
0001
0100
0010
,
1000
0100
0010
0001
0100
0010
1000
0100
,
0010
0000
0100
0000
1000
0000
0010
0000
0100
0001
1000
0000
0100
0010
0001
0000
,
1000
0100
0010
0001
1000
0001
0100
0010
,
1000
0010
0100
0001
0010
0100
0010
0001
,
0100
0010
1000
0001
1000
0100
0010
0001
,
1000
0010
0100
0001
1000
0010
0100
0001
1000
0010
0100
0001
,
1000
0000
0000
0000
,
0000
0000
0000
0000
,
1000
0100
0010
0001
0000
0000
0000
0000
0000
0000
0000
0000
,
0000
0000
0000
0000
,
1100
0000
0000
0100
0000
0000
0010
0000
0001
1000
0001
0000
0100
0000
0010
1000
,
0010
0000
0000
0000
0000
0000
1000
0000
0000
0000
0100
0000
0000
0000
0010
0000
0000
0000
0001
0000
0000
0000
0000
0000
0010
0000
0000
0100
0000
0000
0010
0000
0000
0000
0000
0000
0100
0000
0000
0000
0000
0000
0000
0000
0000
0000
0000
0000
,
1000
0000
0000
0100
0000
0000
0010
0000
0001
0000
0100
0000
0010
1000
0000
0000
,
0001
0000
0100
0000
0001
0000
0010
0100
0010
0001
1000
0001
1000
0000
0100
0000
,
1000
0000
0100
0000
0010
0000
0100
0000
0010
0000
0001
0000
0000
0000
1000
0000
0001
0000
0100
0000
0000
0010
0000
0000
,
1000
0000
0001
0100
0001
0000
1000
0000
0100
0010
0001
0000
0010
0000
0000
0001
,
0000
0010
0000
0001
0000
0100
0000
0001
0000
0010
0001
0010
0100
0000
0010
0000
,
0100
0000
0000
1000
0000
0000
0100
0000
0000
0010
0000
0000
0001
0000
0000
0000
1000
0000
0000
0000
0001
0000
0000
0000
0100
0000
0000
0000
0010
0000
0000
0000
0100
0000
0000
0000
0010
0000
0000
0000
1000
0000
0000
0000
0001
0000
0000
0000
,
0020
MM0M
0000
0000
,
0030
0000
0000
0000
;
