#TITLE:United;
#SUBTITLE:(L.A.O.S Remix);
#ARTIST:Our Stolen Theory;
#TITLETRANSLIT:;
#SUBTITLETRANSLIT:;
#ARTISTTRANSLIT:;
#CREDIT:;
#BANNER:../Banner.png;
#BACKGROUND:../BG.png;
#LYRICSPATH:;
#CDTITLE:../CDTitleKIRBY.png;
#MUSIC:United (L.A.O.S Remix).ogg;
#OFFSET:-0.333;
#SAMPLESTART:34.659;
#SAMPLELENGTH:12.000;
#SELECTABLE:YES;
#BPMS:0.000=175.000;
#STOPS:;
#BGCHANGES:;
// cache tags:
#FIRSTBEAT:45.000;
#LASTBEAT:967.000;
#SONGFILENAME:Songs/Index Fusion/United - [Kirby5464]/United.sm;
#HASMUSIC:1;
#HASBANNER:1;
#MUSICLENGTH:332.448;
// end cache tags

//---------------dance-single - ----------------
#NOTES:
     dance-single:
     :
     Challenge:
     16:
     1.000,1.000,0.012,0.716,1.000,3039.000,4.000,238.000,124.000,0.000:

0000
0000
0000
0000
,
0000
0000
0000
0000
,
0000
0000
0000
0000
,
0000
0000
0000
0000
,
0000
0000
0000
0000
,
0000
0000
0000
0000
,
0000
0000
0000
0000
,
0000
0000
0000
0000
,
0000
0000
0000
0000
,
0000
0000
0000
0000
,
0000
0000
0000
0000
,
0000
0000
0000
0000
0002
0003
2000
3000
0002
0003
0100
0000
0010
0000
1000
0000
,
0001
0100
0010
1000
0001
1000
0010
0100
,
0001
0000
1000
0000
0002
0003
0020
0030
0200
0300
1000
0000
0001
0000
0100
0000
,
0001
0010
0100
1000
0001
1000
0010
0100
,
0001
0000
0010
0000
0200
0300
2000
3000
0020
0030
0100
0000
0001
0000
1000
0000
,
0100
0010
0001
1000
0001
0100
0010
1000
,
0001
0000
1000
0000
0200
0300
0020
0030
0002
0003
0100
0000
0001
0000
1000
0000
,
0001
0010
0100
1000
0010
1000
0001
0100
,
0001
0000
1000
0000
1001
0000
0200
0300
0002
0003
2000
3000
0001
0000
0010
0000
,
0100
1000
0001
0100
0001
0010
0100
1000
,
0001
0000
0100
0000
0020
0030
2000
3000
0002
0003
1000
0000
0001
0000
0010
0000
,
0001
1000
0010
1000
0100
1000
0001
0100
,
0010
0000
1000
0000
0002
0003
0200
0300
0002
0003
0010
0000
0001
0000
1000
0000
,
0100
1000
0010
0100
0001
1000
0100
0010
,
0001
0000
1000
0000
0002
0003
0200
0300
0020
0030
1000
0000
0001
0000
1000
0000
,
0100
0010
0001
0100
0001
1000
0001
0010
,
0100
0000
1000
0000
0001
0000
0100
0000
0001
0000
0010
0000
0100
1000
0001
1000
,
0100
0010
0001
0100
0001
1000
0001
0100
,
0010
0000
1000
0000
0010
0000
0100
0000
0001
0000
0010
0000
0001
1000
0100
1000
,
0001
0000
0100
0000
0001
0000
1000
0000
0100
0000
0010
0000
0001
0100
0010
1000
,
0010
0100
0001
1000
0010
0100
0010
1000
,
0001
1000
0100
0010
0001
0010
0100
1000
,
0001
0000
1000
0000
0010
0000
0100
0000
0010
0000
1000
0000
0001
0010
0001
1000
,
0100
0010
0001
1000
0100
0010
0001
1000
,
0001
0100
1001
0010
0100
0010
1000
0001
,
1000
0100
0010
0001
0100
0001
0010
0100
,
1000
0010
1000
0100
0010
0100
1000
0001
,
0010
0001
1000
0100
1000
0001
0100
0001
,
0010
0000
0100
0000
1000
0010
1000
0001
0010
0001
0100
0001
1000
0100
1000
0001
,
0100
0001
0010
0100
1000
0001
0100
0001
0010
0001
1000
0100
1000
0001
0100
0001
,
0010
0100
1000
0010
0100
0001
0010
0100
0010
0001
1000
0100
1000
0010
1000
0001
,
1000
0100
1000
0010
0100
0001
0010
0100
0010
0001
1000
0010
1000
0100
0010
0001
,
2000
3000
0000
0000
0001
0100
0001
1000
0100
1000
0010
0100
0001
1000
0100
0010
,
0001
1000
0001
0100
0010
1000
0001
1000
0100
0010
0001
0100
0001
1000
0001
0010
,
0100
1000
0010
1000
0001
0100
0001
1000
0001
1000
0100
1000
0010
0100
0001
1000
,
0001
0010
0100
1000
0001
0100
0001
0010
0100
1000
0001
0100
0010
1000
0001
1000
,
0001
0010
0001
1000
0010
1000
0100
1000
0001
0100
0010
1000
0001
0100
0001
0010
,
0001
1000
0100
0010
0100
1000
0001
1000
0010
1000
0100
0010
0001
1000
0001
0100
,
0010
1000
0001
0100
0001
0010
0001
1000
0010
0100
0010
1000
0001
1000
0001
0100
,
0001
0010
0100
1000
0010
0100
0001
1000
0001
0100
0010
1000
0010
0100
0001
1000
,
0100
0000
0010
0000
0001
0000
1000
0000
0020
0030
1000
0000
0100
0000
0010
0000
0001
0000
1000
0000
0010
0000
0100
0000
0001
0000
1000
0000
0001
0000
0010
0000
,
0100
1000
0010
0100
0001
1000
0001
0100
0010
1000
0010
0100
0001
1000
0100
0010
,
0001
1000
0010
1000
0100
0010
0001
1000
0010
0100
0001
1000
0100
1000
0010
0100
,
0001
0010
0001
1000
0100
0010
0001
1000
0100
1000
0001
0100
0001
1000
0010
0100
,
0001
0010
0001
1000
0100
0010
0100
1000
0010
0100
0001
0010
0001
1000
0001
0100
,
0020
2030
3200
0320
0032
2003
3020
0230
0302
0023
0230
2300
3002
0203
0320
2030
,
3200
2300
3020
0230
0302
0023
0230
2300
3002
0203
0320
2030
3200
2300
3002
0203
,
0320
2030
3002
0203
0302
0023
0032
2003
3200
0320
0032
2003
3020
0230
0302
0023
,
0032
2003
3200
2300
3020
0130
0001
1000
0001
0010
0100
1000
0001
0100
0001
1000
,
0100
1000
0010
0100
0001
0010
0100
1000
0001
0100
0010
1000
0100
1000
0010
0100
,
0001
0010
0001
1000
0100
0010
0001
1000
0010
1000
0001
0010
0001
1000
0100
0010
,
0001
1000
0010
0100
0010
1000
0100
1000
0001
0100
0010
1000
0100
1000
0001
0010
,
0001
1000
0100
0010
0001
1000
0010
0100
0001
0010
0001
1000
0100
0010
0100
1000
,
0010
0100
0001
1000
0001
0010
0001
1000
0100
0010
0100
1000
0010
0100
0001
1000
,
0001
0010
0001
1000
0100
0010
0100
1000
0010
0100
0001
0010
0001
1000
0100
0010
,
0100
1000
0010
0100
0001
1000
0001
0010
0001
1000
0100
0010
0001
1000
0010
1000
,
0001
1000
0010
0100
0010
1000
0100
0010
0001
0100
0001
1000
0010
1000
0001
0100
,
0010
1000
0100
1000
0001
0010
0100
0010
0001
1000
0001
0100
0010
0100
0001
1000
,
0010
1000
0001
0100
0010
1000
0001
1000
0010
0100
0001
1000
0001
0010
0100
1000
,
0100
0010
0001
1000
0001
0100
0010
0100
0001
1000
0010
1000
0001
0010
0001
1000
,
0010
1000
0001
0010
0001
0100
0010
0100
0001
1000
0010
1000
0001
0010
0100
1000
,
0001
1000
0010
0100
0010
1000
0001
1000
0010
1000
0100
0010
0001
1000
0010
0100
,
0001
0100
0010
1000
0100
0010
0001
1000
0100
1000
0001
1000
0010
0100
0010
1000
,
0001
0010
0001
1000
0010
0100
0001
1000
0001
0010
0100
1000
0100
0010
0001
1000
,
0001
0100
0010
0100
0001
1000
0010
1000
0001
1000
0100
0010
0001
0010
0100
1000
,
0001
1000
0010
0100
0010
1000
0001
0100
0001
1000
0010
0100
0001
1000
0100
0010
,
0100
1000
0001
0010
0001
1000
0010
1000
0001
0100
0010
0100
0001
0010
0100
1000
,
0100
0010
0001
1000
0010
0100
0001
1000
0001
0010
0100
0010
0001
1000
0100
1000
,
0001
0100
0001
1000
0100
0010
0001
0010
0100
1000
0001
1000
0010
0100
0010
1000
,
0001
1000
0100
0010
0001
1000
0001
0010
0100
0010
0001
1000
0001
0100
0010
1000
,
0001
0100
0010
1000
0001
1000
0100
0010
0001
0010
0100
1000
0001
1000
0010
0100
,
0010
1000
0001
1000
0100
0010
0001
0100
0001
1000
0100
1000
0010
1000
0001
0010
,
0001
0100
0001
1000
0100
0010
0001
0100
0010
1000
0100
0010
0100
1000
0001
0010
,
0001
0100
0001
1000
0001
0010
0001
0100
0010
1000
0100
1000
0001
1000
0010
0100
,
0001
0010
0100
0010
0001
1000
0001
0100
0010
1000
0100
1000
0001
1000
0001
0100
,
0010
1000
0100
0010
0100
1000
0001
0010
0001
1000
0010
1000
0100
0010
0001
1000
,
0010
0100
0001
0010
0001
1000
0010
1000
0100
1000
0001
0100
0001
0010
0001
1000
,
0020
2030
3200
2300
3002
0203
0302
2003
3200
2300
3020
0230
0302
2003
3200
2300
,
3020
0230
0320
2030
3002
0203
0302
2003
3200
2300
3020
0230
0302
2003
3200
2300
,
3020
0230
0320
2030
3002
0023
0230
2300
3020
0230
0320
2030
3002
0203
0302
2003
,
3200
0320
0032
0003
1000
0100
1000
0001
0100
0001
0010
0100
1000
0001
0100
0001
,
0010
0001
1000
0100
1000
0001
0100
0001
0010
0100
1000
0010
0100
0001
0010
0100
,
0010
0001
1000
0100
1000
0010
1000
0001
1000
0100
1000
0010
0100
0001
0010
0100
,
0010
0001
1000
0010
1000
0100
0010
0001
1000
0010
1000
0001
0010
0001
0100
0010
,
1000
0100
0010
0001
1000
0010
0100
0001
0010
0001
0100
0010
1000
0100
1000
0001
,
0010
0100
1000
0001
0100
0001
1000
0100
1000
0001
0010
0100
1000
0001
0100
0010
,
0100
0001
0010
0001
1000
0010
0100
0001
0010
0001
1000
0100
1000
0001
0010
0100
,
1000
0001
0100
0010
1000
0100
1000
0001
0010
0100
0010
0001
0100
0010
1000
0001
,
1000
0100
1000
0001
0010
0100
0010
0001
0100
0010
1000
0001
1000
0100
1000
0001
,
0010
0100
0010
0001
0100
0010
1000
0100
1000
0001
0010
0100
0010
0001
0100
0010
,
1000
0001
1000
0100
1000
0001
0010
0100
1000
0001
0100
0001
1000
0001
0100
0010
,
0100
0001
0010
0100
1000
0010
1000
0001
0100
0001
1000
0010
0100
0001
0010
0001
,
1000
0100
0010
0100
1000
0001
1000
0010
0100
0010
1000
0001
0100
0001
1000
0010
,
0100
0001
1000
0001
0100
0010
1000
0001
1000
0100
0010
0001
0010
0100
1000
0001
,
1000
0010
0100
0010
1000
0001
0100
0001
1000
0100
1000
0001
0100
0001
1000
0100
,
1000
0010
0100
0010
1000
0001
0100
0001
1000
0100
0010
0001
1000
0001
0100
0010
,
0100
0001
1000
0001
0100
0001
0010
0100
1000
0001
0100
0010
1000
0010
0100
0001
,
0010
0100
1000
0001
0010
0001
1000
0001
0100
0010
0100
0001
1000
0100
1000
0001
,
0100
0010
1000
0001
1000
0100
0010
0001
0010
0100
1000
0001
1000
0010
0100
0010
,
1000
0001
0100
0001
1000
0001
0010
0100
1000
0100
0010
0001
1000
0001
0100
0010
,
0100
0001
1000
0010
1000
0001
0100
0010
1000
0001
0010
0100
0010
0001
1000
0100
,
1000
0001
0100
0001
1000
0010
0100
0010
1000
0100
0010
0001
0010
0100
1000
0001
,
0100
0010
1000
0001
1000
0100
0010
0100
1000
0001
0010
0001
1000
0010
1000
0001
,
0010
0100
1000
0100
0010
0001
1000
0001
0100
0010
0100
0001
1000
0001
0010
0100
,
1000
0001
1000
0100
0010
0100
1000
0001
1000
0010
0100
0001
1000
0010
0100
0001
,
1000
0001
0010
0100
1000
0100
0010
0001
1000
0001
0100
0010
0100
0001
1000
0001
,
0010
0100
1000
0010
1000
0001
0010
0001
0100
0001
1000
0100
1000
0010
1000
0001
,
0010
0100
1000
0010
0100
0001
0010
0100
0010
0001
1000
0100
1000
0010
1000
0001
,
1000
0100
1000
0010
0100
0001
0010
0001
1000
0001
0100
0010
1000
0100
0010
0100
,
1000
0001
1000
0010
0100
0001
0010
0001
1000
0001
1000
0010
0100
0001
0010
0100
,
0010
0001
1000
0100
1000
0001
0100
0001
0010
0100
1000
0001
0100
0010
1000
0100
,
1000
0001
0100
0001
0010
0001
1000
0010
1000
0100
1000
0001
0010
0100
1000
0001
,
0010
0001
1000
0010
2000
3000
00M0
0000
00M0
0000
00M0
0000
00M0
0000
00M0
0000
,
00M0
00M0
00M0
00M0
00M0
00M0
00M0
00M0
,
00M0
00M0
00M0
00M0
00M0
00M0
00M0
00M0
,
00M0
00M0
00M0
00M0
00M0
00M0
00M0
00M0
,
00M0
00M0
00M0
00M0
00M0
00M0
00M0
00M0
,
00M0
00M0
00M0
00M0
00M0
00M0
00M0
00M0
,
00M0
00M0
00M0
00M0
00M0
00M0
00M0
00M0
,
00M0
00M0
00M0
00M0
00M0
00M0
00M0
00M0
,
00M0
0000
1001
0000
00M0
00M0
00M0
00M0
,
00M0
00M0
00M0
00M0
00M0
00M0
00M0
00M0
,
00M0
00M0
00M0
00M0
00M0
00M0
00M0
00M0
,
00M0
00M0
00M0
00M0
00M0
00M0
00M0
00M0
,
00M0
00M0
00M0
00M0
00M0
00M0
00M0
00M0
,
00M0
00M0
00M0
00M0
00M0
00M0
00M0
00M0
,
00M0
00M0
00M0
00M0
00M0
00M0
00M0
00M0
,
00M0
00M0
00M0
00M0
00M0
00M0
00M0
00M0
,
00M0
00M0
0100
0010
1000
0001
1000
0001
,
0010
0100
1000
0001
1000
0001
0100
0010
,
1000
0001
1000
0100
0010
0001
1000
0010
,
1000
0001
1000
0001
0010
0100
1000
0001
,
1000
0001
0100
0010
0100
0001
1000
0001
,
1000
0001
0010
0001
0010
0100
1000
0100
,
1000
0001
0100
0001
1000
0010
0100
0001
,
1000
0100
1000
0001
0010
0100
0010
0001
,
1000
0001
1001
0010
0100
0010
1000
0001
,
0100
0001
1000
0010
0100
0001
1000
0001
,
0010
0100
1000
0100
1000
0001
1000
0001
,
0100
0010
1000
0001
1000
0001
0100
0010
,
0100
0000
1000
0000
0001
0100
0001
1000
0100
1000
0010
1000
0001
0010
0001
1000
,
0010
1000
0100
0010
0001
1000
0010
1000
0100
1000
0001
0010
0001
1000
0010
1000
,
0100
0010
0001
0100
0010
1000
0100
0010
0100
1000
0001
0010
0001
0100
0001
1000
,
0001
0010
0001
0100
0010
1000
0100
0010
0100
1000
0001
0100
0001
0010
0100
1000
,
0002
0003
0000
0000
1000
0010
1000
0001
0010
0001
0100
0010
1000
0001
0010
0100
,
1000
0001
1000
0010
0100
0001
1000
0001
0010
0100
1000
0010
1000
0001
1000
0100
,
0010
0001
0100
0001
1000
0010
1000
0001
1000
0001
0010
0001
0100
0010
1000
0001
,
1000
0100
0010
0001
1000
0010
1000
0100
0010
0001
1000
0010
0100
0001
1000
0001
,
1000
0100
1000
0001
0100
0001
0010
0001
1000
0010
0100
0001
1000
0010
1000
0100
,
1000
0001
0010
0100
0010
0001
1000
0001
0100
0001
0010
0100
1000
0001
1000
0010
,
0100
0001
1000
0010
1000
0100
1000
0001
0100
0010
0100
0001
1000
0001
1000
0010
,
1000
0100
0010
0001
0100
0010
1000
0001
1000
0010
0100
0001
0100
0010
1000
0001
,
0010
0000
0100
0000
1000
0000
0001
0000
0200
0300
0001
0000
0010
0000
0100
0000
1000
0000
0001
0000
0100
0000
0010
0000
1000
0000
0001
0000
1000
0000
0100
0000
,
0010
0001
0100
0010
1000
0001
1000
0010
0100
0001
0100
0010
1000
0001
0010
0100
,
1000
0001
0100
0001
0010
0100
1000
0001
0100
0010
1000
0001
0010
0001
0100
0010
,
1000
0100
1000
0001
0010
0100
1000
0001
0010
0001
1000
0010
1000
0001
0100
0010
,
1000
0100
1000
0001
0010
0100
0010
0001
0100
0010
1000
0100
1000
0001
1000
0010
,
0200
0302
0023
0230
2300
3002
0203
0320
2030
3200
0320
0032
2003
3020
0230
0302
,
0023
0032
0203
0320
2030
3200
0320
0032
2003
3020
0230
0302
0023
0032
2003
3020
,
0230
0302
2003
3020
2030
3200
2300
3002
0023
0230
2300
3002
0203
0320
2030
3200
,
2300
3002
0023
0032
0203
0310
1000
0001
1000
0100
0010
0001
1000
0010
1000
0001
,
0010
0001
0100
0010
1000
0100
0010
0001
1000
0010
0100
0001
0010
0001
0100
0010
,
1000
0100
1000
0001
0010
0100
1000
0001
0100
0001
1000
0100
1000
0001
0010
0100
,
1000
0001
0100
0010
0100
0001
0010
0001
1000
0010
0100
0001
0010
0001
1000
0100
,
1000
0001
0010
0100
1000
0001
0100
0010
1000
0100
1000
0001
0010
0100
0010
0001
,
0100
0010
1000
0001
1000
0100
1000
0001
0010
0100
0010
0001
0100
0010
1000
0001
,
1000
0100
1000
0001
0010
0100
0010
0001
0100
0010
1000
0100
1000
0001
0010
0100
,
0010
0001
0100
0010
1000
0001
1000
0100
1000
0001
0010
0100
1000
0001
0100
0001
,
1000
0001
0100
0010
0100
0001
0010
0100
1000
0010
1000
0001
0100
0001
1000
0010
,
0100
0001
0010
0001
1000
0100
0010
0100
1000
0001
1000
0010
0100
0010
1000
0001
,
0100
0001
1000
0010
0100
0001
1000
0001
0100
0010
1000
0001
1000
0100
0010
0001
,
0010
0100
1000
0001
1000
0010
0100
0010
1000
0001
0100
0001
1000
0100
1000
0001
,
0100
0001
1000
0100
1000
0010
0100
0010
1000
0001
0100
0001
1000
0100
0010
0001
,
1000
0001
0100
0010
0100
0001
1000
0001
0100
0001
0010
0100
1000
0001
0100
0010
,
1000
0010
0100
0001
0010
0100
1000
0001
0010
0001
1000
0001
0100
0010
0100
0001
,
1000
0100
1000
0001
0100
0010
1000
0001
1000
0100
0010
0001
0010
0100
1000
0001
,
1000
0010
0100
0010
1000
0001
0100
0001
1000
0001
0010
0100
1000
0100
0010
0001
,
1000
0001
0100
0010
0100
0001
1000
0010
1000
0001
0100
0010
1000
0001
0010
0100
,
0010
0001
1000
0100
1000
0001
0100
0001
1000
0010
0100
0010
1000
0100
0010
0001
,
0010
0100
1000
0001
0100
0010
1000
0001
1000
0100
0010
0100
1000
0001
0010
0001
,
1000
0010
1000
0001
0010
0100
1000
0100
0010
0001
1000
0001
0100
0010
0100
0001
,
1000
0001
0010
0100
1000
0001
1000
0100
0010
0100
1000
0001
1000
0010
0100
0001
,
1000
0010
0100
0001
1000
0001
0010
0100
1000
0100
0010
0001
1000
0001
0100
0010
,
0100
0001
1000
0001
0010
0100
1000
0010
1000
0001
0010
0001
0100
0001
1000
0100
,
1000
0010
1000
0001
0010
0100
1000
0010
0100
0001
0010
0100
0010
0001
1000
0100
,
1000
0010
1000
0001
1000
0100
1000
0010
0100
0001
0010
0001
1000
0001
0100
0010
,
1000
0100
0010
0100
1000
0001
1000
0010
0100
0001
0010
0001
1000
0001
1000
0010
,
0100
0001
0010
0100
0010
0001
1000
0100
1000
0001
0100
0001
0010
0100
1000
0001
,
0100
0010
1000
0100
1000
0001
0100
0001
0010
0001
1000
0010
1000
0100
1000
0001
,
0200
0302
0023
0032
2003
3020
2030
3002
0023
0032
0203
0320
2030
3002
0023
0032
,
0203
0320
0230
0302
2003
3020
2030
3002
0023
0032
0203
0320
2030
3002
0023
0032
,
0203
0320
0230
0302
2003
3200
0320
0032
0203
0320
0230
0302
2003
3020
2030
3002
,
0023
0230
2300
3000
0001
0010
0001
1000
0010
1000
0100
0010
0001
1000
0010
1000
,
0100
1000
0001
0010
0001
1000
0010
1000
0100
0010
0001
0100
0010
1000
0100
0010
,
0100
1000
0001
0010
0001
0100
0001
1000
0001
0010
0001
0100
0010
1000
0100
0010
,
0100
1000
0001
0100
0001
0010
0100
1000
0001
0100
0001
1000
0100
1000
0010
0100
,
0001
0010
0100
1000
0001
0100
0010
1000
0100
1000
0010
0100
0001
0010
0001
1000
,
0100
0010
0001
1000
0010
1000
0001
0010
0001
1000
0100
0010
0001
1000
0010
0100
,
0010
1000
0100
1000
0001
0100
0010
1000
0100
1000
0001
0010
0001
1000
0100
0010
,
0001
1000
0010
0100
0001
0010
0001
1000
0100
0010
0100
1000
0010
0100
0001
1000
,
0001
0010
0001
1000
0100
0010
0100
1000
0010
0100
0001
1000
0001
0010
0001
1000
,
0100
0010
0100
1000
0010
0100
0001
0010
0001
1000
0100
0010
0100
1000
0010
0100
,
0001
1000
0001
0010
0001
1000
0100
0010
0001
1000
0010
1000
0001
1000
0010
0100
,
0010
1000
0100
0010
0001
0100
0001
1000
0010
1000
0001
0100
0010
1000
0100
1000
,
0001
0010
0100
0010
0001
1000
0001
0100
0010
0100
0001
1000
0010
1000
0001
0100
,
0010
1000
0001
1000
0010
0100
0001
1000
0001
0010
0100
1000
0100
0010
0001
1000
,
0001
0100
0010
0100
0001
1000
0010
1000
0001
0010
0001
1000
0010
1000
0001
0010
,
0001
0100
0010
0100
0001
1000
0010
1000
0001
0010
0100
1000
0001
1000
0010
0100
,
0010
1000
0001
1000
0010
1000
0100
0010
0001
1000
0010
0100
0001
0100
0010
1000
,
0100
0010
0001
1000
0100
1000
0001
1000
0010
0100
0010
1000
0001
0010
0001
1000
,
0010
0100
0001
1000
0001
0010
0100
1000
0100
0010
0001
1000
0001
0100
0010
0100
,
0001
1000
0010
1000
0001
1000
0100
0010
0001
0010
0100
1000
0001
1000
0010
0100
,
0010
1000
0001
0100
0001
1000
0010
0100
0001
1000
0100
0010
0100
1000
0001
0010
,
0001
1000
0010
1000
0001
0100
0010
0100
0001
0010
0100
1000
0100
0010
0001
1000
,
0010
0100
0001
1000
0001
0010
0100
0010
0001
1000
0100
1000
0001
0100
0001
1000
,
0100
0010
0001
0010
0100
1000
0001
1000
0010
0100
0010
1000
0001
1000
0100
0010
,
0001
1000
0001
0010
0100
0010
0001
1000
0001
0100
0010
1000
0001
0100
0010
1000
,
0001
1000
0100
0010
0001
0010
0100
1000
0001
1000
0010
0100
0010
1000
0001
1000
,
0100
0010
0001
0100
0001
1000
0100
1000
0010
1000
0001
0010
0001
0100
0001
1000
,
0100
0010
0001
0100
0010
1000
0100
0010
0100
1000
0001
0010
0001
0100
0001
1000
,
0001
0010
0001
0100
0010
1000
0100
1000
0001
1000
0010
0100
0001
0010
0100
0010
,
0001
1000
0001
0100
0010
1000
0100
1000
0001
1000
0001
0100
0010
1000
0100
0010
,
0100
1000
0001
0010
0001
1000
0010
1000
0100
0010
0001
1000
0010
0100
0001
0010
,
0001
1000
0010
1000
0100
1000
0001
0100
0001
0010
0001
1000
0100
0010
0001
1000
,
0100
1000
0001
0100
0002
0000
0000
0000
1003
0000
0100
0000
0010
0000
0001
0000
,
0100
0001
0000
0000
1000
0000
0010
0000
,
0100
0100
0100
0100
,
0100
0100
0100
0100
,
0100
0100
0100
0100
,
0100
0100
0100
0100
,
0100
0100
0100
0100
;
