#TITLE:Sunlight Construction;
#SUBTITLE:;
#ARTIST:you;
#TITLETRANSLIT:;
#SUBTITLETRANSLIT:;
#ARTISTTRANSLIT:;
#CREDIT:;
#BANNER:bn.png;
#BACKGROUND:bg.png;
#LYRICSPATH:;
#CDTITLE:;
#MUSIC:Sunlight Construction.ogg;
#OFFSET:0.009;
#SAMPLESTART:104.717;
#SAMPLELENGTH:17.455;
#SELECTABLE:YES;
#BPMS:0.000=220.000;
#STOPS:;
#BGCHANGES:;
// cache tags:
#FIRSTBEAT:32.000;
#LASTBEAT:524.000;
#SONGFILENAME:Songs/SPEEEDCOOOORE 4/Sunlight Construction - [Fraxtil]/Sunlight Construction.sm;
#HASMUSIC:1;
#HASBANNER:1;
#MUSICLENGTH:145.090;
// end cache tags

//---------------dance-single - Fraxtil----------------
#NOTES:
     dance-single:
     Fraxtil:
     Challenge:
     15:
     1.000,1.000,0.434,0.096,0.882,1036.000,63.000,14.000,17.000,0.000:
0000
0000
0000
0000
,
0000
0000
0000
0000
,
0000
0000
0000
0000
,
0000
0000
0000
0000
,
0000
0000
0000
0000
,
0000
0000
0000
0000
,
0000
0000
0000
0000
,
0000
0000
0000
0000
,
2001
3000
0000
0000
0000
0000
0000
0000
0001
0000
0000
0000
0000
0000
0000
0000
0100
0000
0000
0000
0000
0000
0000
0000
0010
0000
0000
0000
0000
0000
0000
0000
,
2000
3000
0000
0000
0000
0000
0000
0000
0100
0000
0000
0000
0000
0000
0000
0000
0010
0000
0000
0000
0000
0000
0000
0000
0001
0000
0000
0000
0000
0000
0000
0000
,
0200
0300
0000
0000
0000
0000
0000
0000
0001
0000
0000
0000
0000
0000
0000
0000
1000
0000
0000
0000
0000
0000
0000
0000
0100
0000
0000
0000
0000
0000
0000
0000
,
0020
0030
0000
0000
0000
0000
0000
0000
0100
0000
0000
0000
0000
0000
0000
0000
1000
0000
0000
0000
0000
0000
0000
0000
0001
0000
0000
0000
0000
0000
0000
0000
,
0102
0003
0000
0000
0000
0000
0000
0000
1000
0000
0000
0000
0000
0000
0000
0000
0100
0000
0000
0000
0000
0000
0000
0000
0010
0000
0000
0000
0000
0000
0000
0000
,
0002
0003
0000
0000
0000
0000
0000
0000
0100
0000
0000
0000
0000
0000
0000
0000
0010
0000
0000
0000
0000
0000
0000
0000
1000
0000
0000
0000
0000
0000
0000
0000
,
020M
0000
0000
0000
0000
0000
0300
0000
0000
0000
0000
0000
0000
0000
0000
0000
000M
0000
0000
0000
0000
0000
0000
0000
0000
0000
0000
0000
0000
0000
0000
0000
000M
0000
0000
0000
0000
0000
0000
0000
0000
0000
0000
0000
0000
0000
0000
0000
001M
0000
0000
0000
0000
0000
0000
0000
0000
0000
0000
0000
0000
0000
0000
0000
000M
0000
0000
0000
0000
0000
0000
0000
0000
0000
0000
0000
0000
0000
0000
0000
000M
0000
0000
0000
0000
0000
0000
0000
0000
0000
0000
0000
0000
0000
0000
0000
010M
0000
0000
0000
0000
0000
0000
0000
0000
0000
0000
0000
0000
0000
0000
0000
000M
0000
0000
0000
0000
0000
0000
0000
0000
0000
0000
0000
0000
0000
0000
0000
000M
0000
0000
0000
0000
0000
0000
0000
0000
0000
0000
0000
0000
0000
0000
0000
100M
0000
0000
0000
0000
0000
0000
0000
0000
0000
0000
0000
0000
0000
0000
0000
000M
0000
0000
0000
0000
0000
0000
0000
0000
0000
0000
0000
0000
0000
0000
0000
000M
0000
0000
0000
0000
0000
0000
0000
0000
0000
0000
0000
0000
0000
0000
0000
,
002M
0030
0000
0000
0400
0000
0000
0000
0000
0000
0000
0000
0000
0000
0000
0000
0304
0000
0000
0000
0000
0000
0000
0000
4003
0000
0000
0000
0000
0000
0000
0000
,
3100
0010
0100
0000
4000
0000
3001
0000
0100
0000
0010
0000
1000
0001
1000
0000
,
0100
0010
0400
0000
1300
0000
0001
0000
0100
0001
0100
0000
0040
0000
1030
0000
,
0001
0000
0010
0000
0100
0000
4000
0000
3010
0000
0100
0000
0001
1000
0001
1000
,
0100
0000
0010
0000
0004
0000
1003
0000
0010
0000
0100
0001
0100
0000
0010
0000
,
1000
0001
0010
0000
0001
1000
0040
0000
,
0130
0001
0100
0001
1000
0100
1000
0100
,
0010
0000
0000
0000
0010
0000
0001
0000
4000
0000
3010
0100
0001
0000
4000
0000
,
3100
0000
0000
0000
0000
0000
0010
0000
0100
0000
0000
0000
1000
0000
0000
0000
0004
0000
0000
0003
0004
0000
0000
0003
0100
0000
0000
0000
0010
0000
0000
0000
,
1000
0001
1000
0000
0100
0000
0010
0100
0010
0000
0004
0000
1003
0000
0010
0000
,
0100
0000
0001
1000
0001
0000
0010
0000
0100
1000
0001
0000
0400
0000
0310
0000
,
1000
0000
0100
0000
0010
0000
0004
0000
0013
0000
0100
0000
1000
0001
0100
0001
,
1000
0000
0100
0000
0040
0000
0031
0000
0100
0000
0010
1000
0040
0000
0130
0000
,
0001
1000
0001
0000
0010
0100
4000
0000
,
3001
0000
0100
0000
0010
1000
0001
0000
1000
0000
0001
0000
0010
0000
0100
0000
,
1000
0100
0010
0001
1000
0000
0001
0000
0400
0000
0310
1000
0001
0000
0040
0000
,
0130
0000
0000
0000
0000
0000
1000
0000
0001
0000
0000
0000
0100
0000
0000
0000
0040
0000
0000
0030
0040
0000
0000
0030
1000
0000
0000
0000
0001
0000
0000
0000
,
1001
0000
0000
0000
1100
0000
0400
0310
,
0011
0000
0000
0000
0001
0000
0000
0000
1000
0010
0100
0010
1000
0000
0001
1000
,
0001
0011
0110
0100
,
4000
0000
3001
0100
,
0110
0010
1000
0000
1001
0000
0001
0000
,
0011
0000
0000
0000
0010
0000
0000
0000
0100
1000
0001
0000
0100
0000
0000
0000
,
0010
1000
0010
0100
0001
1000
0001
0010
0100
0000
0000
0000
1000
0000
0000
0001
,
0100
0000
0010
1000
1001
0000
0001
0000
,
0011
0000
0000
0000
0000
0000
1000
0001
,
1000
0000
0000
0000
0010
0000
0000
0000
0100
0001
1000
0001
0100
0000
0010
1000
,
0001
0000
0000
0010
,
0000
0100
1000
0001
,
1000
0010
0100
0001
1000
0100
0010
0100
1000
0001
0010
0001
1000
0010
0100
0001
,
1000
0100
1000
0001
0100
0010
0100
0001
1000
0100
1000
0010
0100
0001
1000
0001
,
0010
0100
1000
0001
1000
0100
0010
0001
1000
0010
0100
0001
1000
0001
0100
0010
,
1000
0000
0000
1001
,
0001
0001
0010
0010
0100
0100
1000
1000
,
1100
1001
0101
0110
,
0010
0010
1000
1000
0001
0001
0010
0010
,
0001
0000
0000
0000
0001
0000
0000
0000
1001
0000
0000
0000
0000
0000
0000
0000
1000
0000
0010
0000
0100
0000
0001
0000
4000
0000
0000
3000
4000
0000
0000
3000
,
0100
0100
0010
0010
0001
0001
1000
1000
,
0010
0100
0010
0000
1000
0000
1000
0000
0001
0000
0000
0000
0010
0100
0010
0100
,
1000
1000
0001
0001
0100
0100
0010
0010
,
0400
0000
0000
0000
0301
0000
0001
0000
1000
0100
1000
0100
0010
0000
0001
0000
,
1000
0010
0100
0001
1000
0100
1000
0010
0100
0001
0010
0001
1000
0001
0100
0010
,
1000
0010
0100
0001
1000
0010
1000
0100
0010
0001
0100
0001
1000
0001
0010
0100
,
1000
0001
1000
0100
0010
0001
0100
0010
1000
0100
1000
0001
1000
0010
0100
0001
,
1000
0100
1000
0010
0100
0001
0010
0100
1000
0010
1000
0001
0010
0001
0100
0010
,
1000
0100
0010
0001
1000
0010
1000
0100
0010
0001
0100
0001
1000
0001
0010
0100
,
1000
0100
0010
0001
1000
0100
1000
0010
0100
0001
0010
0001
1000
0001
0100
0010
,
1000
0001
1000
0010
0100
0001
0010
0100
1000
0010
1000
0001
1000
0100
0010
0001
,
1000
0010
1000
0100
0010
0001
0100
0010
1000
0100
1000
0001
0100
0000
0000
0000
,
0101
0001
1000
0010
1000
0100
1000
0001
,
0010
0100
1000
0001
0100
0001
1000
1000
,
0001
0000
0100
0000
0010
0000
1000
0000
0100
0000
1000
0001
0100
0000
0010
0000
,
1000
0001
0100
0100
0100
0001
0010
0100
,
1000
0000
0010
0000
0100
0000
0001
0000
0010
0000
0001
0000
0100
0001
1000
0001
,
0010
0100
1000
0010
1000
1000
1000
0001
,
0010
0100
1000
0010
1000
0100
0010
0001
,
0100
0000
0010
0000
1000
0000
0100
0000
0010
0100
0010
0000
0001
0000
1000
0000
,
1001
0001
1000
0100
1000
0010
1000
0001
,
0100
0010
1000
0001
0010
0001
1000
1000
,
0001
0000
0010
0000
0100
0000
1000
0000
0010
0000
1000
0001
0010
0000
0100
0000
,
1000
0001
0100
0100
0100
0001
0010
0100
,
1000
0100
0010
0001
1000
0001
0100
0010
1000
0001
1000
0010
0100
0001
1000
0100
,
1000
0001
0100
0010
1000
0001
0010
0100
1000
0001
1000
0100
0010
0001
1000
0010
,
1000
0001
0010
0100
1000
0001
0100
0010
0100
0001
1000
0010
1000
0001
0010
0001
,
1000
0000
0000
0000
0040
0000
0000
0000
0430
0000
0000
0000
0302
0000
0000
0003
,
1001
1000
0001
1000
0100
0010
0001
1000
,
0010
1000
0100
0010
0001
0100
0001
1000
,
0100
1000
0010
1000
0001
0010
0100
1000
,
0001
0100
0001
0010
0100
1000
0010
1000
,
0100
0010
0100
1000
0001
0100
0010
0100
,
0001
0010
0001
1000
0010
1000
0100
0010
,
0001
0100
0001
1000
0100
0010
0100
1000
,
0010
0100
0001
1000
0100
1000
0010
1000
,
1001
0001
1000
0001
0010
0100
1000
0001
,
0100
0001
0010
0100
1000
0010
1000
0001
,
1001
1000
0010
1000
0001
0010
0100
1000
,
0001
0100
0001
0010
0100
1000
0010
1000
,
0001
0010
0100
0010
0001
1000
0100
1000
0001
0100
0001
1000
0100
0010
0001
1000
,
0010
0100
0001
1000
0010
1000
0001
0010
0001
1000
0010
0100
0001
1000
0010
1000
,
0100
0010
0001
1000
0010
1000
0001
0010
0001
0100
0010
1000
0001
0010
0100
1000
,
0010
0000
0000
0000
0100
0000
0000
0000
0001
0000
1000
0001
1000
0000
0001
0000
,
0010
0100
0010
0000
0004
0000
1003
0000
0010
0000
0100
0000
0001
1000
0001
0000
,
0010
0100
0040
0000
0031
0000
1000
0000
0010
1000
0010
0000
0400
0000
0301
0000
,
1000
0000
0100
0000
0010
0000
0004
0000
0103
0000
0010
0000
1000
0001
1000
0001
,
0010
0000
0100
0000
4000
0000
3001
0000
0100
0000
0010
1000
0010
0000
0100
0000
,
0001
1000
0100
0000
1000
0001
0400
0000
,
0310
1000
0010
1000
0001
0010
0001
0010
,
0100
0000
0000
0000
0100
0000
1000
0000
0004
0000
0103
0010
1000
0000
0004
0000
,
0013
0000
0000
0000
0000
0000
0100
0000
0010
0000
0000
0000
0001
0000
0000
0000
4000
0000
0000
3000
4000
0000
0000
3000
0010
0000
0000
0000
0100
0000
0000
0000
,
0001
1000
0001
0000
0010
0000
0100
0010
0100
0000
4000
0000
3001
0000
0100
0000
,
0010
0000
1000
0001
1000
0000
0100
0000
0010
0001
1000
0000
0040
0000
0130
0000
,
0001
0000
0010
0000
0100
0000
4000
0000
3100
0000
0010
0000
0001
1000
0010
1000
,
0001
0000
0010
0000
0400
0000
1300
0000
0010
0000
0100
0001
0400
0000
0310
0000
,
1000
0001
1000
0000
0100
0010
0004
0000
,
1003
0010
0100
0001
1000
0001
0010
0100
,
1000
0100
0010
0001
1000
0000
0001
0000
0400
0000
0310
1000
0001
0000
0040
0000
,
0130
0000
1000
0010
1000
0000
0001
0010
0001
0000
1000
0100
1000
0000
0004
0000
,
0103
0000
0010
0000
1000
0000
0010
0000
0100
0000
0001
0000
0010
0100
0010
0000
,
0001
0000
0100
0000
0010
0000
1000
0000
0100
0000
1000
0000
0001
0100
0020
0000
,
0000
0000
1030
0000
0100
0000
0010
0000
0001
0000
0100
0010
1000
0010
0100
0000
,
0001
0010
0001
0001
0001
0100
0010
2000
,
0000
0000
3100
0000
0010
0000
0001
0000
0100
0000
0010
0000
1000
0001
0010
0001
,
1000
0000
0010
0000
0100
0000
0001
0000
1000
0000
1000
0000
0001
0010
0100
0000
,
1000
0000
0010
0000
0100
0000
0001
0000
0010
0000
0100
0000
1000
0001
0200
0000
,
0000
0000
0310
0000
1000
0000
0001
0000
0010
0100
1000
0000
0010
0100
0002
0000
,
0000
0000
0013
0000
0001
0000
0010
0000
0100
0000
1000
0000
0010
0100
0010
0000
,
1000
0000
0100
0000
0010
0000
0001
0000
0100
0000
0001
0000
1000
0100
0020
0000
,
0000
0000
0031
0000
0100
0000
0010
0000
1000
0000
0100
0010
0001
0010
0100
0000
,
1000
0010
1000
1000
1000
0100
0010
0001
,
1000
0010
1000
0001
0010
0100
1000
0001
0100
0001
1000
0100
0010
0001
1000
0010
,
1000
0001
0010
0001
1000
0010
0100
0001
1000
0100
1000
0001
0100
0010
1000
0001
,
0010
0100
1000
0001
1000
0010
0100
0001
1000
0001
0010
0100
0010
0001
1000
0010
,
0100
0001
0010
0001
4000
0000
3010
0100
,
011M
0000
0000
0000
,
00M0
0000
0000
0000
,
0M00
0000
0000
0000
,
M000
0000
0000
0000
;

//---------------dance-single - Fraxtil----------------
#NOTES:
     dance-single:
     Fraxtil:
     Hard:
     14:
     1.000,1.000,0.469,0.096,0.703,974.000,68.000,14.000,17.000,0.000:
0000
0000
0000
0000
,
0000
0000
0000
0000
,
0000
0000
0000
0000
,
0000
0000
0000
0000
,
0000
0000
0000
0000
,
0000
0000
0000
0000
,
0000
0000
0000
0000
,
0000
0000
0000
0000
,
2001
3000
0000
0000
0000
0000
0000
0000
0001
0000
0000
0000
0000
0000
0000
0000
0100
0000
0000
0000
0000
0000
0000
0000
0010
0000
0000
0000
0000
0000
0000
0000
,
2000
3000
0000
0000
0000
0000
0000
0000
0100
0000
0000
0000
0000
0000
0000
0000
0010
0000
0000
0000
0000
0000
0000
0000
0001
0000
0000
0000
0000
0000
0000
0000
,
0200
0300
0000
0000
0000
0000
0000
0000
0001
0000
0000
0000
0000
0000
0000
0000
1000
0000
0000
0000
0000
0000
0000
0000
0100
0000
0000
0000
0000
0000
0000
0000
,
0020
0030
0000
0000
0000
0000
0000
0000
0100
0000
0000
0000
0000
0000
0000
0000
1000
0000
0000
0000
0000
0000
0000
0000
0001
0000
0000
0000
0000
0000
0000
0000
,
0102
0003
0000
0000
0000
0000
0000
0000
1000
0000
0000
0000
0000
0000
0000
0000
0100
0000
0000
0000
0000
0000
0000
0000
0010
0000
0000
0000
0000
0000
0000
0000
,
0002
0003
0000
0000
0000
0000
0000
0000
0100
0000
0000
0000
0000
0000
0000
0000
0010
0000
0000
0000
0000
0000
0000
0000
1000
0000
0000
0000
0000
0000
0000
0000
,
020M
0000
0000
0000
0000
0000
0300
0000
0000
0000
0000
0000
0000
0000
0000
0000
000M
0000
0000
0000
0000
0000
0000
0000
0000
0000
0000
0000
0000
0000
0000
0000
000M
0000
0000
0000
0000
0000
0000
0000
0000
0000
0000
0000
0000
0000
0000
0000
001M
0000
0000
0000
0000
0000
0000
0000
0000
0000
0000
0000
0000
0000
0000
0000
000M
0000
0000
0000
0000
0000
0000
0000
0000
0000
0000
0000
0000
0000
0000
0000
000M
0000
0000
0000
0000
0000
0000
0000
0000
0000
0000
0000
0000
0000
0000
0000
010M
0000
0000
0000
0000
0000
0000
0000
0000
0000
0000
0000
0000
0000
0000
0000
000M
0000
0000
0000
0000
0000
0000
0000
0000
0000
0000
0000
0000
0000
0000
0000
000M
0000
0000
0000
0000
0000
0000
0000
0000
0000
0000
0000
0000
0000
0000
0000
100M
0000
0000
0000
0000
0000
0000
0000
0000
0000
0000
0000
0000
0000
0000
0000
000M
0000
0000
0000
0000
0000
0000
0000
0000
0000
0000
0000
0000
0000
0000
0000
000M
0000
0000
0000
0000
0000
0000
0000
0000
0000
0000
0000
0000
0000
0000
0000
,
002M
0030
0000
0000
0400
0000
0000
0000
0000
0000
0000
0000
0000
0000
0000
0000
0304
0000
0000
0000
0000
0000
0000
0000
4003
0000
0000
0000
0000
0000
0000
0000
,
3100
0010
0100
0000
4000
0000
3001
0000
0100
0000
0010
0000
1000
0001
1000
0000
,
0100
0010
0400
0000
1300
0000
0001
0000
0100
0001
0100
0000
0040
0000
1030
0000
,
0001
0000
0010
0000
0100
0000
4000
0000
3010
0000
0100
0000
0001
1000
0001
1000
,
0100
0000
0010
0000
0004
0000
1003
0000
0010
0000
0100
0001
0100
0000
0010
0000
,
1000
0001
0010
0000
0001
1000
0040
0000
,
0130
0001
0100
0001
1000
0100
1000
0100
,
0010
0000
0000
0000
0010
0000
0001
0000
4000
0000
3010
0100
0001
0000
4000
0000
,
3100
0000
0000
0000
0000
0000
0010
0000
0100
0000
0000
0000
1000
0000
0000
0000
0004
0000
0000
0003
0004
0000
0000
0003
0100
0000
0000
0000
0010
0000
0000
0000
,
1000
0001
1000
0000
0100
0000
0010
0100
0010
0000
0004
0000
1003
0000
0010
0000
,
0100
0000
0001
1000
0001
0000
0010
0000
0100
1000
0001
0000
0400
0000
0310
0000
,
1000
0000
0100
0000
0010
0000
0004
0000
0013
0000
0100
0000
1000
0001
0100
0001
,
1000
0000
0100
0000
0040
0000
0031
0000
0100
0000
0010
1000
0040
0000
0130
0000
,
0001
1000
0001
0000
0010
0100
4000
0000
,
3001
0000
0100
0000
0010
1000
0001
0000
1000
0000
0001
0000
0010
0000
0100
0000
,
1000
0100
0010
0001
1000
0000
0001
0000
0400
0000
0310
1000
0001
0000
0040
0000
,
0130
0000
0000
0000
0000
0000
1000
0000
0001
0000
0000
0000
0100
0000
0000
0000
0040
0000
0000
0030
0040
0000
0000
0030
1000
0000
0000
0000
0001
0000
0000
0000
,
1001
0000
0000
0000
1100
0000
0400
0310
,
0011
0000
0000
0000
0001
0000
0000
0000
1000
0010
0100
0010
1000
0000
0001
1000
,
0001
0011
0110
0100
,
4000
0000
3001
0100
,
0110
0010
1000
0000
1001
0000
0001
0000
,
0011
0000
0000
0000
0010
0000
0000
0000
0100
1000
0001
0000
0100
0000
0000
0000
,
0010
1000
0010
0100
0001
1000
0001
0010
0100
0000
0000
0000
1000
0000
0000
0001
,
0100
0000
0010
1000
1001
0000
0001
0000
,
0011
0000
0000
0000
0000
0000
1000
0001
,
1000
0000
0000
0000
0010
0000
0000
0000
0100
0001
1000
0001
0100
0000
0010
1000
,
0001
0000
0000
0010
,
0000
0100
1000
0001
,
1000
0010
0100
0001
1000
0100
0010
0100
1000
0001
0010
0001
1000
0010
0100
0001
,
1000
0100
1000
0001
0100
0010
0100
0001
1000
0100
1000
0010
0100
0001
1000
0001
,
0010
0100
1000
0001
1000
0100
0010
0001
1000
0010
0100
0001
1000
0001
0100
0010
,
1000
0000
0000
1001
,
0001
0001
0010
0010
0100
0100
1000
1000
,
1100
1001
0101
0110
,
0010
0010
1000
1000
0001
0001
0010
0010
,
0001
0000
0000
0000
0001
0000
0000
0000
1001
0000
0000
0000
0000
0000
0000
0000
1000
0000
0010
0000
0100
0000
0001
0000
4000
0000
0000
3000
4000
0000
0000
3000
,
0100
0100
0010
0010
0001
0001
1000
1000
,
0010
0100
0010
0000
1000
0000
1000
0000
0001
0000
0000
0000
0010
0100
0010
0100
,
1000
1000
0001
0001
0100
0100
0010
0010
,
0400
0000
0000
0000
0301
0000
0001
0000
1000
0100
1000
0100
0010
0000
0001
0000
,
1000
1000
0100
0100
0010
0010
0001
0001
,
1000
1000
1001
0000
1010
0000
0110
0000
,
0100
0100
0001
0001
1000
1000
0100
0100
,
1000
0000
0000
0000
1000
0000
0000
0000
1001
0000
0000
0000
0000
0000
0000
0000
0001
0000
0100
0000
0010
0000
1000
0000
0004
0000
0000
0003
0004
0000
0000
0003
,
0010
0010
0100
0100
1000
1000
0001
0001
,
0100
0010
0100
0000
0001
0000
0001
0000
1000
0100
0010
0001
1000
0000
0010
1000
,
0001
0001
1000
1000
0010
0010
0100
0100
,
0040
0000
0000
0000
1030
0000
1000
0000
0100
1000
0100
1000
0001
0000
0000
0000
,
0101
0001
1000
0010
1000
0100
1000
0001
,
0010
0100
1000
0001
0100
0001
1000
1000
,
0001
0000
0100
0000
0010
0000
1000
0000
0100
0000
1000
0001
0100
0000
0010
0000
,
1000
0001
0100
0100
0100
0001
0010
0100
,
1000
0000
0010
0000
0100
0000
0001
0000
0010
0000
0001
0000
0100
0001
1000
0001
,
0010
0100
1000
0010
1000
1000
1000
0001
,
0010
0100
1000
0010
1000
0100
0010
0001
,
0100
0000
0010
0000
1000
0000
0100
0000
0010
0100
0010
0000
0001
0000
1000
0000
,
1001
0001
1000
0100
1000
0010
1000
0001
,
0100
0010
1000
0001
0010
0001
1000
1000
,
0001
0000
0010
0000
0100
0000
1000
0000
0010
0000
1000
0001
0010
0000
0100
0000
,
1000
0001
0100
0100
0100
0001
0010
0100
,
1000
0100
0010
0001
1000
0001
0100
0010
1000
0001
1000
0010
0100
0001
1000
0100
,
1000
0001
0100
0010
1000
0001
0010
0100
1000
0001
1000
0100
0010
0001
1000
0010
,
1000
0001
0010
0100
1000
0001
0100
0010
0100
0001
1000
0010
1000
0001
0010
0001
,
1000
0000
0000
0000
0040
0000
0000
0000
0430
0000
0000
0000
0302
0000
0000
0003
,
1001
1000
0001
1000
0100
0010
0001
1000
,
0010
1000
0100
0010
0001
0100
0001
1000
,
0100
1000
0010
1000
0001
0010
0100
1000
,
0001
0100
0001
0010
0100
1000
0010
1000
,
0100
0010
0100
1000
0001
0100
0010
0100
,
0001
0010
0001
1000
0010
1000
0100
0010
,
0001
0100
0001
1000
0100
0010
0100
1000
,
0010
0100
0001
1000
0100
1000
0010
1000
,
1001
0001
1000
0001
0010
0100
1000
0001
,
0100
0001
0010
0100
1000
0010
1000
0001
,
1001
1000
0010
1000
0001
0010
0100
1000
,
0001
0100
0001
0010
0100
1000
0010
1000
,
0001
0010
0100
0010
0001
1000
0100
1000
0001
0100
0001
1000
0100
0010
0001
1000
,
0010
0100
0001
1000
0010
1000
0001
0010
0001
1000
0010
0100
0001
1000
0010
1000
,
0100
0010
0001
1000
0010
1000
0001
0010
0001
0100
0010
1000
0001
0010
0100
1000
,
0010
0000
0000
0000
0100
0000
0000
0000
0001
0000
1000
0001
1000
0000
0001
0000
,
0010
0100
0010
0000
0004
0000
1003
0000
0010
0000
0100
0000
0001
1000
0001
0000
,
0010
0100
0040
0000
0031
0000
1000
0000
0010
1000
0010
0000
0400
0000
0301
0000
,
1000
0000
0100
0000
0010
0000
0004
0000
0103
0000
0010
0000
1000
0001
1000
0001
,
0010
0000
0100
0000
4000
0000
3001
0000
0100
0000
0010
1000
0010
0000
0100
0000
,
0001
1000
0100
0000
1000
0001
0400
0000
,
0310
1000
0010
1000
0001
0010
0001
0010
,
0100
0000
0000
0000
0100
0000
1000
0000
0004
0000
0103
0010
1000
0000
0004
0000
,
0013
0000
0000
0000
0000
0000
0100
0000
0010
0000
0000
0000
0001
0000
0000
0000
4000
0000
0000
3000
4000
0000
0000
3000
0010
0000
0000
0000
0100
0000
0000
0000
,
0001
1000
0001
0000
0010
0000
0100
0010
0100
0000
4000
0000
3001
0000
0100
0000
,
0010
0000
1000
0001
1000
0000
0100
0000
0010
0001
1000
0000
0040
0000
0130
0000
,
0001
0000
0010
0000
0100
0000
4000
0000
3100
0000
0010
0000
0001
1000
0010
1000
,
0001
0000
0010
0000
0400
0000
1300
0000
0010
0000
0100
0001
0400
0000
0310
0000
,
1000
0001
1000
0000
0100
0010
0004
0000
,
1003
0010
0100
0001
1000
0001
0010
0100
,
1000
0100
0010
0001
1000
0000
0001
0000
0400
0000
0310
1000
0001
0000
0040
0000
,
0130
0000
1000
0010
1000
0000
0001
0010
0001
0000
1000
0100
1000
0000
0004
0000
,
0103
0000
0010
0000
1000
0000
0010
0000
0100
0000
0001
0000
0010
0100
0010
0000
,
0001
0000
0100
0000
0010
0000
1000
0000
0100
0000
1000
0000
0001
0100
0020
0000
,
0000
0000
1030
0000
0100
0000
0010
0000
0001
0000
0100
0010
1000
0010
0100
0000
,
0001
0010
0001
0001
0001
0100
0010
2000
,
0000
0000
3100
0000
0010
0000
0001
0000
0100
0000
0010
0000
1000
0001
0010
0001
,
1000
0000
0010
0000
0100
0000
0001
0000
1000
0000
1000
0000
0001
0010
0100
0000
,
1000
0000
0010
0000
0100
0000
0001
0000
0010
0000
0100
0000
1000
0001
0200
0000
,
0000
0000
0310
0000
1000
0000
0001
0000
0010
0100
1000
0000
0010
0100
0002
0000
,
0000
0000
0013
0000
0001
0000
0010
0000
0100
0000
1000
0000
0010
0100
0010
0000
,
1000
0000
0100
0000
0010
0000
0001
0000
0100
0000
0001
0000
1000
0100
0020
0000
,
0000
0000
0031
0000
0100
0000
0010
0000
1000
0000
0100
0010
0001
0010
0100
0000
,
1000
0010
1000
1000
1000
0100
0010
0001
,
1000
0010
1000
0001
0010
0100
1000
0001
0100
0001
1000
0100
0010
0001
1000
0010
,
1000
0001
0010
0001
1000
0010
0100
0001
1000
0100
1000
0001
0100
0010
1000
0001
,
0010
0100
1000
0001
1000
0010
0100
0001
1000
0001
0010
0100
0010
0001
1000
0010
,
0100
0001
0010
0001
4000
0000
3010
0100
,
011M
0000
0000
0000
,
00M0
0000
0000
0000
,
0M00
0000
0000
0000
,
M000
0000
0000
0000
;

//---------------dance-single - Fraxtil----------------
#NOTES:
     dance-single:
     Fraxtil:
     Medium:
     13:
     0.994,1.000,0.503,0.103,0.507,909.000,73.000,15.000,17.000,0.000:
0000
0000
0000
0000
,
0000
0000
0000
0000
,
0000
0000
0000
0000
,
0000
0000
0000
0000
,
0000
0000
0000
0000
,
0000
0000
0000
0000
,
0000
0000
0000
0000
,
0000
0000
0000
0000
,
2001
3000
0000
0000
0000
0000
0000
0000
0001
0000
0000
0000
0000
0000
0000
0000
0100
0000
0000
0000
0000
0000
0000
0000
0010
0000
0000
0000
0000
0000
0000
0000
,
2000
3000
0000
0000
0000
0000
0000
0000
0100
0000
0000
0000
0000
0000
0000
0000
0010
0000
0000
0000
0000
0000
0000
0000
0001
0000
0000
0000
0000
0000
0000
0000
,
0200
0300
0000
0000
0000
0000
0000
0000
0001
0000
0000
0000
0000
0000
0000
0000
1000
0000
0000
0000
0000
0000
0000
0000
0100
0000
0000
0000
0000
0000
0000
0000
,
0020
0030
0000
0000
0000
0000
0000
0000
0100
0000
0000
0000
0000
0000
0000
0000
1000
0000
0000
0000
0000
0000
0000
0000
0001
0000
0000
0000
0000
0000
0000
0000
,
0102
0003
0000
0000
0000
0000
0000
0000
1000
0000
0000
0000
0000
0000
0000
0000
0100
0000
0000
0000
0000
0000
0000
0000
0010
0000
0000
0000
0000
0000
0000
0000
,
0002
0003
0000
0000
0000
0000
0000
0000
0100
0000
0000
0000
0000
0000
0000
0000
0010
0000
0000
0000
0000
0000
0000
0000
1000
0000
0000
0000
0000
0000
0000
0000
,
020M
0000
0000
0000
0000
0000
0300
0000
0000
0000
0000
0000
0000
0000
0000
0000
000M
0000
0000
0000
0000
0000
0000
0000
0000
0000
0000
0000
0000
0000
0000
0000
000M
0000
0000
0000
0000
0000
0000
0000
0000
0000
0000
0000
0000
0000
0000
0000
001M
0000
0000
0000
0000
0000
0000
0000
0000
0000
0000
0000
0000
0000
0000
0000
000M
0000
0000
0000
0000
0000
0000
0000
0000
0000
0000
0000
0000
0000
0000
0000
000M
0000
0000
0000
0000
0000
0000
0000
0000
0000
0000
0000
0000
0000
0000
0000
010M
0000
0000
0000
0000
0000
0000
0000
0000
0000
0000
0000
0000
0000
0000
0000
000M
0000
0000
0000
0000
0000
0000
0000
0000
0000
0000
0000
0000
0000
0000
0000
000M
0000
0000
0000
0000
0000
0000
0000
0000
0000
0000
0000
0000
0000
0000
0000
100M
0000
0000
0000
0000
0000
0000
0000
0000
0000
0000
0000
0000
0000
0000
0000
000M
0000
0000
0000
0000
0000
0000
0000
0000
0000
0000
0000
0000
0000
0000
0000
000M
0000
0000
0000
0000
0000
0000
0000
0000
0000
0000
0000
0000
0000
0000
0000
,
002M
0030
0000
0000
0400
0000
0000
0000
0000
0000
0000
0000
0000
0000
0000
0000
0304
0000
0000
0000
0000
0000
0000
0000
4003
0000
0000
0000
0000
0000
0000
0000
,
3100
0010
0100
0000
4000
0000
3001
0000
0100
0000
0010
0000
1000
0001
1000
0000
,
0100
0010
0400
0000
1300
0000
0001
0000
0100
0001
0100
0000
0040
0000
1030
0000
,
0001
0000
0010
0000
0100
0000
4000
0000
3010
0000
0100
0000
0001
1000
0001
1000
,
0100
0000
0010
0000
0004
0000
1003
0000
0010
0000
0100
0001
0100
0000
0010
0000
,
1000
0001
0010
0000
0001
1000
0040
0000
,
0130
0001
0100
0001
1000
0100
1000
0100
,
0010
0000
0000
0000
0010
0000
0001
0000
4000
0000
3010
0100
0001
0000
4000
0000
,
3100
0000
0000
0000
0000
0000
0010
0000
0100
0000
0000
0000
1000
0000
0000
0000
0004
0000
0000
0003
0004
0000
0000
0003
0100
0000
0000
0000
0010
0000
0000
0000
,
1000
0001
1000
0000
0100
0000
0010
0100
0010
0000
0004
0000
1003
0000
0010
0000
,
0100
0000
0001
1000
0001
0000
0010
0000
0100
1000
0001
0000
0400
0000
0310
0000
,
1000
0000
0100
0000
0010
0000
0004
0000
0013
0000
0100
0000
1000
0001
0100
0001
,
1000
0000
0100
0000
0040
0000
0031
0000
0100
0000
0010
1000
0040
0000
0130
0000
,
0001
1000
0001
0000
0010
0100
4000
0000
,
3001
0000
0100
0000
0010
1000
0001
0000
1000
0000
0001
0000
0010
0000
0100
0000
,
1000
0100
0010
0001
1000
0000
0001
0000
0400
0000
0310
1000
0001
0000
0040
0000
,
0130
0000
0000
0000
0000
0000
1000
0000
0001
0000
0000
0000
0100
0000
0000
0000
0040
0000
0000
0030
0040
0000
0000
0030
1000
0000
0000
0000
0001
0000
0000
0000
,
1001
0000
0000
0000
1100
0000
0400
0310
,
0011
0000
0000
0000
0001
0000
0000
0000
1000
0010
0100
0010
1000
0000
0001
1000
,
0001
0011
0110
0100
,
4000
0000
3001
0100
,
0110
0010
1000
0000
1001
0000
0001
0000
,
0011
0000
0000
0000
0010
0000
0000
0000
0100
1000
0001
0000
0100
0000
0000
0000
,
0010
1000
0010
0100
0001
1000
0001
0010
0100
0000
0000
0000
1000
0000
0000
0001
,
0100
0000
0010
1000
1001
0000
0001
0000
,
0011
0000
0000
0000
0000
0000
1000
0001
,
1000
0000
0000
0000
0010
0000
0000
0000
0100
0001
1000
0001
0100
0000
0010
1000
,
0001
0000
0000
0010
,
0000
0100
1000
0001
,
0101
0100
0010
0000
0000
0000
1000
0000
,
1001
0000
0000
0000
0001
0000
0000
0000
0010
0100
0010
0100
1000
0000
0000
0000
,
0001
0100
0001
0100
0010
1000
0001
0010
0100
1000
0100
1000
0001
0100
0010
1000
,
0001
0000
0000
1001
,
0001
0001
0010
0010
0100
0100
1000
1000
,
1100
1001
0101
0110
,
0010
0010
1000
1000
0001
0001
0010
0010
,
0001
0000
0000
0000
0001
0000
0000
0000
1001
0000
0000
0000
0000
0000
0000
0000
1000
0000
0010
0000
0100
0000
0001
0000
4000
0000
0000
3000
4000
0000
0000
3000
,
0100
0100
0010
0010
0001
0001
1000
1000
,
0010
0100
0010
0000
1000
0000
1000
0000
0001
0000
0000
0000
0010
0100
0010
0100
,
1000
1000
0001
0001
0100
0100
0010
0010
,
0400
0000
0000
0000
0301
0000
0001
0000
1000
0100
1000
0100
0010
0000
0001
0000
,
1000
1000
0100
0100
0010
0010
0001
0001
,
1000
1000
1001
0000
1010
0000
0110
0000
,
0100
0100
0001
0001
1000
1000
0100
0100
,
1000
0000
0000
0000
1000
0000
0000
0000
1001
0000
0000
0000
0000
0000
0000
0000
0001
0000
0100
0000
0010
0000
1000
0000
0004
0000
0000
0003
0004
0000
0000
0003
,
0010
0010
0100
0100
1000
1000
0001
0001
,
0100
0010
0100
0000
0001
0000
0001
0000
1000
0100
0010
0001
1000
0000
0010
1000
,
0001
0001
1000
1000
0010
0010
0100
0100
,
0040
0000
0000
0000
1030
0000
1000
0000
0100
1000
0100
1000
0001
0000
0000
0000
,
0101
0001
1000
0010
1000
0100
1000
0001
,
0010
0100
1000
0001
0100
0001
1000
1000
,
0001
0000
0100
0000
0010
0000
1000
0000
0100
0000
1000
0001
0100
0000
0010
0000
,
1000
0001
0100
0100
0100
0001
0010
0100
,
1000
0000
0010
0000
0100
0000
0001
0000
0010
0000
0001
0000
0100
0001
1000
0001
,
0010
0100
1000
0010
1000
1000
1000
0001
,
0010
0100
1000
0010
1000
0100
0010
0001
,
0100
0000
0010
0000
1000
0000
0100
0000
0010
0100
0010
0000
0001
0000
1000
0000
,
1001
0001
1000
0100
1000
0010
1000
0001
,
0100
0010
1000
0001
0010
0001
1000
1000
,
0001
0000
0010
0000
0100
0000
1000
0000
0010
0000
1000
0001
0010
0000
0100
0000
,
1000
0001
0100
0100
0100
0001
0010
0100
,
1100
0000
1000
0000
0001
0000
0100
0000
0010
0000
1000
0000
0001
0010
0001
0010
,
0100
0010
0001
1000
0001
0001
0001
0100
,
0001
1000
0001
1000
0100
0010
0001
1000
0010
0100
0010
0100
0001
1000
0100
0010
,
0001
0000
0000
0000
0040
0000
0000
0000
0430
0000
0000
0000
2300
0000
0000
3000
,
1001
1000
0001
1000
0100
0010
0001
1000
,
0010
1000
0100
0010
0001
0100
0001
1000
,
0100
1000
0010
1000
0001
0010
0100
1000
,
0001
0100
0001
0010
0100
1000
0010
1000
,
0100
0010
0100
1000
0001
0100
0010
0100
,
0001
0010
0001
1000
0010
1000
0100
0010
,
0001
0100
0001
1000
0100
0010
0100
1000
,
0010
0100
0001
1000
0100
1000
0010
1000
,
1001
0001
1000
0001
0010
0100
1000
0001
,
0100
0001
0010
0100
1000
0010
1000
0001
,
1001
1000
0010
1000
0001
0010
0100
1000
,
0001
0100
0001
0010
0100
1000
0010
1000
,
1001
0001
0010
0100
0010
0001
0100
0010
,
0110
0100
0001
1000
0100
0010
0001
1000
,
0010
1000
0010
1000
0001
0010
0100
1000
0001
0100
0001
0100
0010
1000
0001
0010
,
0100
0000
0000
0000
1000
0000
0000
0000
0001
0000
1000
0001
1000
0000
0001
0000
,
0010
0100
0010
0000
0004
0000
1003
0000
0010
0000
0100
0000
0001
1000
0001
0000
,
0010
0100
0040
0000
0031
0000
1000
0000
0010
1000
0010
0000
0400
0000
0301
0000
,
1000
0000
0100
0000
0010
0000
0004
0000
0103
0000
0010
0000
1000
0001
1000
0001
,
0010
0000
0100
0000
4000
0000
3001
0000
0100
0000
0010
1000
0010
0000
0100
0000
,
0001
1000
0100
0000
1000
0001
0400
0000
,
0310
1000
0010
1000
0001
0010
0001
0010
,
0100
0000
0000
0000
0100
0000
1000
0000
0004
0000
0103
0010
1000
0000
0004
0000
,
0013
0000
0000
0000
0000
0000
0100
0000
0010
0000
0000
0000
0001
0000
0000
0000
4000
0000
0000
3000
4000
0000
0000
3000
0010
0000
0000
0000
0100
0000
0000
0000
,
0001
1000
0001
0000
0010
0000
0100
0010
0100
0000
4000
0000
3001
0000
0100
0000
,
0010
0000
1000
0001
1000
0000
0100
0000
0010
0001
1000
0000
0040
0000
0130
0000
,
0001
0000
0010
0000
0100
0000
4000
0000
3100
0000
0010
0000
0001
1000
0010
1000
,
0001
0000
0010
0000
0400
0000
1300
0000
0010
0000
0100
0001
0400
0000
0310
0000
,
1000
0001
1000
0000
0100
0010
0004
0000
,
1003
0010
0100
0001
1000
0001
0010
0100
,
1000
0100
0010
0001
1000
0000
0001
0000
0400
0000
0310
1000
0001
0000
0040
0000
,
0130
0000
1000
0010
1000
0000
0001
0010
0001
0000
1000
0100
1000
0000
0004
0000
,
0103
0000
0010
0000
1000
0000
0010
0000
0100
0000
0001
0000
0010
0100
0010
0000
,
0001
0000
0100
0000
0010
0000
1000
0000
0100
0000
1000
0000
0001
0100
0020
0000
,
0000
0000
1030
0000
0100
0000
0010
0000
0001
0000
0100
0010
1000
0010
0100
0000
,
0001
0010
0001
0001
0001
0100
0010
2000
,
0000
0000
3100
0000
0010
0000
0001
0000
0100
0000
0010
0000
1000
0001
0010
0001
,
1000
0000
0010
0000
0100
0000
0001
0000
1000
0000
1000
0000
0001
0010
0100
0000
,
1000
0000
0010
0000
0100
0000
0001
0000
0010
0000
0100
0000
1000
0001
0200
0000
,
0000
0000
0310
0000
1000
0000
0001
0000
0010
0100
1000
0000
0010
0100
0002
0000
,
0000
0000
0013
0000
0001
0000
0010
0000
0100
0000
1000
0000
0010
0100
0010
0000
,
1000
0000
0100
0000
0010
0000
0001
0000
0100
0000
0001
0000
1000
0100
0020
0000
,
0000
0000
0031
0000
0100
0000
0010
0000
1000
0000
0100
0010
0001
0010
0100
0000
,
1000
0010
1000
1000
1000
0100
0010
0002
,
0000
0000
1003
0000
0010
0000
0100
0000
0001
0000
0010
0000
0100
1000
0001
1000
,
0100
0000
0010
0000
0001
0000
0100
0000
0010
0000
1000
0000
0001
1000
0100
0000
,
0010
0001
0010
0001
1000
0010
0100
0001
1000
0100
1000
0100
0010
0001
1000
0010
,
0100
0001
0010
0001
4000
0000
3010
0100
,
011M
0000
0000
0000
,
00M0
0000
0000
0000
,
0M00
0000
0000
0000
,
M000
0000
0000
0000
;

//---------------dance-single - Fraxtil----------------
#NOTES:
     dance-single:
     Fraxtil:
     Easy:
     12:
     0.967,1.000,0.565,0.110,0.400,871.000,82.000,16.000,17.000,0.000:
0000
0000
0000
0000
,
0000
0000
0000
0000
,
0000
0000
0000
0000
,
0000
0000
0000
0000
,
0000
0000
0000
0000
,
0000
0000
0000
0000
,
0000
0000
0000
0000
,
0000
0000
0000
0000
,
2001
3000
0000
0000
0000
0000
0000
0000
0001
0000
0000
0000
0000
0000
0000
0000
0100
0000
0000
0000
0000
0000
0000
0000
0010
0000
0000
0000
0000
0000
0000
0000
,
2000
3000
0000
0000
0000
0000
0000
0000
0100
0000
0000
0000
0000
0000
0000
0000
0010
0000
0000
0000
0000
0000
0000
0000
0001
0000
0000
0000
0000
0000
0000
0000
,
0200
0300
0000
0000
0000
0000
0000
0000
0001
0000
0000
0000
0000
0000
0000
0000
1000
0000
0000
0000
0000
0000
0000
0000
0100
0000
0000
0000
0000
0000
0000
0000
,
0020
0030
0000
0000
0000
0000
0000
0000
0100
0000
0000
0000
0000
0000
0000
0000
1000
0000
0000
0000
0000
0000
0000
0000
0001
0000
0000
0000
0000
0000
0000
0000
,
0102
0003
0000
0000
0000
0000
0000
0000
1000
0000
0000
0000
0000
0000
0000
0000
0100
0000
0000
0000
0000
0000
0000
0000
0010
0000
0000
0000
0000
0000
0000
0000
,
0002
0003
0000
0000
0000
0000
0000
0000
0100
0000
0000
0000
0000
0000
0000
0000
0010
0000
0000
0000
0000
0000
0000
0000
1000
0000
0000
0000
0000
0000
0000
0000
,
020M
0000
0000
0000
0000
0000
0300
0000
0000
0000
0000
0000
0000
0000
0000
0000
000M
0000
0000
0000
0000
0000
0000
0000
0000
0000
0000
0000
0000
0000
0000
0000
000M
0000
0000
0000
0000
0000
0000
0000
0000
0000
0000
0000
0000
0000
0000
0000
001M
0000
0000
0000
0000
0000
0000
0000
0000
0000
0000
0000
0000
0000
0000
0000
000M
0000
0000
0000
0000
0000
0000
0000
0000
0000
0000
0000
0000
0000
0000
0000
000M
0000
0000
0000
0000
0000
0000
0000
0000
0000
0000
0000
0000
0000
0000
0000
010M
0000
0000
0000
0000
0000
0000
0000
0000
0000
0000
0000
0000
0000
0000
0000
000M
0000
0000
0000
0000
0000
0000
0000
0000
0000
0000
0000
0000
0000
0000
0000
000M
0000
0000
0000
0000
0000
0000
0000
0000
0000
0000
0000
0000
0000
0000
0000
100M
0000
0000
0000
0000
0000
0000
0000
0000
0000
0000
0000
0000
0000
0000
0000
000M
0000
0000
0000
0000
0000
0000
0000
0000
0000
0000
0000
0000
0000
0000
0000
000M
0000
0000
0000
0000
0000
0000
0000
0000
0000
0000
0000
0000
0000
0000
0000
,
002M
0030
0000
0000
0400
0000
0000
0000
0000
0000
0000
0000
0000
0000
0000
0000
0304
0000
0000
0000
0000
0000
0000
0000
4003
0000
0000
0000
0000
0000
0000
0000
,
3100
0010
0100
0000
4000
0000
3001
0000
0100
0000
0010
0000
1000
0001
1000
0000
,
0100
0010
0400
0000
1300
0000
0001
0000
0100
0001
0100
0000
0040
0000
1030
0000
,
0001
0000
0010
0000
0100
0000
4000
0000
3010
0000
0100
0000
0001
1000
0001
1000
,
0100
0000
0010
0000
0004
0000
1003
0000
0010
0000
0100
0001
0100
0000
0010
0000
,
1000
0001
0010
0000
0001
1000
0040
0000
,
0130
0001
0100
0001
1000
0100
1000
0100
,
0010
0000
0000
0000
0010
0000
0001
0000
4000
0000
3010
0100
0001
0000
4000
0000
,
3100
0000
0000
0000
0000
0000
0010
0000
0100
0000
0000
0000
1000
0000
0000
0000
0004
0000
0000
0003
0004
0000
0000
0003
0100
0000
0000
0000
0010
0000
0000
0000
,
1000
0001
1000
0000
0100
0000
0010
0100
0010
0000
0004
0000
1003
0000
0010
0000
,
0100
0000
0001
1000
0001
0000
0010
0000
0100
1000
0001
0000
0400
0000
0310
0000
,
1000
0000
0100
0000
0010
0000
0004
0000
0013
0000
0100
0000
1000
0001
0100
0001
,
1000
0000
0100
0000
0040
0000
0031
0000
0100
0000
0010
1000
0040
0000
0130
0000
,
0001
1000
0001
0000
0010
0100
4000
0000
,
3001
0000
0100
0000
0010
1000
0001
0000
1000
0000
0001
0000
0010
0000
0100
0000
,
1000
0100
0010
0001
1000
0000
0001
0000
0400
0000
0310
1000
0001
0000
0040
0000
,
0130
0000
0000
0000
0000
0000
1000
0000
0001
0000
0000
0000
0100
0000
0000
0000
0040
0000
0000
0030
0040
0000
0000
0030
1000
0000
0000
0000
0001
0000
0000
0000
,
1001
0000
0000
0000
1100
0000
0400
0310
,
0011
0000
0000
0000
0001
0000
0000
0000
1000
0010
0100
0010
1000
0000
0001
1000
,
0001
0011
0110
0100
,
4000
0000
3001
0100
,
0110
0010
1000
0000
1001
0000
0001
0000
,
0011
0000
0000
0000
0010
0000
0000
0000
0100
1000
0001
0000
0100
0000
0000
0000
,
0010
1000
0010
0100
0001
1000
0001
0010
0100
0000
0000
0000
1000
0000
0000
0001
,
0100
0000
0010
1000
1001
0000
0001
0000
,
0011
0000
0000
0000
0000
0000
1000
0001
,
1000
0000
0000
0000
0010
0000
0000
0000
0100
0001
1000
0001
0100
0000
0010
1000
,
0001
0000
0000
0010
,
0000
0100
1000
0001
,
0101
0100
0010
0000
0000
0000
1000
0000
,
1001
0000
0000
0000
0001
0000
0000
0000
0010
0100
0010
0100
1000
0000
0000
0000
,
1001
0000
0110
0000
,
1001
0000
0000
1001
,
0001
0001
0010
0010
0100
0100
1000
1000
,
1100
1001
0101
0110
,
0010
0010
1000
1000
0001
0001
0010
0010
,
0001
0000
0000
0000
0001
0000
0000
0000
1001
0000
0000
0000
0000
0000
0000
0000
1000
0000
0010
0000
0100
0000
0001
0000
4000
0000
0000
3000
4000
0000
0000
3000
,
0100
0100
0010
0010
0001
0001
1000
1000
,
0010
0100
0010
0000
1000
0000
1000
0000
0001
0000
0000
0000
0010
0100
0010
0100
,
1000
1000
0001
0001
0100
0100
0010
0010
,
0400
0000
0000
0000
0301
0000
0001
0000
1000
0100
1000
0100
0010
0000
0001
0000
,
1000
1000
0100
0100
0010
0010
0001
0001
,
1000
1000
1001
0000
1010
0000
0110
0000
,
0100
0100
0001
0001
1000
1000
0100
0100
,
1000
0000
0000
0000
1000
0000
0000
0000
1001
0000
0000
0000
0000
0000
0000
0000
0001
0000
0100
0000
0010
0000
1000
0000
0004
0000
0000
0003
0004
0000
0000
0003
,
0010
0010
0100
0100
1000
1000
0001
0001
,
0100
0010
0100
0000
0001
0000
0001
0000
1000
0100
0010
0001
1000
0000
0010
1000
,
0001
0001
1000
1000
0010
0010
0100
0100
,
0040
0000
0000
0000
1030
0000
1000
0000
0100
1000
0100
1000
0001
0000
0000
0000
,
0101
0001
1000
0010
1000
0100
1000
0001
,
0010
0100
1000
0001
0100
0001
1000
1000
,
0001
0000
0100
0000
0010
0000
1000
0000
0100
0000
1000
0001
0100
0000
0010
0000
,
1000
0001
0100
0100
0100
0001
0010
0100
,
1000
0000
0010
0000
0100
0000
0001
0000
0010
0000
0001
0000
0100
0001
1000
0001
,
0010
0100
1000
0010
1000
1000
1000
0001
,
0010
0100
1000
0010
1000
0100
0010
0001
,
0100
0000
0010
0000
1000
0000
0100
0000
0010
0100
0010
0000
0001
0000
1000
0000
,
1001
0001
1000
0100
1000
0010
1000
0001
,
0100
0010
1000
0001
0010
0001
1000
1000
,
0001
0000
0010
0000
0100
0000
1000
0000
0010
0000
1000
0001
0010
0000
0100
0000
,
1000
0001
0100
0100
0100
0001
0010
0100
,
1100
0000
1000
0000
0001
0000
0100
0000
0010
0000
1000
0000
0001
0010
0001
0010
,
0100
0010
0001
1000
0001
0001
0001
0100
,
0110
0010
1000
0001
1001
1000
0100
0010
,
0011
0000
0000
0000
0040
0000
0000
0000
0430
0000
0000
0000
2300
0000
0000
3000
,
1001
1000
0001
1000
0100
0010
0001
1000
,
0010
1000
0100
0010
0001
0100
0001
1000
,
0100
1000
0010
1000
0001
0010
0100
1000
,
0001
0100
0001
0010
0100
1000
0010
1000
,
0100
0010
0100
1000
0001
0100
0010
0100
,
0001
0010
0001
1000
0010
1000
0100
0010
,
0001
0100
0001
1000
0100
0010
0100
1000
,
0010
0100
0001
1000
0100
1000
0010
1000
,
1001
0001
1000
0001
0010
0100
1000
0001
,
0100
0001
0010
0100
1000
0010
1000
0001
,
1001
1000
0010
1000
0001
0010
0100
1000
,
0001
0100
0001
0010
0100
1000
0010
1000
,
1001
0001
0010
0100
0010
0001
0100
0010
,
0110
0100
0001
1000
0100
0010
0001
1000
,
1010
0010
0100
0001
0101
0100
0010
1000
,
1001
0000
0000
0000
1000
0000
0000
0000
0001
0000
1000
0001
1000
0000
0001
0000
,
0010
0100
0010
0000
0004
0000
1003
0000
0010
0000
0100
0000
0001
1000
0001
0000
,
0010
0100
0040
0000
0031
0000
1000
0000
0010
1000
0010
0000
0400
0000
0301
0000
,
1000
0000
0100
0000
0010
0000
0004
0000
0103
0000
0010
0000
1000
0001
1000
0001
,
0010
0000
0100
0000
4000
0000
3001
0000
0100
0000
0010
1000
0010
0000
0100
0000
,
0001
1000
0100
0000
1000
0001
0400
0000
,
0310
1000
0010
1000
0001
0010
0001
0010
,
0100
0000
0000
0000
0100
0000
1000
0000
0004
0000
0103
0010
1000
0000
0004
0000
,
0013
0000
0000
0000
0000
0000
0100
0000
0010
0000
0000
0000
0001
0000
0000
0000
4000
0000
0000
3000
4000
0000
0000
3000
0010
0000
0000
0000
0100
0000
0000
0000
,
0001
1000
0001
0000
0010
0000
0100
0010
0100
0000
4000
0000
3001
0000
0100
0000
,
0010
0000
1000
0001
1000
0000
0100
0000
0010
0001
1000
0000
0040
0000
0130
0000
,
0001
0000
0010
0000
0100
0000
4000
0000
3100
0000
0010
0000
0001
1000
0010
1000
,
0001
0000
0010
0000
0400
0000
1300
0000
0010
0000
0100
0001
0400
0000
0310
0000
,
1000
0001
1000
0000
0100
0010
0004
0000
,
1003
0010
0100
0001
1000
0001
0010
0100
,
1000
0100
0010
0001
1000
0000
0001
0000
0400
0000
0310
1000
0001
0000
0040
0000
,
0130
0000
1000
0010
1000
0000
0001
0010
0001
0000
1000
0100
1000
0000
0004
0000
,
0103
0000
0010
0000
1000
0000
0010
0000
0100
0000
0001
0000
0010
0100
0010
0000
,
0001
0000
0100
0000
0010
0000
1000
0000
0100
0000
1000
0000
0001
0100
0020
0000
,
0000
0000
1030
0000
0100
0000
0010
0000
0001
0000
0100
0010
1000
0010
0100
0000
,
0001
0010
0001
0001
0001
0100
0010
2000
,
0000
0000
3100
0000
0010
0000
0001
0000
0100
0000
0010
0000
1000
0001
0010
0001
,
1000
0000
0010
0000
0100
0000
0001
0000
1000
0000
1000
0000
0001
0010
0100
0000
,
1000
0000
0010
0000
0100
0000
0001
0000
0010
0000
0100
0000
1000
0001
0200
0000
,
0000
0000
0310
0000
1000
0000
0001
0000
0010
0100
1000
0000
0010
0100
0002
0000
,
0000
0000
0013
0000
0001
0000
0010
0000
0100
0000
1000
0000
0010
0100
0010
0000
,
1000
0000
0100
0000
0010
0000
0001
0000
0100
0000
0001
0000
1000
0100
0020
0000
,
0000
0000
0031
0000
0100
0000
0010
0000
1000
0000
0100
0010
0001
0010
0100
0000
,
1000
0010
1000
1000
1000
0100
0010
0002
,
0000
0000
1003
0000
0010
0000
0100
0000
0001
0000
0010
0000
0100
1000
0001
1000
,
0100
0000
0010
0000
0001
0000
0100
0000
0010
0000
1000
0000
0001
1000
0100
0000
,
0010
0000
0100
0000
1000
0000
0001
0000
0100
0000
0010
0000
1000
0001
0020
0000
,
0000
0130
1000
0001
4000
0000
3010
0100
,
011M
0000
0000
0000
,
00M0
0000
0000
0000
,
0M00
0000
0000
0000
,
M000
0000
0000
0000
;

//---------------dance-single - Fraxtil----------------
#NOTES:
     dance-single:
     Fraxtil:
     Beginner:
     2:
     0.133,0.176,0.041,0.000,0.000,129.000,6.000,0.000,0.000,0.000:
0000
0000
0000
0000
,
0000
0000
0000
0000
,
0000
0000
0000
0000
,
0000
0000
0000
0000
,
0000
0000
0000
0000
,
0000
0000
0000
0000
,
0000
0000
0000
0000
,
0000
0000
0000
0000
,
1001
0000
0000
0000
,
0001
0000
0000
0000
,
0010
0000
0000
0000
,
0100
0000
0000
0000
,
1001
0000
0000
0000
,
1000
0000
0000
0000
,
0100
0000
0000
0000
,
0010
0000
0000
0000
,
0001
0000
0000
0000
,
0100
0000
0000
0000
,
0010
0000
0000
0000
,
1000
0000
0000
0000
,
0001
0000
0000
0000
,
0010
0000
0000
0000
,
0100
0000
0000
0000
,
1000
0000
0000
0000
,
0010
0000
0000
0000
,
0100
0000
0000
0000
,
0001
0000
0000
0000
,
1000
0000
0000
0000
,
0100
0000
0000
0000
,
0010
0000
0000
0000
,
0001
0000
0000
0000
,
1000
0000
0000
0000
,
1001
0000
0000
0000
,
0001
0000
0000
0000
,
1000
0000
0000
0000
,
0001
0000
0000
0000
,
0010
0000
0000
0000
,
0100
0000
0000
0000
,
0010
0000
0000
0000
,
0100
0000
0000
0000
,
1000
0000
0000
0000
,
0010
0000
0000
0000
,
1000
0000
0000
0000
,
0010
0000
0000
0000
,
0100
0000
0000
0000
,
0001
0000
0000
0000
,
0100
0000
0000
0000
,
0001
0000
0000
0000
,
1000
0000
1000
0000
,
1000
0000
0000
0000
,
0001
0000
0001
0000
,
0001
0000
0000
0000
,
0010
0000
0010
0000
,
0010
0000
0000
0000
,
0100
0000
0100
0000
,
0100
0000
0000
0000
,
1000
0000
1000
0000
,
1000
0000
0000
0000
,
0010
0000
0010
0000
,
0010
0000
0000
0000
,
0100
0000
0100
0000
,
0100
0000
0000
0000
,
0001
0000
0001
0000
,
0001
0000
0000
0000
,
1000
0000
0000
0000
,
0100
0000
0000
0000
,
0010
0000
0000
0000
,
0001
0000
0000
0000
,
1000
0000
0000
0000
,
0010
0000
0000
0000
,
0100
0000
0000
0000
,
0001
0000
0000
0000
,
0010
0000
0000
0000
,
0100
0000
0000
0000
,
1000
0000
0000
0000
,
0001
0000
0000
0000
,
0100
0000
0000
0000
,
0010
0000
0000
0000
,
1000
0000
0000
0000
,
0001
0000
0000
0000
,
1001
0000
0000
0000
,
1000
0000
0000
0000
,
0100
0000
0000
0000
,
0010
0000
0000
0000
,
0001
0000
0000
0000
,
0010
0000
0000
0000
,
0100
0000
0000
0000
,
1000
0000
0000
0000
,
1001
0000
0000
0000
,
0001
0000
0000
0000
,
0100
0000
0000
0000
,
0010
0000
0000
0000
,
1000
0000
0000
0000
,
0010
0000
0000
0000
,
0100
0000
0000
0000
,
0001
0000
0000
0000
,
1000
0000
0000
0000
,
0100
0000
0000
0000
,
1000
0000
0000
0000
,
0010
0000
0000
0000
,
0100
0000
0000
0000
,
0001
0000
0000
0000
,
0010
0000
0000
0000
,
0001
0000
0000
0000
,
1000
0000
0000
0000
,
0010
0000
0000
0000
,
1000
0000
0000
0000
,
0100
0000
0000
0000
,
0010
0000
0000
0000
,
0001
0000
0000
0000
,
0100
0000
0000
0000
,
0001
0000
0000
0000
,
1000
0000
0000
0000
,
0100
0000
0000
0000
,
1000
0000
0000
0000
,
0001
0000
0000
0000
,
1000
0000
0000
0000
,
0010
0000
0000
0000
,
1000
0000
0000
0000
,
0001
0000
0000
0000
,
0100
0000
0000
0000
,
0001
0000
0000
0000
,
1000
0000
0000
0000
,
0001
0000
0000
0000
,
0010
0000
0000
0000
,
0001
0000
0000
0000
,
1000
0000
0000
0000
,
0001
0000
0000
0000
,
1001
0000
0000
0000
;
