#TITLE:Initial D;
#SUBTITLE:- Night Of Fire;
#ARTIST:NiKo;
#TITLETRANSLIT:;
#SUBTITLETRANSLIT:;
#ARTISTTRANSLIT:;
#CREDIT:;
#BANNER:nightoffire.png;
#BACKGROUND:fireback-bg.png;
#LYRICSPATH:;
#CDTITLE:;
#MUSIC:fire.mp3;
#OFFSET:0.500;
#SAMPLESTART:38.307;
#SAMPLELENGTH:12.000;
#SELECTABLE:ROULETTE;
#BPMS:0.000=155.000;
#STOPS:;
#BGCHANGES:16.000=nightoffire.avi=1.000=0=0=1,
228.000=fireback-bg.png=1.000=0=0=1,
99999=-nosongbg-=1.000=0=0=0 // don't automatically add -songbackground-
;
// cache tags:
#FIRSTBEAT:18.000;
#LASTBEAT:225.750;
#SONGFILENAME:Songs/Anime Songs/NightofFire/NightofFire.sm;
#HASMUSIC:1;
#HASBANNER:1;
#MUSICLENGTH:91.245;
// end cache tags

//---------------dance-single - BASIC----------------
#NOTES:
     dance-single:
     BASIC:
     Easy:
     4:
     0.277,0.278,0.153,0.000,0.849,163.000,14.000,0.000,0.000,0.000:

0000
0000
0000
0000
,
0000
0000
0000
0000
,
0000
0000
0000
0000
,
0000
0000
0000
0000
,
0000
0000
1000
0000
,
1000
0000
1000
0000
,
1000
0000
1000
0000
,
1000
0000
1000
0000
,
1000
0000
0000
0000
0000
0000
0000
0000
0000
0000
0000
0000
0000
0000
0000
1000
,
0000
0000
0000
0000
0000
0000
0000
0001
0000
0000
0000
0000
0000
0000
0000
1000
,
0000
0000
0000
0100
0000
0000
0000
0001
0000
0000
0000
0100
0000
0000
0000
0010
,
0000
0000
0000
0000
0000
0000
0000
1000
0000
0000
0000
0000
0000
0000
0000
0001
,
0000
0000
0000
0010
0000
0000
0000
0100
0000
0000
0000
1000
0000
0000
0000
0010
,
0000
0000
0000
0000
0000
0000
0000
1000
0000
0000
0000
0000
0000
0000
0000
0001
,
0000
0000
0000
0100
0000
0000
0000
0010
0000
0000
0000
0001
0000
0000
0000
1000
,
0000
0000
0000
0000
0000
0000
0000
1000
0000
0000
0000
0000
0000
0000
0000
0001
,
0000
0000
0000
0010
0000
0000
0000
0100
0000
0000
0000
1000
0000
0000
0000
0001
,
0000
0000
0000
0001
0000
0000
0000
1000
0000
0000
0000
0001
0000
0000
0000
1000
,
0000
0000
0000
1000
0000
0000
0000
0001
0000
0000
0000
1000
0000
0000
0000
0010
,
0000
0000
0000
0000
0000
0000
0000
0010
0000
0000
0000
0000
0000
0000
0000
0100
,
0000
0000
0000
0000
0000
0000
0000
0100
0000
0000
0000
0000
0000
0000
0000
1000
,
0000
0000
0000
1000
0000
0000
0000
0001
0000
0000
0000
1000
0000
0000
0000
0001
,
0000
0000
0000
0001
0000
0000
0000
1000
0000
0000
0000
0001
0000
0000
0000
0010
,
0000
0000
0000
0010
0000
0000
0000
0100
0000
0000
0000
0100
0000
0000
0000
1000
,
0000
0000
0000
1000
0000
0000
0000
1000
0000
0000
0000
0101
0000
0000
0000
0001
,
0000
0000
0000
0000
0000
0000
0000
0001
0000
0000
0000
0000
0000
0000
0000
1000
,
0000
0000
0000
0000
0000
0000
0000
1000
0000
0000
0000
0000
0000
0000
0000
0100
,
0000
0000
0000
0100
0000
0000
0000
0010
0000
0000
0000
0010
0000
0000
0000
1000
,
0000
0000
0000
0100
0000
0000
0000
0001
0000
0000
0000
0100
0000
0000
0000
0001
,
0000
0000
0000
0000
0000
0000
0000
0001
0000
0000
0000
0000
0000
0000
0000
1000
,
0000
0000
0000
0000
0000
0000
0000
1000
0000
0000
0000
0000
0000
0000
0000
1000
,
0000
0000
0000
0000
0000
0000
0000
0001
0000
0000
0000
0000
0000
0000
0000
1000
,
0000
0000
0000
0000
0000
0000
0000
1001
0000
0000
0000
0000
0000
0000
0000
0100
,
0000
0000
0000
0010
0000
0000
0000
1001
0000
0000
0000
0000
0000
0000
0000
0001
,
0000
0000
0000
0010
0000
0000
0000
0100
0000
0000
0000
1000
0000
0000
0000
0010
,
0000
0000
0000
0100
0000
0000
0000
0001
0000
0000
0000
1000
0000
0000
0000
0001
,
0000
0000
0000
0001
0000
0000
0000
1000
0000
0000
0000
0001
0000
0000
0000
1000
,
0000
0000
0000
0001
0000
0000
0000
0110
0000
0000
0000
0000
0000
0000
0000
0001
,
0000
0000
0000
0010
0000
0000
0000
0100
0000
0000
0000
1000
0000
0000
0000
0001
,
0000
0000
0000
1000
0000
0000
0000
0010
0000
0000
0000
0100
0000
0000
0000
1000
,
0000
0000
0000
0001
0000
0000
0000
0100
0000
0000
0000
0010
0000
0000
0000
1000
,
0000
0000
0000
0001
0000
0000
0000
1001
0000
0000
0000
0000
0000
0000
0000
0001
,
0000
0000
0000
0010
0000
0000
0000
1000
0000
0000
0000
0100
0000
0000
0000
1000
,
0000
0000
0000
0010
0000
0000
0000
0100
0000
0000
0000
0001
0000
0000
0000
0010
,
0000
0000
0000
0100
0000
0000
0000
0001
0000
0000
0000
1000
0000
0000
0000
0100
,
0000
0000
0000
0010
0000
0000
0000
0110
0000
0000
0000
0000
0000
0000
0000
0001
,
0000
0000
0000
1000
0000
0000
0000
0001
0000
0000
0000
0001
0000
0000
0000
1000
,
0000
0000
0000
0010
0000
0000
0000
0100
0000
0000
0000
0100
0000
0000
0000
0001
,
0000
0000
0000
0001
0000
0000
0000
1000
0000
0000
0000
1000
0000
0000
0000
1001
,
0000
0000
0000
0000
0000
0000
0000
1000
0000
0000
0000
0000
0000
0000
0000
1001
,
0000
0000
0000
0000
0000
0000
0000
0001
0000
0000
0000
0000
0000
0000
0000
0110
,
0000
0000
0000
0000
0000
0000
0000
0001
0000
0000
0000
0000
0000
0000
0000
0110
,
0000
0000
0000
0000
0000
0000
0000
1000
0000
0000
0000
0000
0000
0000
0000
1001
,
0000
0000
0000
0100
0000
0000
0000
1001
0000
0000
0000
0010
0000
0000
0000
0100
,
0000
0000
0000
0100
0000
0000
0000
0100
0000
0000
0000
1001
0000
0000
0000
0010
,
0000
0000
0000
0100
0000
0000
0000
0010
0000
0000
0000
0100
0000
0000
0000
0001
,
0000
0000
0000
1000
0000
0000
0000
1001
0000
0000
0000
0000
0000
0000
0000
0000;

//---------------dance-single - ANOTHER----------------
#NOTES:
     dance-single:
     ANOTHER:
     Medium:
     7:
     0.440,0.433,0.033,0.000,1.000,278.000,3.000,0.000,0.000,0.000:

0000
0000
0000
0000
,
0000
0000
0000
0000
,
0000
0000
0000
0000
,
0000
0000
0000
0000
,
0000
0000
1000
0001
,
1000
0000
0001
1000
,
0001
0000
1000
0001
,
1000
0000
0001
1000
,
0001
0000
0000
0000
1000
0000
0000
0000
0000
0000
0000
0000
0000
0000
0000
0001
,
0000
1000
0000
0010
0000
0100
0000
0001
0000
0000
0000
0001
0000
0000
0000
1000
,
0000
0100
0000
0010
0000
0000
0000
0001
0000
0100
0000
0010
0000
0000
0000
1000
,
0000
0001
0000
0100
0000
0010
0000
0100
0000
0001
0000
1000
0000
0100
0000
0001
,
0000
0001
0000
0001
0000
0000
0000
1000
0000
1000
0000
1000
0000
0000
0000
0001
,
0000
0010
0000
0100
0000
1000
0000
0001
0000
1000
0000
0001
0000
0000
0000
1000
,
0000
1000
0000
1000
0000
0000
0000
0010
0000
0010
0000
0010
0000
0000
0000
0100
,
0000
0001
0000
1000
0000
0010
0000
0100
0000
0001
0000
1000
0000
0000
0000
0100
,
0000
0100
0000
0100
0000
0000
0000
0010
0000
0010
0000
0010
0000
0000
0000
0001
,
0000
0000
0000
1000
0000
0000
0000
0001
0000
1000
0000
0100
0000
0000
0000
1000
,
0000
0000
0000
0001
0000
0000
0000
1000
0000
0001
0000
0100
0000
0010
0000
1000
,
0000
0000
0000
1000
0000
0000
0000
0001
0000
0100
0000
0001
0000
0000
0000
1000
,
0000
0100
0000
0010
0000
0001
0000
1000
0000
0010
0000
0100
0000
0000
0000
1000
,
0000
0000
0000
0010
0000
0000
0000
1000
0000
0010
0000
0100
0000
0000
0000
0001
,
0000
0000
0000
0010
0000
0000
0000
0001
0000
0010
0000
0100
0000
0000
0000
0001
,
0000
0000
0000
0001
0000
0000
0000
1000
0000
0000
0000
1000
0000
0000
0000
0001
,
0000
0000
0000
0001
0000
0000
0000
1000
0000
0000
0000
1000
0000
0000
0000
0001
,
0000
0001
0000
1000
0000
0000
0000
1000
0000
1000
0000
0001
0000
0000
0000
0001
,
0000
0001
0000
1000
0000
0000
0000
1000
0000
1000
0000
0001
0000
0000
0000
0010
,
0000
1000
0000
0100
0000
0000
0000
0010
0000
0001
0000
0100
0000
0000
0000
0100
,
0000
0000
0000
0100
0000
0000
0000
1001
0000
0000
0000
1001
0000
0000
0000
0010
,
0000
0000
0000
0010
0000
0000
0000
0100
0000
0000
0000
0100
0000
0000
0000
0001
,
0000
0000
0000
1000
0000
0000
0000
0001
0000
0000
0000
1000
0000
0000
0000
0010
,
0000
0000
0000
0000
0000
0000
0000
0010
0000
0000
0000
0000
0000
0100
0000
0000
,
0000
0010
0000
0100
0000
0010
0000
0100
0000
0100
0000
0000
0000
0000
0000
0001
,
0000
0000
0000
1000
0000
0000
0000
0001
0000
1000
0000
0100
0000
0000
0000
0010
,
0000
0001
0000
0100
0000
0000
0000
0010
0000
1000
0000
0100
0000
0000
0000
0001
,
0000
1000
0000
0010
0000
0000
0000
1000
0000
0001
0000
0100
0000
0000
0000
0001
,
0000
0010
0000
0100
0000
1000
0000
0100
0000
0010
0000
0001
0000
0000
0000
1000
,
0000
0000
0000
0010
0000
0000
0000
1000
0000
0001
0000
0100
0000
0000
0000
0001
,
0000
0010
0000
1000
0000
0000
0000
1000
0000
0100
0000
0001
0000
0000
0000
0001
,
0000
1000
0000
0010
0000
0000
0000
0010
0000
0100
0000
0001
0000
0000
0000
0001
,
0000
1000
0000
0100
0000
0010
0000
0100
0000
1000
0000
0001
0000
0000
0000
1000
,
0000
0000
0000
0001
0000
0000
0000
1000
0000
1000
0000
0001
0000
0000
0000
0001
,
0000
0001
0000
0100
0000
0000
0000
1000
0000
1000
0000
0010
0000
0000
0000
0001
,
0000
0100
0000
1000
0000
0000
0000
1000
0000
0100
0000
0001
0000
0000
0000
1000
,
0000
0010
0000
0100
0000
0001
0000
0100
0000
0010
0000
1000
0000
0000
0000
0001
,
0000
0000
0000
1000
0000
0000
0000
0010
0000
0100
0000
0001
0000
0000
0000
0001
,
0000
0010
0000
0100
0000
0000
0000
1000
0000
0010
0000
0100
0000
0000
0000
0001
,
0000
1000
0000
0001
0000
0000
0000
1000
0000
0001
0000
1000
0000
0000
0000
0001
,
0000
0010
0000
0100
0000
1000
0000
0010
0000
0000
0000
0100
0000
0000
0000
1000
,
0000
0001
0000
1000
0000
0000
0000
0001
0000
1000
0000
0001
0000
0000
0000
1000
,
0000
0000
0000
1000
0000
0000
0000
1000
0000
0000
0000
1000
0000
0000
0000
1000
,
0000
0100
0000
0001
0000
0000
0000
1000
0000
0010
0000
0001
0000
0000
0000
0001
,
0000
0000
0000
0001
0000
0000
0000
0001
0000
0000
0000
0001
0000
0000
0000
0001
,
0000
0010
0000
0100
0000
0000
0000
0010
0000
0100
0000
1000
0000
0000
0000
0001
,
0000
0000
0000
1000
0000
0000
0000
0010
0000
0000
0000
0100
0000
0000
0000
0010
,
0000
0100
0000
0001
0000
0000
0000
1000
0000
0100
0000
0010
0000
0000
0000
1000
,
0000
0000
0000
1000
0000
0000
0000
0011
0000
0000
0000
0000
0000
0000
0000
0000;

//---------------dance-single - MANIAC----------------
#NOTES:
     dance-single:
     MANIAC:
     Hard:
     8:
     0.567,0.588,0.164,0.000,1.000,347.000,15.000,0.000,0.000,0.000:

0000
0000
0000
0000
,
0000
0000
0000
0000
,
0000
0000
0000
0000
,
0000
0000
0000
0000
,
0000
0000
1000
0001
,
1000
0001
0000
0000
1000
0000
0001
0000
,
0100
0010
1000
0100
,
0001
0000
0000
0000
0100
0000
0000
0000
0011
0000
0000
0110
0000
0000
1100
0000
,
0000
1010
0000
0000
0110
0000
0101
0000
0000
0000
0000
0000
0000
0000
0000
1000
,
0000
0001
0000
1000
0000
0010
0000
0100
0001
0100
0001
0000
0100
0001
0000
1000
,
0000
0000
0100
0000
0000
1000
0000
0000
0001
0000
0000
1000
0000
0010
0000
1000
,
0000
0001
0000
1000
0000
0100
0000
0010
0001
0010
0001
0000
0010
0001
0000
1000
,
0000
0000
0010
0000
0000
0100
0000
0000
0001
0000
0000
1000
0000
0100
0000
0010
,
0000
0001
0000
1000
0000
0010
0000
0100
0010
0100
0010
0000
0100
0010
0000
1000
,
0000
0000
0001
0000
0000
1000
0000
0000
0010
0000
0000
0100
0000
0001
0000
1000
,
0000
0001
0000
1000
0000
0100
0000
0001
1000
0001
1000
0000
0001
1000
0000
1001
,
0000
0000
0100
0000
0000
1001
0000
0000
0100
0000
0000
0010
0000
0010
0000
0001
,
0000
1000
0000
0100
0000
0001
0000
0100
0000
1000
0000
0001
0000
0000
0000
1000
,
0000
0010
0000
0100
0000
0001
0000
0100
0000
0010
0000
1000
0000
0001
0000
1000
,
0000
0100
0000
0010
0000
0001
0000
1000
0100
1000
0100
0000
1000
0100
0000
1000
,
0000
0000
0010
0000
0000
0100
0000
0000
0001
0000
0000
0010
0000
0100
0000
0001
,
0000
0010
0000
0100
0000
1000
0000
0100
0000
0001
0000
1000
0000
0000
0000
1000
,
0000
0010
0000
0001
0000
0100
0000
0010
0000
1000
0000
0001
0000
1000
0000
0001
,
0000
0010
0000
0100
0000
1000
0000
0010
1000
0010
1000
0000
0010
1000
0000
1001
,
0000
0000
0101
0000
0000
1001
0000
0000
1100
0000
0000
0100
0000
0100
0000
1000
,
0000
0000
0000
0100
0000
1000
0000
0010
0000
1000
0000
0100
0000
0000
0000
0001
,
0000
0000
0000
0100
0000
0001
0000
0010
0000
0001
0000
0100
0000
0000
0000
0001
,
0000
0001
0000
0001
0000
0000
0000
0001
0000
0001
0000
0001
0000
0000
0000
1000
,
0000
1000
0000
1000
0000
1000
0000
1000
0000
1000
0000
1000
0000
0000
0000
0001
,
0000
0010
0000
0100
0000
0000
0000
1000
0000
0010
0000
0100
0000
0000
0000
0001
,
0000
1000
0000
0010
0000
0000
0000
1000
0000
0001
0000
0100
0000
0000
0000
1001
,
0000
0000
0000
0000
0000
0000
0000
0110
0000
0000
0000
0000
0000
0100
0000
0000
,
0000
0001
0000
0010
0000
0100
0000
1000
0000
0001
0000
0000
0000
0000
0000
0001
,
0000
0000
0000
1000
0000
0000
0000
0001
0000
1000
0000
0000
0000
0000
0000
0000
,
0000
1000
0000
0001
0000
1000
0000
0010
0000
0010
0000
0010
0000
0000
0000
0000
,
0000
0001
0000
1000
0000
0001
0000
0010
0000
0010
0000
0010
0000
0010
0000
0000
,
0000
0001
0000
1000
0000
0001
0000
1000
0000
1000
0000
0001
0000
0001
0000
1000
,
0000
0000
0000
0010
0000
0000
0000
0100
0000
0001
0000
0000
0000
0000
0000
0000
,
0000
0001
0000
0010
0000
0100
0000
1000
0000
1000
0000
1000
0000
0000
0000
0000
,
0000
1000
0000
0010
0000
0100
0000
0001
0000
0001
0000
0001
0000
0001
0000
0000
,
0000
1000
0000
0001
0000
1000
0000
0001
0000
0001
0000
1000
0000
1000
0000
0010
,
0000
0000
0000
0100
0000
0000
0000
0001
0000
1000
0000
0000
0000
0000
0000
0000
,
0000
1000
0000
0010
0000
0100
0000
1000
0000
1000
0000
1000
0000
0000
0000
0000
,
0000
0001
0000
0100
0000
0010
0000
0001
0000
0001
0000
0001
0000
0001
0000
0000
,
0000
0100
0000
0010
0000
0100
0000
0010
0000
0010
0000
0010
0000
0000
0000
0001
,
0000
0000
0000
1000
0000
0000
0000
0001
0000
0010
0000
0000
0000
0000
0000
0000
,
0000
0010
0000
0100
0000
0010
0000
0100
0000
0100
0000
0100
0000
0000
0000
0000
,
0000
0100
0000
0010
0000
0100
0000
0010
0000
0010
0000
0010
0000
0010
0000
0000
,
0000
0001
0000
1000
0000
0100
0000
0010
0000
0010
0000
0010
0000
0010
0000
0001
,
0000
0010
0000
0100
0000
1000
0000
0001
0100
0001
1000
0000
0001
1000
0000
1000
,
0000
0000
0010
0000
0000
0100
0000
0000
0001
0000
0000
1000
0000
0010
0000
1000
,
0000
0100
0000
0010
0000
0100
0000
0010
0001
1000
0010
0000
0100
0010
0000
1000
,
0000
0000
0001
0000
0000
1000
0000
0000
0010
0000
0000
0100
0000
0001
0000
1000
,
0000
0100
0000
0010
0000
0001
0000
1000
0100
0010
0100
0000
0010
0001
0000
1000
,
0000
0000
0010
0000
0000
0100
0000
0000
1000
0000
0000
0001
0000
1000
0000
0001
,
0000
0010
0000
0100
0000
0010
0000
0001
1000
0010
1000
0000
0001
0100
0000
0010
,
0000
0010
0000
0010
0000
0010
0000
1001
0000
0000
0000
0000
0000
0000
0000
0000;
