#TITLE:Follow the Reaper;
#SUBTITLE:;
#ARTIST:Children of Bodom;
#TITLETRANSLIT:;
#SUBTITLETRANSLIT:;
#ARTISTTRANSLIT:;
#CREDIT:;
#BANNER:FollowReaper-banner.png;
#BACKGROUND:followthereaper.jpg;
#LYRICSPATH:;
#CDTITLE:CDtitletiger.png;
#MUSIC:- 1 - Follow the Reaper.mp3;
#OFFSET:-0.580;
#SAMPLESTART:102.980;
#SAMPLELENGTH:12.000;
#SELECTABLE:YES;
#BPMS:0.000=191.940,384.000=188.000,388.000=191.940,453.000=192.000,484.000=191.840,676.000=192.500;
#STOPS:324.000=0.940
;
#BGCHANGES:;
// cache tags:
#FIRSTBEAT:28.000;
#LASTBEAT:706.000;
#SONGFILENAME:Songs/longs versions/Follow the Reaper/Follow Reaper.sm;
#HASMUSIC:1;
#HASBANNER:1;
#MUSICLENGTH:227.531;
// end cache tags

//---------------dance-single - ----------------
#NOTES:
     dance-single:
     :
     Challenge:
     12:
     1.000,1.000,1.000,0.879,0.349,1343.000,236.000,200.000,0.000,41.000:
0000
0000
0000
0000
,
0000
0000
0000
0000
,
0000
0000
0000
0000
,
0000
0000
0000
0000
,
0000
0000
0000
0000
,
0000
0000
0000
0000
,
0000
0000
0000
0000
,
2001
3100
0020
0230
0320
1030
0002
0023
,
0032
1003
0200
0321
0230
1301
2000
3011
,
0200
0301
0200
0320
2030
3010
2000
3200
,
0320
0000
1030
0100
0010
0001
1000
0100
0012
0000
1003
0000
0200
0000
0311
0000
,
0210
1300
0002
0023
0032
0103
2000
3200
,
2300
3010
0200
1302
0203
1310
2000
3011
,
2000
3100
0002
0023
0032
0013
1000
0210
,
0000
0001
0001
0312
0000
0100
0100
1203
,
0000
1300
1001
1000
0010
0010
0100
0100
,
0001
0001
1000
1000
0010
0010
0001
0001
,
1000
1000
0100
0100
0001
0001
1000
1000
,
0010
0010
0010
1000
0001
0010
0100
1000
,
1001
0001
0100
0100
0010
0010
1000
1000
,
0001
0001
1000
1000
0100
0100
0010
0010
,
0001
0001
1000
1000
0100
0100
0100
0012
,
0000
1000
1000
2103
0000
0010
0010
3021
,
0000
0000
1000
0000
1000
0000
2130
3000
0000
0000
0210
0300
0000
0000
0021
0030
,
0000
1000
1000
1000
1000
0010
0010
0010
,
0102
0000
0003
1002
0003
1200
0300
0021
,
0000
1000
1000
1000
1000
1000
1000
1000
,
1000
1000
1030
0100
0001
0010
0100
1000
,
1001
0010
0100
0100
0001
0001
1000
1000
,
0021
0000
0030
0201
0300
2001
3000
0000
,
0021
0000
0000
0231
0000
0300
0210
0000
,
0000
1320
0000
0000
2130
0000
3210
0000
,
0311
0001
1100
0001
0010
0010
1100
0010
,
1000
0100
0011
0100
1000
1000
0011
0100
,
0001
0000
0001
0000
0100
0010
0100
0000
1000
0000
1000
0000
0001
0100
0001
0000
,
0010
0000
0010
0000
1000
0100
0001
0000
0010
0000
0010
0000
0010
0000
1010
0000
,
0001
0010
1100
0001
0100
0100
0011
0100
,
1000
0100
0011
1000
0001
0001
1010
0100
,
0001
0000
0001
0000
1000
0100
1000
0000
0010
0000
0010
0000
1000
0001
1000
0000
,
0100
0000
0100
0000
0001
1000
0001
0000
0001
0000
0010
0000
1000
0000
1010
0000
,
0001
1000
0101
1000
0010
0010
1001
0100
,
0010
0100
1001
0100
0010
0010
1100
0001
,
0010
0000
0010
0000
1000
0010
1000
0000
0001
0000
0001
0000
0100
0010
0100
0000
,
0010
0000
0010
0000
0001
1000
0001
0000
0100
0000
1000
0000
0010
0000
0110
0000
,
0001
0100
1001
0010
0100
0100
1010
0001
,
0010
1000
0101
1000
0001
0001
0110
1000
,
1001
0100
1001
0010
1001
0100
1001
0010
,
0001
0100
1000
0000
1000
0010
0001
0000
0101
0000
0000
0110
0000
0000
2010
0000
,
3012
2003
3000
2000
3002
0003
0120
0030
,
2100
3000
0012
0003
2100
0000
3000
0000
,
1001
0100
0010
0100
0001
1000
0100
1000
,
0001
0010
0100
1000
0200
0000
0300
2010
,
3102
2013
3000
2100
3210
0321
2031
3000
,
0210
0300
0102
0003
2010
3000
0210
0300
,
1002
0203
0000
0310
1001
0010
0100
1000
,
0100
1000
0010
0100
1000
0100
1000
1000
,
1000
0100
0010
0010
0010
0100
1000
1000
,
1000
0000
0010
0000
0001
0000
0001
0000
0001
0010
0100
1000
0010
0100
0001
0010
,
1100
1000
0100
0010
0100
1001
0100
0021
,
0000
0031
0010
0100
0010
0110
1000
0011
,
0010
0100
0010
1000
0010
0001
0000
0011
,
0000
0000
0001
0000
0010
0000
0100
0000
0010
0000
0100
0010
0100
0000
1000
0000
,
1001
0001
0001
2010
0000
3200
0320
0000
,
0131
0100
0100
0012
0000
2003
3020
0230
,
0311
0010
0010
1100
0100
0100
0021
0000
,
0000
2000
0000
3030
,
0011
0010
1000
0100
1000
0001
0100
0020
,
0000
0000
0000
0000
0000
0000
0000
0030
0010
0000
0000
0000
0000
0000
0000
0000
0001
0000
0000
0000
0000
0000
0000
0000
1000
0000
0000
0000
0000
0000
0000
0000
0010
0000
0000
0000
0000
0000
0000
0000
1000
0000
0000
0000
0000
0000
0000
0000
0100
0000
0000
0000
0000
0000
0000
0000
1000
0000
0000
0000
0000
0000
0000
0000
,
0010
0010
1000
0100
1000
0001
0100
0020
,
0000
0000
0000
0000
0000
0000
0000
0030
0010
0000
0000
0000
0000
0000
0000
0000
0001
0000
0000
0000
0000
0000
0000
0000
1000
0000
0000
0000
0000
0000
0000
0000
0010
0000
0000
0000
0000
0000
0000
0000
1000
0000
0000
0000
0000
0000
0000
0000
0100
0000
0000
0000
0000
0000
0000
0000
1000
0000
0000
0000
0000
0000
0000
0000
,
0010
0010
1000
0100
1000
0001
0100
0020
,
0000
0000
0000
0000
0000
0000
0000
0030
0010
0000
0000
0000
0000
0000
0000
0000
0001
0000
0000
0000
0000
0000
0000
0000
1000
0000
0000
0000
0000
0000
0000
0000
0010
0000
0000
0000
0000
0000
0000
0000
1000
0000
0000
0000
0000
0000
0000
0000
0100
0000
0000
0000
0000
0000
0000
0000
1000
0000
0000
0000
0000
0000
0000
0000
,
0010
0000
0010
0000
1000
0000
0100
0000
1000
0000
0001
0000
0100
0000
0001
1000
,
0001
0001
0010
0010
1000
1000
0100
0100
,
0010
0010
1001
0100
1000
0001
1100
0020
,
0000
0000
0000
0000
0000
0000
0000
0030
0010
0000
0000
0000
0000
0000
0000
0000
0101
0000
0000
0000
0000
0000
0000
0000
1000
0000
0000
0000
0000
0000
0000
0000
0010
0000
0000
0000
0000
0000
0000
0000
1000
0000
0000
0000
0000
0000
0000
0000
0101
0000
0000
0000
0000
0000
0000
0000
1000
0000
0000
0000
0000
0000
0000
0000
,
0010
0010
1001
0100
1000
0001
1100
0020
,
0000
0000
0000
0000
0000
0000
0000
0030
0010
0000
0000
0000
0000
0000
0000
0000
0101
0000
0000
0000
0000
0000
0000
0000
1000
0000
0000
0000
0000
0000
0000
0000
0010
0000
0000
0000
0000
0000
0000
0000
1000
0000
0000
0000
0000
0000
0000
0000
0110
0000
0000
0000
0000
0000
0000
0000
1000
0000
0000
0000
0000
0000
0000
0000
,
0010
0010
1001
0100
1000
0001
1100
0020
,
0000
0000
0000
0000
0000
0000
0000
0030
0010
0000
0000
0000
0000
0000
0000
0000
0101
0000
0000
0000
0000
0000
0000
0000
1000
0000
0000
0000
0000
0000
0000
0000
0010
0000
0000
0000
0000
0000
0000
0000
1000
0000
0000
0000
0000
0000
0000
0000
0101
0000
0000
0000
0000
0000
0000
0000
1000
0000
0000
0000
0000
0000
0000
0000
,
0110
0010
1000
0100
1000
0001
0010
0100
,
1001
0000
0110
1000
0011
1000
0100
0100
,
1010
0001
1000
0010
1001
0100
0001
0001
,
1010
0000
0100
0000
0010
0000
0001
0000
1000
0010
0100
0000
0001
0000
0010
0000
,
0100
1000
0001
0000
1000
0000
0010
0000
1000
0001
0100
0000
0010
0000
0010
0000
,
1001
0100
0010
0010
1001
1000
0100
0001
,
0110
1000
0001
0001
1010
0001
0010
0100
,
1001
0000
0010
0000
0100
0000
0100
0000
1001
0100
0001
0000
0010
0000
0010
0000
,
0100
0010
0100
0000
1000
0000
1000
0000
0100
1000
0100
0000
0010
0000
0010
0000
,
0010
1001
0010
1000
0110
0001
1000
1000
,
0110
0100
0001
0100
1010
0100
0001
0001
,
0110
0000
1000
0000
0100
0000
0001
0000
0100
0001
0100
0000
0010
0000
0010
0000
,
0001
0010
1000
0000
0010
0000
0010
0000
1000
0100
0010
0000
0001
0000
0010
0000
,
0100
1100
0001
1000
0110
0001
0100
0100
,
1010
0100
0010
0100
1001
0010
1000
1000
,
0101
1000
0101
0001
0011
0010
1010
1000
,
1001
0000
0010
0000
0001
0010
0100
0000
1000
0100
0001
0000
1001
0000
0000
0101
,
0000
0000
1010
0000
2002
3003
0100
0000
0100
0000
0100
0000
2020
3030
0100
0000
,
0100
0000
0100
0000
2002
3003
0100
0000
0100
0000
0100
0000
2002
3003
0000
0000
,
0022
0033
0000
0000
2002
3003
0010
0000
0010
0000
0010
0000
0202
0303
0010
0000
,
0010
0000
0010
0000
2002
3003
0010
0000
0010
0000
0010
0000
0202
0303
0000
0000
,
0220
0330
0000
0000
0110
0000
0001
0000
0001
0000
0001
0000
1100
0000
0001
0000
,
0001
0001
1010
0001
0001
0001
0110
0000
,
0011
0000
2200
0000
0000
3300
0220
0000
,
0000
0330
2002
0000
0000
0000
0000
0000
,
0000
3003
1001
0100
0010
0001
0110
1000
,
0001
0100
0101
1000
0100
0010
0001
0100
,
0010
1000
1001
0100
0010
0100
0110
0010
,
0100
0001
0011
0010
0100
0001
0010
1000
,
0010
0100
0011
0100
0001
0010
0011
0010
,
0100
1000
1100
1000
0001
1000
1000
0100
,
0010
0100
0011
0010
0100
0010
0011
0010
,
0100
0000
1000
0000
1000
0100
0010
0001
0010
0100
1000
0001
1000
0010
0100
0001
,
1000
0010
0100
0001
1010
0000
0010
0000
0001
0000
1000
0000
1001
0000
0001
0000
,
0100
0010
1010
1000
0001
0010
0100
0010
,
0001
1000
1100
1000
0001
0100
1010
0010
,
0101
0001
0011
0010
0100
1000
0001
0010
,
0100
1000
1001
0001
0100
0010
1010
1000
,
0100
0010
0011
0001
1000
0010
0100
0001
,
0010
0001
1001
1000
0010
0100
0101
1000
,
0011
0100
0011
1000
0001
0010
0210
0302
,
2003
3120
1032
2103
3000
0210
0312
0003
,
2100
3001
0120
0030
2100
3000
0012
0000
,
0003
0000
1100
0001
0100
0010
1000
0100
,
0010
0001
0010
0100
0020
1030
0002
0000
,
2013
3201
0312
0003
2100
3000
0210
0300
,
0012
0003
0210
0300
2010
3000
0102
0003
,
2100
3000
0120
1000
1030
0100
1000
0001
,
0100
0010
0001
1000
0100
0010
0001
0010
,
0100
0100
0100
0001
1000
1000
1000
0100
,
0010
0010
0010
1000
0100
1000
0010
0100
,
0001
0001
0001
1000
0010
0010
0010
0001
,
1000
0000
1000
0000
1000
0100
0010
0001
0010
0100
1000
0100
0010
0001
1000
0001
,
0110
0000
1100
0001
0001
1000
1000
0010
,
0010
0100
1001
0010
0010
1000
1000
0100
,
0100
0000
0000
0001
0000
0000
1000
0000
0010
0000
0100
0000
0010
0000
0100
0000
0010
0000
0001
0000
0010
0000
0100
0000
,
1000
0100
0010
0001
1000
0001
1000
0001
1000
0001
0100
0010
,
1000
0000
0010
0000
0100
0000
1002
0000
0000
0023
0000
0000
0230
0000
0000
2301
0000
0000
0000
0000
0000
3020
0000
0000
,
0230
0000
1320
0230
2300
3012
0000
2003
,
3200
0000
0000
1300
0100
0010
0001
0010
0001
1000
0100
1000
,
0001
1000
0001
0210
0000
0000
0000
0000
0000
0002
0000
0000
,
0303
0000
0000
0000
0001
0010
0100
1000
0100
0010
0001
0010
0100
1000
0100
0010
,
1000
0100
0010
0001
1000
0100
1000
0001
0010
0001
0100
0010
0100
0001
0010
0100
,
1000
0010
0100
0010
1000
0001
1000
0100
0010
0001
1000
0010
0100
0001
1000
0100
,
2000
0000
3020
0000
1030
0100
0010
0001
0010
0100
1000
0100
0010
0001
0010
0100
,
1000
0010
0100
0001
1000
0100
1000
0001
0010
0001
1000
0100
1000
0010
0100
0010
,
1000
0100
0010
0001
1000
0010
1000
0010
0100
0001
0010
0001
1000
0100
0010
0001
,
2000
0000
0000
0000
3200
0000
0000
0320
,
0000
0000
1032
0000
0000
2103
0000
0000
,
3120
0000
0000
0000
0000
0000
0000
0000
0000
0000
0000
0000
0000
0000
0000
0000
0032
0000
0000
0000
0000
0000
0000
0000
0000
0000
0000
0000
0000
0000
0000
0000
0000
0000
0000
0000
0000
0000
0000
0000
0000
0000
0000
0000
0000
0000
0000
0003
0002
0000
0000
0000
0000
0000
0000
0000
0000
0000
0000
0000
0000
0000
0000
0000
,
1103
0000
0000
0000
0000
0000
0000
0000
0020
0000
0000
0000
0000
0000
0000
0000
0000
0000
0000
0000
0000
0000
0000
0000
0000
0000
0000
0000
0000
0000
0000
0030
0020
0000
0000
0000
0000
0000
0000
0000
1030
0000
0000
0000
0001
0000
0000
0000
1000
0000
0000
0000
0100
0000
0000
0000
0010
0000
0000
0000
0001
0000
0000
0000
,
1000
0010
0100
0001
2000
0000
0000
3000
2000
0000
3200
0000
0302
0000
0203
0000
,
0302
0000
2003
0000
0000
0000
3100
0010
0001
0010
0100
1000
0010
0100
0010
0100
,
0001
1000
0001
1000
0110
0000
1000
0000
0002
0000
1003
0000
0100
0000
0020
0000
,
0130
1000
0100
0010
0001
0100
0010
1000
0001
1000
0100
0010
0001
1000
0100
1000
,
0100
0010
0001
1000
0010
0100
0010
0100
0001
0010
0100
1000
0100
0010
0001
0010
,
0100
1000
0100
0010
0001
1000
0001
1000
0001
0010
0100
1000
0100
0010
0001
1000
,
0001
0000
0000
0000
0010
0000
0000
0000
0100
0000
0000
0000
1000
0000
0000
0000
0012
0000
0000
0000
0000
0000
0000
0000
0000
0000
0000
0000
0000
0000
0000
0000
0000
0000
0000
0000
0000
0000
0000
0003
1002
0000
0000
0000
0000
0000
0000
0000
0000
0000
0000
0000
0000
0000
0000
0000
0000
0000
0000
0000
0000
0000
0000
0000
,
0000
0000
0000
0100
1003
0100
0010
0001
1000
0100
0012
0000
0000
0000
1003
0000
,
1000
1000
0102
0023
0230
2301
3200
0320
,
0132
0000
0000
0000
,
0000
0000
0013
0010
1000
0100
1000
0001
,
1000
0000
0000
0000
0000
0000
0000
0000
0020
0000
0000
0000
0000
0000
0000
0000
0000
0000
0000
0000
0000
0000
0000
0030
0010
0000
0000
0000
0000
0000
0000
0000
1000
0000
0000
0000
0000
0000
0000
0000
0100
0000
0000
0000
0000
0000
0000
0000
1000
0000
0000
0000
0000
0000
0000
0000
0010
0000
0000
0000
0000
0000
0000
0000
,
0001
1000
0010
0010
1000
0100
1000
0001
,
1000
0000
0000
0000
0000
0000
0000
0000
0020
0000
0000
0000
0000
0000
0000
0000
0000
0000
0000
0000
0000
0000
0000
0030
0010
0000
0000
0000
0000
0000
0000
0000
1000
0000
0000
0000
0000
0000
0000
0000
0100
0000
0000
0000
0000
0000
0000
0000
1000
0000
0000
0000
0000
0000
0000
0000
0010
0000
0000
0000
0000
0000
0000
0000
,
0001
1000
0010
0010
1000
0100
1000
0001
,
1000
0000
0000
0000
0000
0000
0000
0000
0020
0000
0000
0000
0000
0000
0000
0000
0000
0000
0000
0000
0000
0000
0000
0030
0010
0000
0000
0000
0000
0000
0000
0000
1000
0000
0000
0000
0000
0000
0000
0000
0100
0000
0000
0000
0000
0000
0000
0000
1000
0000
0000
0000
0000
0000
0000
0000
0010
0000
0000
0000
0000
0000
0000
0000
,
0001
1000
0010
0010
1000
0100
1000
0001
,
1000
0000
0010
0100
0001
0000
0010
0000
1000
0000
0010
0000
1000
0000
0100
0000
,
0010
0001
0110
0010
1001
0100
1000
0001
,
1100
0000
0000
0000
0000
0000
0000
0000
0020
0000
0000
0000
0000
0000
0000
0000
0000
0000
0000
0000
0000
0000
0000
0030
0010
0000
0000
0000
0000
0000
0000
0000
1001
0000
0000
0000
0000
0000
0000
0000
0100
0000
0000
0000
0000
0000
0000
0000
1000
0000
0000
0000
0000
0000
0000
0000
0010
0000
0000
0000
0000
0000
0000
0000
,
0101
1000
0010
0010
1001
0100
1000
0001
,
1100
0000
0000
0000
0000
0000
0000
0000
0020
0000
0000
0000
0000
0000
0000
0000
0000
0000
0000
0000
0000
0000
0000
0030
0010
0000
0000
0000
0000
0000
0000
0000
1001
0000
0000
0000
0000
0000
0000
0000
0100
0000
0000
0000
0000
0000
0000
0000
1000
0000
0000
0000
0000
0000
0000
0000
0010
0000
0000
0000
0000
0000
0000
0000
,
0101
1000
0010
0010
1001
0100
1000
0001
,
1100
0000
0000
0000
0000
0000
0000
0000
0020
0000
0000
0000
0000
0000
0000
0000
0000
0000
0000
0000
0000
0000
0000
0030
0010
0000
0000
0000
0000
0000
0000
0000
1001
0000
0000
0000
0000
0000
0000
0000
0100
0000
0000
0000
0000
0000
0000
0000
1000
0000
0000
0000
0000
0000
0000
0000
0010
0000
0000
0000
0000
0000
0000
0000
,
0101
0000
1000
0000
0010
0000
0010
0000
1001
0000
0100
0000
0001
0010
0100
0000
,
1000
1000
0202
0000
0303
0000
0000
0000
;
