#TITLE:Love Hina;
#SUBTITLE:- Sakura Saku [Euro Beat Mix];
#ARTIST:Erina Nakajima;
#TITLETRANSLIT:;
#SUBTITLETRANSLIT:;
#ARTISTTRANSLIT:;
#CREDIT:;
#BANNER:LoveHinaLogo.png;
#BACKGROUND:LoveHinaBG.png;
#LYRICSPATH:;
#CDTITLE:;
#MUSIC:SakuraSaku.mp3;
#OFFSET:1.553;
#SAMPLESTART:34.503;
#SAMPLELENGTH:12.000;
#SELECTABLE:YES;
#BPMS:0.000=166.050;
#STOPS:;
#BGCHANGES:23.500=LoveHina.avi=1.000=0=0=1,
319.500=LoveHinaBG.png=1.000=0=0=1,
99999=-nosongbg-=1.000=0=0=0 // don't automatically add -songbackground-
;
// cache tags:
#FIRSTBEAT:10.500;
#LASTBEAT:324.000;
#SONGFILENAME:Songs/Anime Songs/Love Hina Euro Mix/Love Hina - Sakura Saku [Euro Beat Mix].sm;
#HASMUSIC:1;
#HASBANNER:1;
#MUSICLENGTH:122.254;
// end cache tags

//---------------dance-single - BASIC----------------
#NOTES:
     dance-single:
     BASIC:
     Easy:
     2:
     0.181,0.132,0.008,0.000,0.000,154.000,1.000,0.000,0.000,0.000:

0000
0000
0000
0000
,
0000
0000
0000
0000
,
0000
0000
0000
0000
0000
1000
0000
0000
,
0000
1000
0000
0000
0000
0001
0000
0000
,
0000
0001
0000
0000
0000
1000
0000
0000
,
0000
1000
0000
0000
0000
0100
0000
0000
,
0000
0100
0000
0000
0000
0010
0000
0000
,
0000
0010
0000
0000
0000
1000
0000
0000
,
0000
0001
0000
0000
0000
0100
0000
0000
,
0000
0010
0000
0000
0000
0100
0000
0000
,
0000
1000
0000
0000
0000
0010
0000
0000
,
0000
0001
0000
0000
0000
0010
0000
0000
,
0000
0001
0000
0000
0000
0010
0000
0000
,
0000
1000
0000
0000
0000
0100
0000
0000
,
0000
1000
0000
0000
0000
0100
0000
0000
,
0000
1000
0000
0000
0000
1000
0000
0000
,
0000
0100
0000
0000
0000
1000
0000
0000
,
0000
0001
0000
0000
0000
0010
0000
0000
,
0000
0100
0000
0000
0000
0001
0000
0000
,
0000
0100
0000
0000
0000
0100
0000
0000
,
0000
0100
0000
0000
0000
0100
0000
0000
,
0000
0010
0000
0000
0000
0010
0000
0000
,
0000
0010
0000
0000
0000
0010
0000
0000
,
0000
1000
0000
0000
0000
0001
0000
0000
,
0000
0001
0000
0000
0000
1000
0000
0000
,
0000
1000
0000
0000
0000
0100
0000
0000
,
0000
0100
0000
0000
0000
0010
0000
0000
,
0000
0010
0000
0000
0000
1000
0000
0000
,
0000
0001
0000
0000
0000
0100
0000
0000
,
0000
0010
0000
0000
0000
0100
0000
0000
,
0000
1000
0000
0000
0000
0010
0000
0000
,
0000
0001
0000
0000
0000
0010
0000
0000
,
0000
0001
0000
0000
0000
1000
0000
0000
,
0000
0100
0000
0000
0000
1000
0000
0000
,
0000
0100
0000
0000
0000
1000
0000
0000
,
0000
0010
0000
0000
0000
1000
0000
0000
,
0000
0100
0000
0000
0000
1000
0000
0000
,
0000
0001
0000
0000
0000
0001
0000
0000
,
0000
0001
0000
0000
0000
0001
0000
0000
,
0000
0100
0000
0000
0000
0100
0000
0000
,
0000
0100
0000
0000
0000
0100
0000
0000
,
0000
0010
0000
0000
0000
0010
0000
0000
,
0000
0010
0000
0000
0000
0010
0000
0000
,
0000
0100
0000
0000
0000
0100
0000
0000
,
0000
0100
0000
0000
0000
0100
0000
0000
,
0000
0100
0000
0000
0000
0010
0000
0000
,
0000
0010
0000
0000
0000
0010
0000
0000
,
0000
0010
0000
0000
0000
1000
0000
0000
,
0000
0001
0000
0000
0000
0001
0000
0000
,
0000
0100
0000
0000
0000
1000
0000
0000
,
0000
1000
0000
0000
0000
1000
0000
0000
,
0000
0010
0000
0000
0000
0010
0000
0000
,
0000
0010
0000
0000
0000
0001
0000
0000
,
0000
0001
0000
0000
0000
0001
0000
0000
,
0000
0100
0000
0000
0000
0100
0000
0000
,
0000
0100
0000
0000
0000
1000
0000
0000
,
0000
0001
0000
0000
0000
1000
0000
0000
,
0000
0001
0000
0000
0000
1000
0000
0000
,
0000
0001
0000
0000
0000
0100
0000
0000
,
0000
0010
0000
0000
0000
0100
0000
0000
,
0000
0010
0000
0000
0000
0100
0000
0000
,
0000
0010
0000
0000
0000
1000
0000
0000
,
0000
0100
0000
0000
0000
0001
0000
0000
,
0000
0010
0000
0000
0000
1000
0000
0000
,
0000
0001
0000
0000
0000
0100
0000
0000
,
0000
0010
0000
0000
0000
0100
0000
0000
,
0000
0010
0000
0000
0000
0001
0000
0000
,
0000
1000
0000
0000
0000
0001
0000
0000
,
0000
0100
0000
0000
0000
1000
0000
0000
,
0000
0010
0000
0000
0000
0001
0000
0000
,
0000
0100
0000
0000
0000
1000
0000
0000
,
0000
0010
0000
0000
0000
1000
0000
0000
,
0000
0100
0000
0000
0000
0010
0000
0000
,
0000
0010
0000
0000
0000
1000
0000
0000
,
0000
0100
0000
0000
0000
1000
0000
0000
,
0000
0001
0000
0000
0000
1000
0000
0000
,
0000
0001
0000
0000
0000
1000
0000
0000
,
0000
0001
0000
0000
0000
1000
0000
0000
,
0000
0001
0000
0000
0000
1000
0000
0000
,
0000
0000
0000
0000
,
0000
0000
0000
0000
0000
0000
0000
1001;

//---------------dance-single - ANOTHER----------------
#NOTES:
     dance-single:
     ANOTHER:
     Medium:
     5:
     0.425,0.430,0.409,0.000,0.000,314.000,50.000,0.000,0.000,0.000:

0000
0000
0000
0000
,
0000
0000
0000
0000
,
0000
0000
0000
0000
0000
0000
0000
1000
,
0000
0001
0000
1000
0000
0001
0000
1000
,
0000
0001
0000
0010
0000
0100
0000
0010
,
0000
0100
0000
0010
0000
0100
0000
1000
,
0000
1000
0000
1000
0000
0001
0000
0001
,
0000
0001
0000
0010
0000
0010
0000
0010
,
0000
0100
0000
0100
0000
0100
0000
1000
,
0000
0100
0000
0001
0000
0010
0000
1000
,
0000
0010
0000
0001
0000
0100
0000
1010
,
0000
0100
0000
0101
0000
1000
0000
0010
,
0000
0001
0000
0010
0000
1000
0000
0001
,
0000
0100
0000
1000
0000
0001
0000
0100
,
0000
1000
0000
0010
0000
0100
0000
1000
,
0000
0001
0000
0001
1000
0001
0000
0001
,
0000
0001
0000
0001
0000
1000
0000
1000
,
0000
1000
0000
0100
0000
0010
0000
1000
,
0000
0001
0000
0010
0000
1000
0000
0001
,
0000
0100
0000
1000
0000
0100
0000
1000
,
0000
0110
0000
0010
0000
0001
0000
0100
,
0000
1000
0000
0010
0000
0001
0000
0010
,
0000
1001
0000
0100
0000
1000
0000
0001
,
0000
0010
0000
0100
0000
1000
0000
0001
,
0000
0010
0000
0100
0000
1000
0000
0001
,
0000
0010
0000
1000
0000
0001
0000
1000
,
0000
0001
0000
1000
0000
0100
0000
0100
,
0000
1000
0000
1000
0000
0001
0000
0001
,
0000
0010
0000
0010
0000
0010
0000
0110
,
0000
1001
0000
0110
0000
1001
0000
1000
,
0000
1000
0000
1000
0000
1000
0000
1001
,
0000
0110
0000
1001
0000
0110
0000
0001
,
0000
0001
0000
0001
0000
0001
0000
1000
,
0000
1000
0000
1000
0000
1000
0000
0010
,
0000
1000
0000
0100
0000
0001
0000
0010
,
0000
0100
0000
0001
0000
1000
0000
0001
,
0000
1000
0000
0001
0000
1000
0000
1001
,
0000
0110
0000
1001
0000
0110
0000
0010
,
0000
0010
0000
0010
0000
0010
0000
0110
,
0000
1001
0000
0110
0000
1001
0000
0100
,
0000
1000
0000
0001
0000
0010
0000
0100
,
0000
0100
0000
0001
0000
0001
0000
0010
,
0000
0010
0000
1000
0000
1000
0000
1000
,
0000
0001
0000
0001
0000
0001
0000
1000
,
0000
1000
0000
1000
0000
0100
0000
0100
,
0000
0100
0000
0010
0000
0010
0000
0010
,
0000
1000
0000
1000
0000
1000
0000
1000
,
0000
0010
0000
0010
0000
0010
0000
0010
,
0000
0001
0000
0001
0000
0001
0000
0001
,
0000
0100
0000
0100
0000
0100
0000
0100
,
0000
0010
0000
1000
0000
0001
0000
0100
,
0000
1000
0000
0010
0000
1000
0000
0001
,
0000
0100
0000
1000
0000
0001
0000
0110
,
0000
1001
0000
0110
0000
1001
0000
1000
,
0000
1000
0000
1000
0000
1000
0000
1001
,
0000
0110
0000
1001
0000
0110
0000
0001
,
0000
0001
0000
0001
0000
0001
0000
1000
,
0000
1000
0000
1000
0000
1000
0000
0100
,
0000
0010
0000
1000
0000
0100
0000
0001
,
0000
0010
0000
0100
0000
0001
0000
1000
,
0000
0001
0000
1000
0000
0001
0000
1001
,
0000
0110
0000
1001
0000
0110
0000
0010
,
0000
0010
0000
0010
0000
0010
0000
0110
,
0000
1001
0000
0110
0000
1001
0000
0100
,
0000
0010
0000
0001
0000
1000
0000
0100
,
0000
0001
0000
0010
0000
1000
0000
0100
,
0000
0001
0000
1000
0000
0010
0000
0110
,
0000
0100
0000
0110
0000
1000
0000
1001
,
0000
0001
0000
1001
0000
0110
0000
1001
,
0000
0110
0000
1001
0000
0001
0000
0001
,
0000
0100
0000
0100
0000
0001
0000
0001
,
0000
0010
0000
0010
0000
0100
0000
0100
,
0000
0100
0000
0100
0000
1000
0000
1000
,
0000
1000
0000
1000
0000
0010
0000
0010
,
0000
0010
0000
0010
0000
0001
0000
0001
,
0000
0001
0000
0001
0000
1000
0000
0100
,
0000
0001
0000
0010
0000
1000
0000
0100
,
0000
0001
0000
0010
0000
1000
0000
0001
,
0000
0010
0000
0100
0000
1000
0000
0001
,
0000
1000
0000
0001
0000
1010
0000
0011
,
0000
1100
0000
0101
0000
0110
0000
1001;

//---------------dance-single - MANIAC----------------
#NOTES:
     dance-single:
     MANIAC:
     Hard:
     7:
     0.501,0.497,0.409,0.204,0.025,354.000,50.000,25.000,0.000,0.000:

0000
0000
0000
0000
,
0000
0000
0000
0000
,
0000
0000
0000
0000
0000
0000
0000
0110
,
0000
0110
0000
2000
3000
0002
0003
0010
,
0100
1000
0001
0100
0000
0010
0100
1000
,
0001
0100
0000
1001
0000
1001
0000
0100
,
0001
1000
0010
0100
0000
0100
0001
1000
,
0010
0100
0000
0110
0000
0110
0000
1000
,
0010
0100
0001
1000
0000
1000
0010
0001
,
0100
1000
0000
0001
0000
0010
0000
1000
,
0000
0010
0000
0002
0000
0000
0000
1003
,
0000
1000
0001
1000
0100
0100
0000
1000
,
0000
0001
0000
0010
0010
0010
0000
0001
,
0000
1000
0000
0100
0100
0100
0000
0001
,
0000
1000
0000
1000
0001
1000
0001
1000
,
0000
0000
0110
0000
0110
1001
0000
0001
,
0000
0001
0000
1000
0001
1000
0000
0100
,
0000
0010
0000
0100
0010
0100
0000
0001
,
0000
0001
0000
1000
1000
1000
0000
1000
,
0000
0001
0001
0001
0000
0010
0000
0001
,
0000
0000
0022
0000
0000
0000
0033
0000
0000
0000
0002
0000
0003
0000
0000
0100
,
0000
0100
0000
0000
0000
1100
0000
0000
0000
0000
0100
0000
0000
0000
1000
0000
,
0000
0000
2200
0000
0000
0000
3300
0000
0000
0000
2000
0000
3000
0000
0000
0010
,
0000
0010
0000
0000
0000
0101
0000
0000
0000
0000
1000
0000
0000
0000
0100
0000
,
0000
1000
0100
1000
0000
0001
0000
0100
,
0000
0001
0100
0001
0000
1000
0000
0001
,
0000
1000
0000
0110
0000
1001
0000
0110
,
0000
1001
0000
0001
0000
1000
0000
0001
,
0000
0100
0000
0010
0000
1000
0000
0001
,
1000
0001
0100
1000
0001
1000
0001
0000
,
0000
1000
0000
1001
0000
0001
0000
0010
,
1000
0001
0100
1000
0001
1000
0001
0000
,
0000
0002
0000
0003
0000
2000
0000
3000
,
0000
0200
0000
0000
0000
0000
0000
0300
,
0000
0010
0000
1001
0000
0110
0000
1001
,
0000
0110
0000
0100
0000
1000
0000
0010
,
0000
1000
0000
0001
0000
0100
0000
0010
,
0010
0100
0100
1000
0001
1000
0001
0000
,
0000
0010
0000
0110
0000
0100
0000
0010
,
0010
0100
0100
1000
0001
1000
0001
0000
,
0000
1000
0000
0001
0000
0010
0000
0100
,
0000
0100
0000
0001
0000
0001
0000
0010
,
0000
0010
0000
1000
0000
0100
0000
2020
,
0000
3030
0000
0002
0000
1000
0000
0103
,
0000
2000
0000
0001
0000
3100
0000
1000
,
0001
1000
0001
1000
0000
0001
1000
0001
,
1000
0001
0000
1000
0000
0001
0000
1010
,
0000
0101
0000
0100
0000
1000
0000
1100
,
0000
0011
0000
1000
0000
0001
0000
0100
,
0010
0100
0010
0100
0000
0010
0100
0010
,
0100
0010
0000
0100
0000
0010
0000
2000
,
0000
0000
3000
0002
0000
0000
0003
0000
,
0000
1000
0000
0001
0000
0100
0000
0100
,
0100
0010
0010
0001
1000
0001
1000
0000
,
0000
1000
0000
1100
0000
0100
0000
0100
,
0100
0010
0010
0001
1000
0001
1000
0000
,
0000
2000
0000
3000
0000
0002
0000
0003
,
0000
0200
0000
0000
0000
0000
0000
0300
,
0000
0010
0000
1001
0000
0110
0000
1001
,
0000
0110
0000
0010
0000
0100
0000
1000
,
0000
0001
0000
1000
0000
0001
0000
1000
,
1000
0001
0001
0010
0100
0010
0100
0000
,
0000
1000
0000
1010
0000
0010
0000
1000
,
1000
0001
0001
0010
0100
0010
0100
0000
,
0000
0100
0000
0001
0000
1000
0000
0100
,
0000
0001
0000
0010
0000
1000
0000
0100
,
0000
0001
0000
1000
0000
1001
0000
1001
,
1001
0110
0110
0000
0000
0100
0000
0010
,
0000
0100
0000
1000
0000
1001
0000
0110
,
0110
1001
1001
0000
0000
1000
0000
0001
,
0000
1000
0000
0001
0000
0100
0000
0010
,
0000
0100
0000
0010
0000
0100
0000
0010
,
0000
0100
0000
0110
0000
1000
0000
0001
,
0000
1000
0000
1001
0000
1000
0000
0010
,
0000
1000
0000
1010
0000
0001
0000
0010
,
0000
0001
0000
0011
0000
2000
0000
0100
,
0000
0001
0000
0100
0000
3001
0000
1001
,
0000
0002
0000
0100
0000
1000
0000
0100
,
0000
1003
0000
0020
0000
0000
0200
0000
,
0000
0000
0000
0330
0000
0000
0000
0000
,
1000
0100
0001
0100
0001
0100
0001
1000
,
1001
0000
0000
0000;
