#TITLE:Drum & Bass;
#SUBTITLE:;
#ARTIST:Dr. Flowershirts;
#TITLETRANSLIT:;
#SUBTITLETRANSLIT:;
#ARTISTTRANSLIT:;
#CREDIT:;
#BANNER:dnb-bn.png;
#BACKGROUND:dnb-bg.png;
#LYRICSPATH:;
#CDTITLE:;
#MUSIC:drumnbass.mp3;
#OFFSET:-2.295;
#SAMPLESTART:35.347;
#SAMPLELENGTH:12.000;
#SELECTABLE:YES;
#BPMS:0.000=182.000;
#STOPS:;
#BGCHANGES:;
// cache tags:
#FIRSTBEAT:0.000;
#LASTBEAT:288.000;
#SONGFILENAME:Songs/Essential Sim Collection/(Moogy) drum & bass/dnb.sm;
#HASMUSIC:1;
#HASBANNER:1;
#MUSICLENGTH:99.900;
// end cache tags

//---------------dance-single - ----------------
#NOTES:
     dance-single:
     :
     Challenge:
     12:
     1.000,1.000,1.000,0.000,1.000,759.000,213.000,0.000,0.000,0.000:  // measure 1
1001
0000
0000
0000
0010
1000
0001
0100
0010
0001
0100
0010
0000
0000
0000
0000
,  // measure 2
0010
0000
0000
0000
0000
0010
1000
0000
0000
0100
0000
0010
0000
0001
0000
0000
,  // measure 3
0010
0000
0000
0000
0000
0001
1000
0000
0000
0010
0000
0100
0000
1000
0000
0000
,  // measure 4
1000
0000
0000
0010
0000
0000
1001
0110
,  // measure 5
1001
1000
0000
0000
,  // measure 6
1000
0001
0000
1000
,  // measure 7
1000
1000
1000
1000
1000
1000
1000
1000
1000
1000
1000
1000
1000
1000
1000
1000
,  // measure 8
1001
0000
0110
0000
1001
0000
0110
0000
1001
0000
0110
0000
1001
0110
1001
0110
,  // measure 9
1001
0000
0000
0000
0010
1000
0001
0100
0010
0001
1000
0010
0101
0000
0000
0000
,  // measure 10
1010
0000
0000
0000
0010
1000
0010
0100
0001
0100
0010
0001
1100
0000
0000
0000
,  // measure 11
0110
0000
0000
0000
0001
1000
0010
0100
0001
0010
0100
1000
0011
0000
1000
0001
,  // measure 12
0100
0010
1000
0001
0110
1000
0001
0100
0011
1000
0100
0001
0110
0000
1001
0000
,  // measure 13
0110
0000
0000
0000
0001
0010
0100
1000
0001
0010
0100
1000
0001
0010
0100
1000
,  // measure 14
0100
0010
0001
1000
0100
0010
0001
1000
0100
0010
0001
0010
0100
1000
0100
0010
,  // measure 15
0001
0010
0100
1000
0001
0010
0100
1000
0001
0010
0100
1000
0100
0010
0001
0010
,  // measure 16
0100
1000
0100
0010
0001
0001
1000
1000
0101
0000
1001
0000
0011
0000
1100
0000
,  // measure 17
0011
0000
0000
0000
1000
0001
0100
0010
0001
0010
0100
1000
0011
0000
0000
0000
,  // measure 18
1100
0000
0000
0000
0001
1000
0010
0100
0001
1000
0010
0100
0011
0000
0000
0000
,  // measure 19
1100
0000
0000
0000
0001
0010
0100
1000
0001
0100
0010
1000
0011
0000
0001
0100
,  // measure 20
0001
0010
1000
0010
1100
0001
0100
0010
1100
0001
0100
0010
1001
0000
0110
0000
,  // measure 21
1001
0000
0000
0000
0001
1000
0001
0100
0010
1000
0001
0010
1100
0000
0000
0000
,  // measure 22
0110
0000
0000
0000
0010
1000
0001
0010
0100
1000
0001
0100
0011
0000
0000
0000
,  // measure 23
0101
0000
0000
0000
0001
1000
0010
0100
0011
1000
0100
0010
1001
0010
0100
0001
,  // measure 24
0010
0000
0000
0000
0000
0000
1001
0110
,  // measure 25
1001
0000
0000
0000
0001
1000
0010
0100
0010
0100
0001
0010
1100
0000
0000
0000
,  // measure 26
0101
0000
0000
0000
0010
1000
0001
0100
0001
1000
0001
1000
0011
0000
0000
0000
,  // measure 27
1010
0000
0000
0000
0010
0100
0010
1000
0010
0100
0010
0001
0110
0000
0100
0010
,  // measure 28
0100
1000
0010
0100
0011
1000
0010
0100
1010
0001
1000
0100
0011
0100
1000
0000
,  // measure 29
0011
1100
0000
0000
1000
0100
0010
0010
0001
1000
0001
0100
0011
0000
0000
0000
,  // measure 30
0110
0000
0000
0000
1000
0001
1000
0001
0010
0100
0010
0100
1001
0000
0000
0000
,  // measure 31
1001
0010
0100
1000
0101
0010
0100
0001
0110
1000
0010
0100
1001
0010
0100
1000
,  // measure 32
0011
0000
0000
0000
0000
0000
0000
0000
0000
0000
0000
0000
0001
1000
0010
0100
,  // measure 33
0001
0000
0000
0000
0001
1000
0010
0100
0001
0010
0100
1000
0011
0000
0000
0000
,  // measure 34
0001
1000
0010
0100
0011
0100
1000
0100
0011
0100
0001
1000
0110
0000
0000
0000
,  // measure 35
0101
1000
0010
0100
1000
0010
0100
0001
1010
0100
0001
1000
0010
0100
0001
1000
,  // measure 36
0110
0001
1000
0010
0100
0001
0010
0100
1010
0100
0001
1000
0010
0100
1000
0001
,  // measure 37
0110
1000
0100
0010
0001
0010
0100
1000
0100
0010
0001
0010
0100
1000
0100
0010
,  // measure 38
0001
0010
0100
1000
0100
0010
0001
0010
0100
1000
0100
0010
0001
0010
0100
1000
,  // measure 39
0010
0100
0001
0100
0010
1000
0010
0100
0001
0100
0010
1000
0010
0100
0001
0100
,  // measure 40
0010
1000
0010
0100
0001
0100
0010
1000
0010
0100
0001
0100
0010
1000
0010
0100
,  // measure 41
0001
0000
0000
0000
0011
0100
1000
0010
0100
0001
0010
0100
1001
0000
0000
0000
,  // measure 42
0110
0000
0000
0000
0011
1000
0100
1000
0100
1000
0100
1000
0011
0000
0011
0000
,  // measure 43
0011
0100
0000
0000
0000
0000
0000
0000
0011
0100
1000
0010
0100
0001
0100
0010
,  // measure 44
1100
0010
0001
1000
0011
0100
0001
0010
1100
0010
0100
0001
1100
0010
0001
0010
,  // measure 45
1100
0000
1100
0000
1100
0010
0100
0001
0100
0010
1000
0010
0101
0000
0000
0000
,  // measure 46
0110
0000
0000
0000
1010
0100
0001
0100
0010
1000
0001
0100
0011
0000
0000
0000
,  // measure 47
1010
0100
0001
1000
0110
0001
0010
0100
0011
0100
0001
0100
1010
0001
1000
0100
,  // measure 48
0011
0100
1000
0010
0100
0001
0100
0010
1100
0000
0011
0000
1100
0000
0110
0000
,  // measure 49
0011
1010
0110
0011
0000
0011
0110
1010
,  // measure 50
0110
0011
0110
1010
0000
0011
1010
0110
,  // measure 51
0011
0110
1010
0101
0000
1001
0110
0011
,  // measure 52
1010
0110
1001
0110
0000
0011
0110
1010
,  // measure 53
0110
0101
0110
1001
0000
0011
0110
1100
,  // measure 54
0110
0011
0101
1010
0000
1001
0110
0011
,  // measure 55
1010
0110
1001
0011
0000
1010
0110
0101
,  // measure 56
0110
1100
0011
0110
0000
1100
0110
0011
,  // measure 57
1010
1010
0110
0011
,  // measure 58
0110
1010
0011
0110
,  // measure 59
1010
0110
0101
1010
,  // measure 60
0110
0011
1010
0110
,  // measure 61
1001
0011
1010
0110
,  // measure 62
1001
0011
0110
1100
,  // measure 63
0100
0010
0100
0010
0100
0000
0000
0001
0010
0001
0010
0001
0010
0100
1000
0010
,  // measure 64
0100
0000
0001
0000
0010
0000
0100
0000
1000
0000
0010
0000
0100
0000
0001
0000
0010
0000
0100
0000
0010
1000
0100
0010
0001
0100
0010
1000
0100
0010
0001
0100
,  // measure 65
0010
0000
0000
0000
1010
0100
0010
0001
0010
0100
1000
0010
0101
0000
0000
0000
,  // measure 66
1100
0000
0110
0000
0011
0100
1000
0010
0100
0001
0010
0100
1001
0000
0000
0000
,  // measure 67
0011
0000
0110
0000
1100
0010
0100
0001
0100
0010
0001
0010
1100
0000
0000
0000
,  // measure 68
1010
0000
0101
0000
0110
0000
0011
0000
1100
0010
1000
0001
1100
0000
0000
0000
,  // measure 69
0011
0000
0000
0000
1010
0100
0010
1000
0001
0100
0010
1000
0110
0000
0000
0000
,  // measure 70
1010
0000
0110
0000
0011
1000
0001
0100
0010
1000
0001
0010
1100
0000
1010
0000
,  // measure 71
0110
0000
0000
0000
0100
0000
1000
0000
0010
0000
0100
0000
0001
0010
0001
1000
0010
1000
0010
0100
0001
0010
0100
0000
1010
0000
0000
0000
0110
0000
0000
0000
,  // measure 72
0101
1000
0010
0100
0001
1000
0010
0100
0010
0001
1000
0010
0100
0001
0010
0100
,  // measure 73
1010
0000
0000
0000
;
