#TITLE:Being;
#SUBTITLE:Shakugan no Shana OP theme;
#ARTIST:KOTOKO;
#TITLETRANSLIT:;
#SUBTITLETRANSLIT:;
#ARTISTTRANSLIT:;
#CREDIT:ALICE_;
#BANNER:Being.png;
#BACKGROUND:Being.jpg;
#LYRICSPATH:;
#CDTITLE:cdtitle.png;
#MUSIC:Being.mp3;
#OFFSET:1.495;
#SAMPLESTART:62.180;
#SAMPLELENGTH:12.000;
#SELECTABLE:YES;
#BPMS:0.000=148.020;
#STOPS:;
#BGCHANGES:3.667=Being.avi=1.000=1=0=1,
225.000=Being.jpg=1.000=1=0=1,
99999=-nosongbg-=1.000=0=0=0 // don't automatically add -songbackground-
;
// cache tags:
#FIRSTBEAT:4.000;
#LASTBEAT:225.000;
#SONGFILENAME:Songs/alice 4th complete step/Being/Being.sm;
#HASMUSIC:1;
#HASBANNER:1;
#MUSICLENGTH:90.026;
// end cache tags

//---------------dance-single - ----------------
#NOTES:
     dance-single:
     :
     Hard:
     7:
     0.595,0.531,0.267,0.100,0.044,342.000,24.000,9.000,0.000,0.000:
0000
0000
0000
0000
,
2002
0000
0000
3003
,
1000
0000
0100
0000
0010
0000
0001
0100
,
0000
0010
0000
1000
0000
0001
0000
0100
,
0001
0000
1000
0000
0010
0000
0100
1000
,
0000
0001
0000
0010
0000
0001
0000
1000
,
0010
0000
0100
0000
0001
0000
1000
0100
,
0000
0010
0000
0001
0000
1000
0000
0100
,
0001
0010
0000
0100
1000
0010
0000
0001
,
0010
0100
0000
1000
0001
0100
0010
0000
,
1100
0000
0001
0000
0100
0001
1000
0001
,
0100
0010
1000
0000
0100
1000
0001
0100
,
0001
0010
1000
0000
0010
0001
1000
0000
,
0010
1000
0001
0010
0100
1000
0010
0100
,
0001
0011
1000
1010
,
0001
0000
0101
0000
1100
0000
0001
1000
,
0100
0010
0110
0000
0100
1000
0010
0000
,
1000
0001
0100
1000
0100
0010
1000
0100
,
0010
0000
0011
0000
0100
1000
0010
0100
,
0001
1000
0001
0000
0010
0100
0001
1000
,
0010
0000
0101
0000
1000
0100
1000
0010
,
0100
0001
1000
0000
0010
0100
0100
0010
,
1000
0100
0001
0000
0100
1000
0010
0100
,
0001
0010
1000
0000
0010
0001
0100
0010
,
0100
0001
1000
0100
1000
0001
0100
0001
,
0010
0000
0101
0000
0010
1000
0001
1000
,
0100
0000
0110
0000
0010
1000
0001
0000
,
1000
0000
1001
0000
0001
0010
0100
0000
,
0010
0000
0011
0000
0100
0010
1000
0001
,
0100
0010
1000
0100
0010
0001
0100
0100
,
1001
0000
0010
0001
0010
0000
0100
0000
,
1001
0000
0010
1000
0010
0000
0100
0000
,
0101
0000
1000
1000
0100
1000
0001
0010
,
0001
0100
0010
1000
0100
0010
0100
0010
,
0001
0000
1100
0000
0001
0010
0001
1000
,
0010
0100
0001
0000
1000
0100
0010
1000
,
0010
0001
0100
0000
0001
1000
0001
0100
,
0001
0010
0001
1000
0010
0100
0001
1000
,
0100
0000
0110
0000
0100
0010
0001
1000
,
0010
0100
0020
0000
2030
0000
0002
3003
,
1001
0000
0000
0100
0001
0000
0000
0000
0010
0000
0001
0000
0100
0000
0010
0000
,
1000
0000
0000
0100
1000
0000
0000
0000
0010
0000
0100
0000
0001
0000
1000
0000
,
0100
0000
0000
0100
0010
0000
0000
0000
0001
0000
0100
0000
1000
0000
0100
0000
,
0001
0010
0010
0100
1000
0001
0100
0010
,
1000
0000
0000
0001
0100
0000
0000
0000
0010
0000
1000
0000
0001
0000
0010
0000
,
0100
0000
0000
1000
0010
0000
0100
0000
0000
0000
0001
0000
1000
0000
0001
0000
,
0100
1010
0100
0011
,
0100
1000
0001
0100
0001
0010
0001
1000
,
0010
0000
0000
0100
0001
0000
0000
0000
0100
0000
0001
0000
0010
0000
0001
0000
,
1000
0000
0000
0100
0010
0000
0000
0000
0001
0000
1000
0000
0100
0000
1000
0000
,
0010
0000
0000
1000
0001
0000
0000
0000
0100
0000
0001
0000
0010
0000
0100
0000
,
1000
0001
0100
1000
0100
0010
1000
0001
,
0010
0100
2000
0000
3010
0100
0001
1000
,
0001
0100
0020
0000
1030
0001
0100
0010
,
1000
0100
0002
0000
0103
1000
0010
0100
,
0000
1001
0000
1010
0000
0011
0000
0100
,
0020
0030
0000
0000
;

//---------------dance-single - ----------------
#NOTES:
     dance-single:
     :
     Medium:
     5:
     0.479,0.469,0.233,0.233,0.000,260.000,21.000,21.000,0.000,0.000:
0000
0000
0000
0000
,
0020
0000
0000
0030
,
1000
0000
0100
1000
0000
1000
0000
0001
,
0000
0001
0000
0100
0000
0001
0000
1000
,
0000
0000
0001
0010
0000
0100
0000
2000
,
0000
0000
0000
0000
0000
3010
0100
0002
,
0000
0000
0000
0000
0000
0000
0003
0100
,
1000
0000
0001
0010
0000
0001
0000
0200
,
0000
0000
0000
0300
,
0010
1000
0001
1000
0100
1000
0010
0000
,
0100
0001
0100
0000
0000
0001
1000
0000
,
0100
1000
0100
0000
0000
1000
0010
0000
,
0100
0001
0010
0000
0000
0100
1000
0000
,
0100
1000
0001
1000
0010
0100
0001
1000
,
0010
0100
0010
0000
0000
1000
0100
0000
,
0010
0001
0010
0000
0000
0001
1000
0000
,
0100
0010
0100
0000
0000
1000
0010
0000
,
0100
0001
1000
0100
0001
0100
1000
0001
,
0100
0000
0101
0000
1000
0100
1000
0100
,
1000
0000
1010
0000
0001
0100
0001
0000
,
1000
0000
1100
0000
0001
0100
0001
0100
,
0001
0000
0011
0000
1000
0010
1000
0000
,
0001
1000
0001
0010
,
1000
0100
0001
1000
,
0010
0100
0010
0101
,
0010
0000
1000
0000
0100
1000
0010
0000
,
0100
0101
0001
1001
,
1000
1010
0010
0110
,
1000
0001
0100
0010
,
1000
0100
1000
0001
0100
0001
1000
1000
,
0020
0000
0130
0002
0000
0000
0013
0000
,
0200
0000
0310
0002
0000
0000
0103
0000
,
0020
0000
1030
0200
0000
0000
0310
0000
,
0200
0000
1300
0010
0000
0100
0001
0100
,
0001
0000
1001
0000
1000
0001
0100
0001
,
1000
0010
0100
0000
0001
1000
0100
1000
,
0000
0010
0100
0000
1000
0001
0100
0001
,
0000
0010
0100
0000
1000
0010
0100
0001
,
0020
0030
2000
3000
0200
0300
0002
0003
,
0020
0000
0000
0000
0130
0010
0100
0010
,
0001
0101
1000
1100
,
0001
0000
0011
0000
1000
0010
0001
0000
,
0010
1000
0100
0001
,
0100
0000
1000
0000
0010
0100
0001
0000
,
1000
1100
0001
0101
,
1000
0010
0100
0001
,
2000
0010
0000
0001
,
0000
0000
0010
0000
3000
0000
0100
1000
,
0001
0011
1000
1010
,
0001
0000
0101
0000
1000
0100
0001
0000
,
0010
1000
0001
0100
,
0010
1000
0100
0001
0100
0001
0010
0200
,
0000
0001
0301
0000
0000
1000
0100
2000
,
0000
0010
3010
0000
0000
0100
0001
0020
,
0000
0100
0130
0000
0000
1000
0001
1000
,
0000
0110
0000
1001
0000
0110
0000
1000
,
0002
0003
0000
0000
;

//---------------dance-single - ----------------
#NOTES:
     dance-single:
     :
     Easy:
     3:
     0.284,0.280,0.011,0.044,0.000,174.000,1.000,4.000,0.000,0.000:
0000
0000
0000
0000
,
0000
0000
0000
0000
,
1000
1000
0100
0100
,
1000
0010
0100
0001
,
1000
0001
0100
0001
,
0010
0000
0100
0000
,
0001
0010
0001
0100
,
0001
1000
0010
1000
,
0020
0000
0000
0030
,
0100
0100
0010
0001
,
1000
0001
0000
1000
,
0010
0100
0001
1000
,
0001
0100
0000
0001
,
1000
0010
0010
0100
,
0001
0010
1000
0010
,
0001
0010
1000
0010
,
0002
0000
0000
0003
,
0100
0100
0010
0100
,
0001
1000
0000
0001
,
0100
0010
1000
0001
,
1000
0100
0000
1000
,
0001
0010
0100
0010
,
0001
1000
0001
1000
,
0010
0100
0010
0100
,
0001
0000
0000
0000
,
1000
0100
0010
0001
,
1000
1000
0000
0100
,
0001
0001
0000
0010
,
0100
0100
0000
0001
,
1000
1000
0000
0010
,
0100
0001
0100
0001
,
1000
0001
1000
0001
,
1000
0010
1000
0010
,
0100
0001
1000
0010
,
0100
0100
0000
0000
,
0001
0001
0000
0000
,
1000
1000
0000
0000
,
0100
0100
0010
1000
,
0001
0100
1000
0100
,
0010
0000
0000
0000
,
1000
0100
0001
0010
,
1000
0010
0001
0100
,
1000
0001
0100
0010
,
0200
0000
0300
0000
,
0001
0100
1000
0100
,
0001
0010
1000
0010
,
0002
0000
0000
0003
,
0001
1000
0001
1000
,
0001
0100
1000
0010
,
0001
0100
0001
0010
,
1000
0100
0010
1000
,
0001
0000
0000
0000
0000
0100
0000
0010
,
0000
0000
0000
0000
0000
1000
0000
0001
,
0000
0000
0000
0000
0000
0100
0000
0010
,
0000
0000
0000
0000
,
1000
0001
0100
0010
,
0110
0000
0000
0000
;

//---------------dance-single - ----------------
#NOTES:
     dance-single:
     :
     Challenge:
     14:
     1.000,1.000,1.000,0.322,0.728,526.000,179.000,29.000,0.000,13.000:
0000
0000
0000
0000
,
2001
0000
0100
0000
0010
0000
0200
0000
3002
0000
0000
0300
2000
0000
3003
0000
,
1010
0000
0100
0000
0001
0000
0010
1100
,
0000
0001
0000
1000
0000
0010
0000
0001
,
0110
0000
1000
0000
0001
0000
0010
0200
,
0300
0000
1000
0011
0000
1000
0110
0000
1001
0000
0010
0101
0000
0010
1100
0000
,
1001
0000
0100
0000
0010
0000
0100
1010
,
0000
0110
0000
1100
0000
1001
0000
0102
,
0010
2000
3003
2010
0100
0002
3003
0101
,
0010
1000
0101
0000
0010
1001
0010
0100
0001
1000
0010
0100
2002
0000
0000
3003
,
0100
0010
0100
0010
0000
0000
0000
0000
1000
0000
1100
0000
0001
0000
0110
0000
,
0001
1000
0001
1000
0000
0000
0000
0000
0010
0000
0011
0000
1000
0000
0110
0000
,
0100
0001
1000
0010
0000
0000
0000
0000
1000
0000
1100
0000
0001
0000
0110
0000
,
0010
0000
1100
0001
1000
0010
0100
0010
1000
0001
0100
0001
0010
0001
0100
0010
,
1000
0000
1100
0011
0000
0000
0000
0000
1000
0000
1010
0000
0001
0000
0100
0000
,
0010
0000
0011
1100
0000
0000
1000
0000
0010
0000
0110
0000
1000
0000
0101
0000
,
0010
0000
0010
1001
0200
0000
0000
0000
2310
0000
0100
0000
3011
0000
0100
0000
,
1001
0000
0010
1100
0000
0001
1010
0000
0001
0100
0001
1010
0100
0000
1001
0001
,
0110
0000
0000
0000
0110
0000
0010
1000
0001
0000
1100
0000
1010
0000
0100
0000
,
1001
0000
1000
0000
0101
0000
0010
0100
0001
0000
1010
0000
1001
0000
0100
0000
,
1010
0000
0000
0000
0101
1000
0010
0100
0001
0000
1001
0000
0010
0000
0101
0000
,
1000
0000
1100
0000
0011
0000
0100
0000
1000
0100
1001
0000
1001
0010
0100
0000
,
1100
0010
0101
0010
1000
1010
0001
0110
,
0011
0000
0100
0000
1010
0000
0100
0000
0001
0000
0011
0000
1000
0001
0110
0000
,
1101
0000
1001
0000
1010
0000
0101
0000
1011
0000
1001
0000
0110
0001
1100
0000
,
0001
0010
1000
1000
0001
0010
0100
0100
0010
1000
0101
0000
0010
0001
1100
0010
,
1000
0001
0100
0010
1001
0010
0100
0000
0010
0000
1010
0000
0100
0000
0110
0000
,
0001
1000
0010
0100
1001
0100
0010
0000
0001
0000
0011
0000
0100
0000
1010
0000
,
1000
0000
0100
0000
0011
1000
0000
0010
0100
0000
0110
0000
0001
0000
1010
0000
,
0100
0000
1000
0000
0011
0000
0001
1000
0100
0000
1010
0000
1001
0000
0011
0000
,
1000
0000
1100
0000
0011
0100
1000
0000
0010
0000
0101
0000
1000
0000
1000
0000
,
0001
0000
0011
0000
1100
0010
0001
0000
0100
0000
1010
0000
0001
0010
0100
0000
,
2001
0100
3010
1000
0101
1100
0010
0101
,
1000
0000
0000
1010
0000
0000
0001
0000
0000
0101
0000
0000
0100
1000
0010
0100
0001
0000
0100
1000
0010
0100
0001
0000
,
1100
0000
1000
0000
0110
1000
0001
0000
0010
0000
0101
0000
1010
0000
1100
0000
,
0011
0000
0010
0000
0101
1000
0010
0000
0100
0000
1001
0000
0110
0000
1010
0000
,
0100
0000
0100
0000
1001
0100
0010
0000
1000
0000
1100
0000
0010
0100
0011
0000
,
1000
0100
1000
0000
1001
0100
0010
0000
1000
0001
0100
0010
1010
0000
0101
0000
,
2001
0000
0010
0000
0101
0000
0010
0000
0110
0000
0101
0000
0010
0000
3100
0100
,
1002
0000
0013
0000
2002
0000
3013
0000
0200
0000
2300
3000
0020
0030
0200
0300
,
1001
0010
0001
1100
0011
0000
0100
0000
0010
0000
1010
0000
0001
0000
0100
0000
,
1001
0100
1000
0011
1100
0000
0010
0000
0001
0000
0101
0000
1000
0000
0010
0000
,
0100
1000
0001
0110
1001
0000
0010
0100
0001
0000
1100
0000
0011
0000
0100
0000
,
1000
0011
1100
0010
1000
1100
0011
0100
,
2001
0000
0000
0001
3110
0000
0000
0000
1000
0000
1010
0000
0001
0000
1100
0000
,
1002
0000
0000
1000
0113
0000
1000
0000
0001
0000
0101
0000
1000
0000
0110
0000
,
1001
0000
0000
1001
0110
0000
1000
0001
0100
0010
0100
0010
1001
0000
0100
0000
,
0001
0010
1000
1000
0001
0100
0010
0010
1000
0001
0100
0100
0010
1000
0001
0100
,
1001
0000
0000
0010
1100
0000
0001
0000
0100
0000
1010
0000
0001
0000
0110
0000
,
1001
0000
0000
0100
0011
0000
1000
0000
0010
0000
0101
0000
1000
0000
1001
0000
,
0110
0000
0000
1010
0101
0000
0010
1000
0001
0100
1010
0000
0100
0000
0001
0010
,
0101
0000
1100
0000
0011
0000
1100
0000
1010
0100
0001
0000
0100
0000
1001
0000
,
0100
0000
0010
0000
1000
0000
0000
0000
0001
0010
0100
1000
0010
0100
1000
0000
0001
0000
0010
0000
0101
0000
0000
0000
1000
0000
0001
0000
0100
0000
1000
0000
,
0010
0000
0001
0000
0100
0000
0000
0000
1000
0100
0010
0001
0100
0010
0001
0000
1000
0000
0100
0000
1010
0000
0000
0000
1001
0000
0000
0000
0101
0000
0000
0000
,
0010
0000
1001
0000
0100
0000
0000
0000
1010
0001
0100
0010
1000
0001
0100
0000
0010
0000
1000
0000
0001
0000
0010
0000
1001
0000
0100
0000
0010
0000
0001
0000
,
2000
0000
0000
0000
0000
0000
3110
0000
0000
0000
0000
0000
0002
0000
0000
0000
0000
0000
0013
0000
0000
1000
0000
0000
0200
0000
0000
0000
0000
0000
0311
0000
0000
0000
0000
0000
1000
0000
0100
0000
1000
0000
0010
0000
0100
0000
0001
0000
,
2020
3030
0000
0000
;
