#TITLE:July;
#SUBTITLE:;
#ARTIST:☺;
#TITLETRANSLIT:;
#SUBTITLETRANSLIT:;
#ARTISTTRANSLIT:;
#CREDIT:;
#BANNER:July-Banner.png;
#BACKGROUND:July-bg.png;
#LYRICSPATH:;
#CDTITLE:;
#MUSIC:music.ogg;
#OFFSET:-0.011;
#SAMPLESTART:22.580;
#SAMPLELENGTH:11.160;
#SELECTABLE:YES;
#BPMS:0.000=170.000;
#STOPS:;
#BGCHANGES:0.000=July-bg.png=1.000=0=0=1,
16.000=VOL1-13-NTSC.mpg=1.000=0=0=1,
32.000=-random-=1.000=0=0=1,
64.000=vol3-15-ntsc.mpg=1.000=0=0=1,
80.000=vol3-12-ntsc.mpg=1.000=0=0=1,
96.000=669_JumpBack.mpg=1.000=0=0=1,
104.000=735_JumpBack.mpg=1.000=0=0=1,
112.000=vol3-12-ntsc.mpg=1.000=0=0=1,
120.000=jb_105.mpg=1.000=0=0=1,
128.000=vol3-18-ntsc.mpg=1.000=0=0=1,
136.000=vol3-12-ntsc.mpg=1.000=0=0=1,
144.000=VOL1-38-NTSC.mpg=1.000=0=0=1,
152.000=VOL1-41-NTSC.mpg=1.000=0=0=1,
160.000=735_JumpBack.mpg=1.000=0=0=1,
176.000=vol3-15-ntsc.mpg=1.000=0=0=1,
192.000=EV01448N.mpg=1.000=0=0=1,
200.000=EV01439N.mpg=1.000=0=0=1,
208.000=714_JumpBack.mpg=1.000=0=0=1,
224.000=jb_052.mpg=1.000=0=0=1,
232.000=VOL1-23-NTSC.mpg=1.000=0=0=1,
240.000=VOL1-50-NTSC.mpg=1.000=0=0=1,
256.000=674_JumpBack.mpg=1.000=0=0=1,
264.000=VOL1-32-NTSC.mpg=1.000=0=0=1,
272.000=VOL1-30-NTSC.mpg=1.000=0=0=1,
280.000=vol3-15-ntsc.mpg=1.000=0=0=1,
288.000=vol3-12-ntsc.mpg=1.000=0=0=1,
296.000=669_JumpBack.mpg=1.000=0=0=1,
304.000=VOL1-38-NTSC.mpg=1.000=0=0=1,
312.000=vol3-12-ntsc.mpg=1.000=0=0=1,
320.000=-random-=1.000=0=0=1,
352.000=July-bg.png=1.000=0=0=1,
99999=-nosongbg-=1.000=0=0=0 // don't automatically add -songbackground-
;
// cache tags:
#FIRSTBEAT:16.000;
#LASTBEAT:352.000;
#SONGFILENAME:Songs/In The Groove 1 (Official)/July/July.sm;
#HASMUSIC:1;
#HASBANNER:1;
#MUSICLENGTH:126.862;
// end cache tags

//---------------dance-single - K. Ward----------------
#NOTES:
     dance-single:
     K. Ward:
     Hard:
     9:
     0.680,0.659,0.118,0.221,0.268,561.000,15.000,28.000,0.000,0.000:



0000
0000
0000
0000
,
0000
0000
0000
0000
,
0000
0000
0000
0000
,
0000
0000
0000
0000
,
0001
0010
0001
0001
0100
0010
1000
1000
,
0100
0010
0100
0010
0001
0010
0002
0000
,
0103
0100
0010
1000
0100
0100
0010
0100
,
0010
0100
1001
0000
,
0001
0000
0010
0001
0010
0000
0001
0000
0100
0000
0010
0100
0010
0000
1000
0000
,
0000
0100
0000
0010
0100
0000
0110
0000
,
0001
0000
0010
0001
0010
0000
0001
0010
0001
0000
0000
0000
0100
0000
0000
0000
,
0010
0001
0010
0100
1000
0000
0100
0000
,
0001
0000
0010
0001
0010
0000
0001
0000
0100
0000
0010
0100
0010
0000
1000
0000
,
0000
0100
0000
0020
0000
0100
0130
0000
,
0001
0010
0001
0010
0001
0000
0000
0000
1000
0100
1000
0100
1000
0000
0010
0000
,
0000
0100
0000
0010
1001
0000
0000
0000
,
1000
0100
0010
0001
0100
0010
0100
1000
,
0100
0001
0010
0100
2000
0000
3100
0000
,
0010
0001
0010
0100
1000
0100
0001
0000
,
0010
0100
0010
0001
2000
0100
0000
3100
,
1000
0100
0010
0100
1000
0100
0010
0001
,
1000
0001
0010
0001
0010
0100
1000
0000
,
0100
0100
0100
0000
1000
1000
1000
0100
,
0000
0011
0000
0100
0110
0000
0000
0000
,
0001
0100
0010
0100
1000
0100
0010
0100
,
0001
0010
0100
0010
0002
0000
0013
0000
,
1000
0001
0010
0100
1000
0100
0010
0001
,
0010
0000
0100
0000
1000
0000
0000
0000
0100
1000
0100
1000
0100
0000
0000
0000
,
0001
1000
0100
0010
0100
0001
0010
0100
,
1000
0100
0010
1000
0100
0000
1100
0000
,
0010
0100
0001
0100
0010
1000
0100
0010
,
0002
0013
1100
0110
,
1000
0100
1000
0000
0001
0000
0100
0000
0010
0000
1000
0000
0200
0000
0000
0000
,
0310
0001
0010
0000
0100
0000
1000
0000
0100
0000
0010
0000
0002
0000
0000
0000
,
0103
0010
0100
0000
0010
0000
1000
0000
0100
0000
0010
0000
0001
0000
0000
0000
,
0020
0230
2300
3100
,
0001
0010
0001
0000
0100
0000
0010
0000
1000
0000
0100
0000
1000
0000
0000
0000
,
0010
0100
0010
0000
0100
0000
0001
0000
1000
0000
0100
0000
0010
0000
0000
0000
,
0001
1000
0001
0000
0010
0100
0010
0000
0100
1000
0100
0000
0010
0000
0001
0000
,
0010
0100
1000
0200
0000
1000
1300
0000
,
0001
0001
0010
0010
0200
0000
0000
1000
,
1300
0000
0010
0000
0010
0000
0100
0001
0100
0000
0010
0000
1000
0000
0000
0000
,
0100
0010
0001
0100
0001
0010
0100
0020
,
0000
0001
0000
0100
0000
0031
0001
0000
,
1000
1000
0001
0001
0020
0000
0000
0100
,
0130
0000
1000
0000
1000
0000
0010
1000
0010
0000
1000
0000
0001
0000
0000
0000
,
1000
0100
0010
0001
0010
0100
1000
0200
,
0000
0010
0000
1000
0000
0310
0000
0000
,
0001
0000
0001
0100
0000
0000
0010
0000
0010
0100
0000
0000
,
0001
2000
0200
3300
,
0010
0000
0010
0100
0000
0000
1000
0000
1000
0100
0000
0000
,
0010
0100
1001
0000
,
1000
0000
1000
0010
0000
0010
0100
0000
0100
0001
0000
0001
,
0010
0000
0010
0001
0000
0001
1000
0000
1000
0001
0000
0001
,
0010
0000
0010
0100
0000
0100
1000
0000
1000
0100
0000
0100
,
0010
0100
1001
0000
,
0010
0000
0010
0100
0000
0000
0001
0000
0001
0010
0000
0000
,
0100
0000
0100
1000
0000
1000
0100
0000
0000
0010
0000
0000
,
0001
0000
0001
0010
0000
0000
1000
0000
1000
0100
0000
0000
,
0001
0000
0001
0010
0000
0010
0100
0000
0000
1001
0000
0000
,
1000
0000
1000
0100
0000
0100
0001
0000
0001
0100
0000
0100
,
1000
0000
1000
0001
0000
0001
0010
0000
0010
0100
0000
0000
,
0010
0000
0100
1000
0000
0010
0001
0000
0010
1000
0000
0100
,
0010
0100
1001
0000
,
0001
0010
0001
0001
0100
0010
1000
1000
,
0100
0010
0001
0010
0200
0000
1300
0000
,
1000
0100
0010
0010
0100
1000
0001
0001
,
0010
0100
1000
0100
0010
0100
0000
0100
,
1000
0010
0100
0100
0001
0010
0001
0001
,
1000
0100
0010
0001
0020
0000
0130
0000
,
0001
0100
1000
0000
1000
0100
0001
0000
,
1000
0001
1000
0001
1001
0000
0000
0000
,
0001
0010
0001
1000
0100
0010
0001
0010
,
0100
1000
0010
0100
0002
0000
0013
0000
,
1000
0100
0001
0100
1000
0010
0100
0010
,
0001
0000
0010
0000
0100
0000
0000
0000
0001
1000
0001
1000
0001
0000
0000
0000
,
0100
0010
1000
0100
0010
0001
0100
0010
,
1000
0001
0010
0100
2000
0000
3100
0000
,
0010
0001
1000
0000
0010
0100
0001
0000
,
0010
0100
1001
0000
,
1000
0000
0010
1000
0010
0000
0100
0000
0001
0000
0010
0100
0010
0000
0002
0000
,
0000
1003
0000
0100
0010
0000
0200
0000
,
1300
0000
0010
0100
0010
0000
0100
0000
0002
0000
0000
0000
0203
0000
0000
0000
,
0310
0001
0010
0100
2000
0000
3100
0000
,
0001
0000
0010
0001
0010
0000
0001
0000
0100
0000
0010
0100
0010
0000
2000
0000
,
0000
3100
0000
1000
0000
0100
0010
0000
,
0001
0010
0001
0010
0001
0000
0000
0000
1000
0100
1000
0100
1000
0000
0100
0000
,
0000
0010
0000
0100
0010
0000
0000
0000
,
1001
0000
0000
0000
;

//---------------dance-single - K. Ward----------------
#NOTES:
     dance-single:
     K. Ward:
     Challenge:
     11:
     1.000,1.000,0.339,0.386,1.000,809.000,43.000,49.000,31.000,0.000:





0000
0000
0000
0000
,
0000
0000
0000
0000
,
0000
0000
0000
0000
,
0000
0000
0000
0000
,
1000
0000
0100
0000
1000
0100
0000
1000
0010
0000
0100
0010
0000
0100
0010
0000
,
0100
0000
0001
0000
0100
0001
0000
0100
0010
0000
0100
0010
0000
0100
0010
0000
,
1000
0000
0100
0000
1000
0100
0000
1000
0010
0000
1000
0010
0000
1000
0010
0000
,
1000
0001
0100
0010
0110
0000
0MM0
0000
,
1000
0000
0010
0100
0010
0000
0100
0001
0010
0000
0100
1000
0010
0000
0100
0001
,
0010
0000
0001
0100
0010
0000
1000
0001
1000
0100
0010
0001
0010
0000
0001
0000
,
0010
0000
0001
0010
0001
0000
0100
0010
1000
0000
0100
1000
0010
0000
0100
0000
,
0001
0100
0010
1000
0001
0100
0010
0100
0002
0000
0010
0000
0013
0000
0001
0000
,
1000
0000
0010
0100
0010
0000
0100
0001
0010
0000
0100
1000
0010
0000
0100
0001
,
0010
0000
0001
0100
0010
0000
1000
0010
0100
0001
0010
0001
0100
0000
0001
0000
,
0010
0001
0010
0001
0010
0000
0001
0000
0100
0010
0100
0010
1000
0000
0200
0000
,
0000
0000
1300
0000
0000
0000
0010
0100
0010
0000
0000
0000
1100
0000
0000
0000
,
0001
0000
0100
0010
0100
0000
0010
1000
0100
0000
0010
0001
0100
0000
0010
1000
,
0100
0000
1000
0010
0100
0000
0001
0010
0001
01M0
0001
0010
0001
0000
0100
0000
,
0010
0000
1000
0100
1000
0000
0010
0100
0001
0000
0010
0001
0100
0000
0010
0000
,
1000
0100
1000
0100
1000
0M10
1000
0100
1000
0000
0200
0000
0000
0000
1300
0000
,
0001
0000
0100
0010
0100
0000
0010
1000
0100
0000
0010
0001
0100
0000
0010
1000
,
0100
0000
1000
0010
0100
0000
0001
0010
0001
01M0
0001
0010
0002
0000
1003
0000
,
0100
1000
0100
1000
0100
0000
1000
0000
0010
0100
0010
0100
0001
0000
0020
0000
,
0001
0031
0100
0110
0100
0001
0011
0000
,
1000
0010
0100
0001
0010
0001
0200
0000
0001
0000
0301
0000
0010
0000
0001
0000
,
0010
0001
0100
0010
1000
0010
0100
0000
0010
0000
1000
0000
0010
0000
0100
0000
,
0010
0100
0001
0010
0001
0100
0020
0000
1000
0000
1030
0000
0001
0000
0100
0000
,
0010
1000
0010
0100
0001
0010
0001
0000
0011
0000
0000
0110
0000
0000
1010
0000
,
0001
0100
0010
1000
0100
1000
0200
0000
1000
0000
1300
0000
0100
0000
1000
0000
,
0100
1000
0010
0100
0001
0100
0010
0000
0100
0000
0001
0000
0010
0000
0001
0000
,
0010
0001
0100
0010
1000
0010
0100
0000
0001
0100
0010
1000
0010
0100
0001
0000
,
0100
0001
0010
0001
0100
0010
1000
0100
2000
0000
0010
0000
3010
0000
0010
0000
,
1000
0000
0000
0110
0000
0000
0011
0000
0000
1000
0000
0000
0010
0000
0100
0000
,
0011
0000
0000
1100
0000
0000
0010
0100
0001
0000
0010
0000
0001
0000
0011
0000
,
1100
0000
0000
0110
0000
0000
0002
0000
0000
0103
0000
0000
0010
0000
1000
0000
,
0010
0100
0001
0010
0002
0000
0000
0000
1003
0010
0100
0001
0100
0010
1000
0001
,
1000
0000
0000
0101
0000
0000
1100
0000
0000
0110
0000
0000
0001
0000
0101
0000
,
0100
0000
0001
0000
0200
0000
0010
0000
0000
0310
0000
0000
1000
0000
0010
0000
,
1000
0100
1000
0010
0100
0010
0100
0001
0010
0001
0010
0001
0100
0010
2000
0000
,
0020
0000
3000
0200
0030
0000
0002
0300
0000
0000
0010
0000
0013
0000
0000
0000
,
0011
0001
0100
0010
0120
0000
0000
1030
,
1000
0000
0010
0000
0010
0000
0100
0001
0100
0000
0010
0000
2000
0000
0001
0000
,
3001
0100
0010
0100
0001
0001
0100
0020
,
1000
0000
1030
0000
0001
0000
0020
0000
0001
0000
0031
0000
0011
0000
0000
0001
,
0100
0010
0100
0100
0210
0000
0310
M1M0
,
0001
0000
0100
0000
0100
0000
0010
1000
0010
0000
0100
0000
0002
0000
0010
0000
,
0013
0002
0100
0103
0010
100M
0010
2000
,
0100
0000
0000
0000
0000
0000
0000
0000
0000
0000
0000
0000
0000
0000
0000
0000
0000
0000
0000
0000
0000
0000
0000
0000
3100
0000
0000
0000
0000
0000
0000
0000
0000
0000
0000
0000
0000
0000
0000
0000
0000
0000
0000
0000
0000
0000
0000
0000
1000
0000
0000
0000
0000
0000
0000
0000
0000
0000
0000
0000
0000
0000
0000
0000
0000
0000
0000
0000
0000
0000
0000
0000
0020
0000
0000
0000
0000
0000
0000
0000
0000
0000
0000
0000
0000
0000
0000
0000
0000
0000
0000
0000
0000
0000
0000
0000
1000
0000
0000
0000
0000
0000
0000
0000
0000
0000
0000
0000
0000
0000
0000
0000
0000
0000
0000
0000
0000
0000
0000
0000
0030
0000
0000
0000
0000
0000
MM00
0000
0000
0000
0000
0000
0000
0000
0000
0000
0000
0000
0000
0000
0000
0000
0000
0000
1100
0000
0000
0000
0000
0000
0000
0000
0000
0000
0000
0000
0000
0000
0000
0000
0000
0000
0000
0000
0000
0000
0000
0000
0000
0000
0000
000M
0000
0000
00M0
0000
MM00
0000
0000
0000
0000
0000
0000
0000
0000
0000
0000
0000
0000
0000
0000
0000
,
0001
0000
0001
0200
0000
0000
0310
0000
0010
0200
0000
0000
,
0301
0000
0000
0000
0001
0000
1000
0000
0000
0000
1000
0000
0200
0000
0000
0000
1000
0000
1300
0000
0000
MM00
0000
0000
,
1000
0000
0010
0110
0000
0000
0100
0000
0001
0011
0000
0000
,
0001
0000
0000
0000
0000
0000
0000
0000
0000
0000
0000
0000
0000
0000
0000
0000
0000
0000
0000
0000
0000
0000
0000
0000
0000
0000
0000
0000
0000
0000
0000
0000
1000
0000
0000
0000
0000
0000
0000
0000
0000
0000
0000
0000
0000
0000
0000
0000
0100
0000
0000
0000
0000
0000
0000
0000
0000
0000
0000
0000
0000
0000
0000
0000
0000
0000
0000
0000
0000
0000
0000
0000
0000
0000
0000
0000
0000
0000
0000
0000
1000
0000
0000
0000
0000
0000
0000
0000
0000
0000
0000
0000
0000
0000
0000
0000
1100
0000
0000
0000
0000
0000
0000
0000
0000
0000
0000
0000
0000
0000
0000
0000
0000
0000
0000
0000
0000
0000
0000
0000
0000
0000
0000
0000
0000
0000
0000
0000
0000
0000
0000
0000
0000
0000
0000
0000
0000
0000
0000
0000
0000
0000
0000
0000
0000
0000
0000
MMMM
0000
0000
0000
0000
0000
0000
0000
0000
0000
0000
0000
0000
0000
0000
0000
0000
0000
0000
0000
0000
0000
0000
0000
0000
0000
0000
0000
0000
0000
0000
0000
0000
0000
0000
0000
0000
0000
0000
0000
0000
0000
0000
0000
0000
,
1000
0000
1000
0010
0000
0010
0100
0000
0001
0101
0000
0001
,
0100
0000
0100
0010
0000
0010
1000
0000
1000
1010
0000
0010
,
0100
0000
0100
0001
0000
0001
0010
0000
0010
0002
0000
0000
,
1003
0100
1000
0010
0100
0001
1000
0000
0000
MMMM
0000
0000
,
0010
0100
0010
0200
0000
0001
0302
0000
0000
0103
0000
0000
,
0010
1000
0010
2000
0000
0010
3020
0000
0000
0230
0000
0000
,
0301
0010
0001
0010
0000
0001
0001
0100
0001
0100
0000
0010
,
0010
1000
0010
1000
0010
1000
0020
0000
0130
0100
00M0
0000
,
0100
0010
0100
0010
0000
0010
1000
0000
1000
1020
0000
0000
,
0130
0001
0100
0001
0000
0001
0100
0000
0100
0120
0000
0030
,
1000
01M0
1000
0100
0000
0100
1000
0010
1000
0010
0000
0010
,
0100
0001
0100
0001
0100
0001
0021
0000
0000
0032
0000
0000
,
1003
0000
0100
0000
1000
0100
0000
1000
0010
0000
0100
0010
0000
0100
0010
0000
,
1000
0000
0001
0000
1000
0001
0000
1000
0010
0000
1000
0010
0000
1000
0020
0000
,
0130
0000
0001
0000
0100
0001
0000
0100
0001
0000
0010
0001
0000
0010
0001
0000
,
1000
0100
1000
0010
0100
0000
0001
0000
0001
0010
0001
0100
0010
0000
0200
0000
,
0310
0000
0010
0000
0100
0001
0000
0100
0001
0000
1000
0010
0000
1000
0010
0000
,
0100
0000
0010
0000
0100
0010
0000
1000
0010
0000
0100
0010
0000
1000
0001
0000
,
1000
0100
1000
0010
0100
0001
0010
0000
0010
0001
0100
0010
0100
0010
1000
0000
,
0010
100M
0100
0010
0011
0000
MMMM
0000
,
0001
0100
0010
1000
0010
0100
0020
0000
1000
0000
1030
0000
0100
0000
1000
0000
,
0100
1000
0010
0100
0001
0100
0001
0000
0010
0000
0001
0000
0100
0000
0010
0000
,
1000
0010
0100
0001
0010
0001
0020
0000
0001
0000
0031
0000
0100
0000
0010
0000
,
0100
0001
0010
0001
1000
0100
1000
0000
1100
0000
0000
0110
0000
0000
0101
0000
,
0001
0100
0010
1000
0100
1000
0020
0000
1000
0000
1030
0000
0100
0000
1000
0000
,
0100
1000
0010
0100
0001
0010
0001
0000
0100
0000
0010
0000
1000
0000
0010
0000
,
0100
0001
0010
0001
0100
0010
1000
0000
0001
0100
0010
1000
0010
0100
0010
0000
,
1100
0110
0101
1010
2001
0001
3002
0000
,
1003
0100
1000
0010
0100
0001
0100
0000
0001
0010
0001
0100
0010
0100
0010
0000
,
1000
0010
0100
0010
0100
0001
0010
0001
0010
0000
0001
0000
0101
0000
0000
0000
,
1000
0100
1000
0010
0100
0001
0100
0000
0010
0100
0001
0010
0001
0010
0001
0000
,
0010
0001
0100
0010
2000
0100
0100
3100
,
1000
0100
1000
0010
0100
0001
0100
0000
0001
0010
0001
0100
0010
1000
0002
0000
,
0010
0013
0001
0001
0100
0100
0010
0110
,
1000
0100
1000
0010
0100
0001
0100
0000
0001
0100
0010
1000
0010
0100
0001
0000
,
1000
0010
0100
0001
0002
1000
1003
0000
,
1001
0000
0000
0000
;

//---------------dance-single - K. Ward----------------
#NOTES:
     dance-single:
     K. Ward:
     Medium:
     5:
     0.387,0.486,0.260,0.055,0.000,304.000,33.000,7.000,0.000,0.000:

0000
0000
0000
0000
,
0000
0000
0000
0000
,
0000
0000
0000
0000
,
0000
0000
0000
0000
,
0001
0001
0002
0000
,
1003
1000
2000
0000
,
3100
0000
0010
0000
,
0100
0010
1001
0000
,
0100
0100
0010
0010
,
1000
0000
0100
0000
0010
0001
0100
0000
,
0010
0100
1000
0100
,
0010
0000
0100
0100
0100
0000
0000
0000
,
0001
1000
0001
0010
,
0100
0000
1000
0000
0100
0010
0100
0000
,
0110
0000
0011
0000
,
0100
0010
0100
0000
1001
0000
0000
0000
,
0001
1000
0100
0010
,
0001
0000
1000
0000
0100
0010
0010
0000
,
0001
1000
0001
0100
,
0010
0100
0010
0100
0100
0000
0000
0000
,
0001
1000
0100
0010
,
0001
0000
1000
0000
0010
1000
0100
0000
,
0011
0000
1100
0000
,
0000
0010
0100
0000
1001
0000
0000
0000
,
0100
0100
0100
0100
,
0200
0000
0300
0000
,
0010
0010
0010
0010
,
0020
0000
0030
0000
,
0001
1000
0001
1000
,
0200
0000
0300
0000
,
0010
0001
0100
1000
,
0100
0100
0100
0000
,
0001
0100
0010
0001
,
0010
0000
0100
0000
0001
1000
0001
0000
,
0010
0100
1000
0100
,
1000
0100
0010
0000
0010
0100
1000
0000
,
0010
0010
0100
0100
,
0010
0000
0010
0000
0100
0001
0010
0000
,
0002
0000
2003
0000
,
3100
0000
0000
0110
0000
0000
0000
0000
,
0001
0010
0011
0000
,
1000
0100
1100
0000
,
0010
0100
0001
0000
1000
0001
1000
0000
,
0100
0010
0001
0000
0010
0100
0100
0000
,
0010
0100
1100
0000
,
0010
0100
0011
0000
,
1000
0010
1000
0000
0010
0100
0001
0000
,
0010
0100
1000
0000
0100
0010
0100
0000
,
1001
0000
0000
0000
,
0100
0100
0100
0000
,
0010
0010
0010
0000
,
1000
0001
1001
0000
,
0001
0010
0100
1000
,
1000
0100
0010
0001
,
0001
0100
1000
0100
,
1001
0110
1001
0000
,
0100
0100
0100
0000
,
1000
1000
1000
0000
,
0001
0001
0001
0000
,
1001
0110
1001
0000
,
0100
0010
0100
0000
0100
0000
0000
0000
,
0010
1000
0100
0000
0100
0000
0000
0000
,
0001
0010
0100
0000
0010
0000
0100
0000
,
0010
0010
0010
0000
1001
0000
0000
0000
,
0100
0000
0000
0000
,
0001
1000
0001
1000
0001
0000
0000
0000
,
0110
0000
0000
0000
,
0010
0100
0010
0100
0010
0000
0000
0000
,
1001
0000
0001
0000
,
1000
0000
0100
0000
0010
0010
0100
0000
,
1001
0000
0100
0000
,
0001
1000
0001
1000
0001
0000
0000
0000
,
1000
0100
0001
0010
,
0100
0000
0010
0000
0001
0010
0010
0000
,
0011
0100
1000
0100
,
0010
0000
1000
0000
0001
1000
0100
0000
,
0010
0100
1000
0100
,
0001
0100
1000
0100
,
0110
0000
1001
0000
,
0010
0100
0010
0100
0100
0000
0010
0000
,
1001
0000
0010
0000
,
1001
0000
0100
0000
,
0010
0010
0010
0000
,
1000
0001
1000
0001
1000
0000
0000
0000
,
0100
0010
1001
0000
,
0010
0100
0011
0000
,
1000
0000
0001
0000
,
0010
0100
0010
0000
0110
0000
0000
0000
,
1001
0000
0000
0000
;

//---------------dance-single - K. Ward----------------
#NOTES:
     dance-single:
     K. Ward:
     Easy:
     3:
     0.256,0.312,0.158,0.039,0.000,202.000,20.000,5.000,0.000,0.000:





0000
0000
0000
0000
,
0000
0000
0000
0000
,
0000
0000
0000
0000
,
0000
0000
0000
0000
,
1000
0000
0001
0000
,
0100
0000
0000
0000
,
0010
0000
0100
0000
,
0001
0000
0000
0000
,
1000
1000
1000
0000
,
0001
0001
0001
0000
,
0100
0010
0100
0000
,
0001
0001
0001
0000
,
1000
1000
1000
0000
,
0100
0100
0100
0000
,
0010
0000
0100
0000
,
1000
0001
1000
0000
,
1001
0000
0010
0000
,
1001
0000
0100
0000
,
1001
0000
0010
0000
,
0100
0100
0100
0000
,
0011
0000
0100
0000
,
1000
0000
0100
0000
,
1001
0000
0110
0000
,
0001
1000
1000
0000
,
0100
0100
0100
0100
,
0100
0000
0000
0000
,
1000
1000
1000
1000
,
1000
0000
0000
0000
,
0001
1000
0001
0001
,
0001
0000
0000
0000
,
1000
0100
0010
0100
,
0010
0100
0110
0000
,
0001
0000
0000
0000
,
1000
0000
0000
0000
,
0100
0000
0000
0000
,
0010
0100
0010
0100
,
1000
0000
0000
0000
,
0001
0000
0000
0000
,
1000
0100
0010
0001
,
0010
0100
1000
1000
,
2000
0000
3100
0000
,
0002
0000
0013
0000
,
0100
0010
0010
0100
,
0200
0000
1300
0000
,
0020
0000
0031
0000
,
0010
0100
0010
0100
,
0020
0000
0130
0000
,
0001
1000
0100
0000
,
0011
0000
0000
0000
,
0100
0000
0000
0000
,
1000
0000
0100
0000
,
0001
0000
0000
0000
,
1000
0001
1000
0100
,
0010
0100
0010
0100
,
1000
0000
0001
0000
,
0100
0010
1100
0000
,
0010
0000
0010
0000
,
0100
0000
0100
0000
,
0010
0000
0010
0000
,
0100
0100
0100
0000
,
1000
0001
0010
0001
,
0100
0000
1010
0000
,
0100
0010
0100
0000
,
0011
0000
0100
0000
,
1001
0000
0000
0000
,
0010
0000
0000
0000
,
1001
0000
0000
0000
,
0100
0000
0000
0000
,
0001
1000
0001
1000
,
0100
0010
0100
0010
,
0100
0000
0011
0000
,
1001
0000
0000
0000
,
1000
1000
1000
1000
,
1000
0000
0000
0000
,
0001
0001
0001
0001
,
0001
0000
0000
0000
,
0100
0010
0100
0010
,
0100
0000
0000
0000
,
0001
1000
0100
0010
,
0100
0010
0010
0000
,
1001
0000
0000
0000
,
0100
0100
0100
0000
,
1001
0000
0000
0000
,
0010
0010
0010
0000
,
1000
1000
0100
0000
,
0001
0001
0010
0000
,
0110
0000
1001
0000
,
1000
0100
0010
0000
,
1001
0000
0000
0000
;

//---------------dance-double - M. Emirzian----------------
#NOTES:
     dance-double:
     M. Emirzian:
     Easy:
     5:
     0.282,0.347,0.102,0.079,0.000,227.000,13.000,10.000,0.000,0.000:























00000000
00000000
00000000
00000000
,
00000000
00000000
00000000
00000000
,
00000000
00000000
00000000
00000000
,
00000000
00000000
00000000
00000000
,
10000000
00000000
00000000
00000000
,
01000000
00000000
00000000
00000000
,
00100000
00000000
00001000
00000000
,
00010000
00000010
00001000
00000101
,
00000010
00001000
00000100
00000000
,
00000100
00010000
00001000
01000000
,
00100000
10000000
01000000
00000000
,
00100000
00010000
01000000
00100000
,
10000000
01000000
00100000
00000000
,
00001000
00010000
00000100
00001000
,
00000001
00000000
00000010
00000000
00000100
00000000
00000000
00001000
,
00000000
00000001
00000000
00000100
00000010
00000000
00000000
00000000
,
00001000
00000100
00000010
00000000
,
00000001
00000100
00000010
00010000
,
00001000
01000000
00010000
00000000
,
00100000
01000000
10000000
00010000
,
01000000
00100000
00010000
00000000
,
00001000
00010000
00000010
00001000
,
00000100
00000000
00000010
00000000
00000001
00000000
00000000
00001000
,
00000000
00000001
00000000
00000100
00000010
00000000
00000000
00000000
,
00001000
00000100
00001000
00000100
,
00010000
00000000
00001000
00000000
00010000
00000000
00000000
00001000
,
00000000
01000000
00010000
01000000
,
00010000
00000000
10000000
00000000
01000000
00000000
00000000
00100000
,
00000000
00010000
01000000
00010000
,
01000000
00000000
00001000
00000000
00010000
00000000
00000000
00001000
,
00000000
00010000
00000100
00010000
,
00000100
00001000
00000001
00000000
,
00000100
00000010
00001000
00000100
,
00001000
00000000
00000001
00000000
,
00000100
00000010
00010000
00001000
,
00100000
00000000
00010000
01000000
,
00100000
10000000
01000000
00100000
,
00010000
10000000
00100000
00000000
,
01000000
00010000
00100000
00001000
,
00010000
00000000
00001000
00000000
,
00000010
00000001
00001000
00000000
,
00001001
00000000
00000100
00000001
,
00000100
00000010
00010000
00001000
,
00010000
00000000
00001000
01000000
,
00010000
00100000
01000000
00000000
,
10010000
00000000
01000000
00100000
,
10000000
01000000
00100000
00010000
,
01000000
00001000
00010000
00000000
,
00002002
00003003
00000000
00000000
,
00022000
00033000
00000000
00000000
,
20020000
30030000
00000000
00000000
,
00022000
00033000
00000000
00000000
,
00002002
00003003
00001000
00000000
,
00000001
00000000
00001000
00000000
,
00000010
00000000
00010000
00000000
,
00001000
01000000
10010000
00000000
,
00100000
00000000
10000000
01000000
,
00100000
00010000
00100000
00000000
,
00010000
00000000
01000000
00001000
,
00010000
00001000
00010000
00000000
,
00000100
00000000
00001000
00000000
,
00000001
00000100
00000010
00000000
,
00001000
00000100
00001000
00000010
,
00010000
00001000
00011000
00000000
,
01000000
00000000
00000000
00000000
,
10000000
00000000
00000000
00000000
,
00010000
00000000
00000000
00000000
,
00100000
00000000
00000000
00000000
,
00001000
00000000
00000000
00000000
,
00010000
00000000
00000000
00000000
,
00000100
00000000
00000010
00000000
,
00000001
00000100
00001001
00000000
,
00000010
00001000
00000010
00001000
,
00000100
00000000
00010000
00000000
00001000
00000000
00000000
00010000
,
00000000
00001000
00010000
00001000
,
01000000
00000000
00010000
00000000
01000000
00000000
00000000
00100000
,
00000000
10000000
00100000
10000000
,
00100000
00000000
01000000
00000000
00010000
00000000
00000000
00100000
,
00000000
00000000
00001000
00000000
,
00010000
00000100
00000110
00000000
,
00000001
00000000
00000000
00000000
,
00000100
00000000
00000000
00000000
,
00001000
00000000
00000000
00000000
,
00010000
00000000
00000000
00000000
,
01000000
00000000
00000000
00000000
,
10000000
00000000
00000000
00000000
,
00100000
00000000
00000000
00000000
,
01000000
00000000
00000000
00000000
,
00011000
00000000
00000000
00000000
;

//---------------dance-double - M. Emirzian----------------
#NOTES:
     dance-double:
     M. Emirzian:
     Medium:
     7:
     0.411,0.451,0.221,0.024,0.012,334.000,28.000,3.000,0.000,0.000:























00000000
00000000
00000000
00000000
,
00000000
00000000
00000000
00000000
,
00000000
00000000
00000000
00000000
,
00000000
00000000
00000000
00000000
,
10010000
00000000
00000000
00000000
,
01001000
00000000
00000000
00000000
,
00010010
00000000
00001001
00000000
,
00000100
00001000
00000100
00001000
00000001
00000000
00001100
00000000
,
00010000
00001000
01000000
00010000
,
00100000
00000000
01000000
00000000
10000000
00000000
00010000
01000000
,
00100000
10000000
01000000
00100000
,
00001000
00010000
00001000
00010000
00000020
00000000
00001030
00000000
,
00000100
00000010
00000001
00001000
,
00000010
00000000
00000100
00000000
00000001
00000000
00000100
00000010
,
00001000
00000000
00000100
00000000
00010000
00001000
00000000
01000000
,
00000000
00100000
00000000
10000000
00010000
00000000
11000000
00000000
,
00110000
01000000
00100000
10000000
,
01000000
00000000
00100000
00000000
00001000
00000000
00010000
00000100
,
00001000
00000010
00000100
00000001
,
00000010
00000100
00000010
00000100
00002000
00000000
00003001
00000000
,
00000100
00001000
00010000
00000010
,
00010000
00000000
00100000
00000000
10000000
00000000
00010000
00100000
,
01000000
00000000
10000000
00000000
00010000
01000000
00000000
00001000
,
00000000
00010000
00000000
00000010
00001000
00000000
00001001
00000000
,
00000010
00000000
00001000
00000100
00001000
00000000
00000010
00010000
,
00001000
00000000
01000000
00010000
01000000
00100000
00000000
10100000
,
00000000
00000000
10000000
01000000
10000000
00000000
00010000
01000000
,
00001000
00000000
00100000
00001000
00010000
00001000
00000000
00010100
,
00000000
00000000
00001000
00000010
00001000
00000000
00000100
00000010
,
00000001
00000000
00000100
00000010
00001000
00000010
00000000
00010010
,
00000000
00000000
00010000
00001000
01000000
00000000
00010000
00100000
,
01000000
00000000
10000000
00000000
00000000
01000000
00000000
00000000
10000000
00000000
00000000
00000000
00000000
00000000
00000000
00000000
,
00010000
01000000
00100000
10000000
,
01000000
00000000
00100000
00000000
00001000
01000000
00001000
01000000
,
00010000
00100000
00001000
00010000
,
00000100
00001000
00000100
00000000
00000010
00000001
00000010
00000000
,
00000100
00001000
00000001
00000100
,
00000010
00001000
00000010
00000000
00010000
00001000
00010000
00000000
,
01000000
10000000
00100000
01000000
,
00010000
00000000
00000000
01000000
00000000
00000000
00100000
00000000
00000000
00000000
00000000
00000000
00000000
00000000
00000000
00000000
,
10000000
00000000
01000000
00000000
00100000
00000000
00000000
00101000
,
00000000
00000000
00000000
00010000
00001000
00000000
00010000
00000000
,
00000010
00001000
00000100
00000000
00000010
00000000
00000000
00001002
,
00000000
00000100
00000013
00000000
,
00000100
00000000
00001000
00000000
00000001
00000000
00000000
00011000
,
00000000
00000000
00000000
01000000
00010000
00000000
00100000
00000000
,
01000000
10000000
00100000
00000000
01000000
00000000
00010000
00000000
,
00100000
01000000
10000000
00010000
01000000
00000000
00000000
00000000
,
10000000
00000000
00010000
00000000
,
00001000
00000000
00000001
00000000
,
00001000
00000000
00010000
00000000
,
10000000
00010000
10000000
00000000
,
01000000
01000000
01000000
01000000
,
00100000
00010000
01000000
00100000
,
10000000
01000000
00100000
00001000
,
00010000
00010000
00011000
00000000
,
00000100
00000000
00001010
00000000
,
00000100
00000001
00000100
00000000
,
00000010
00000000
00010010
00000000
,
00010000
00001000
00010000
00000000
,
00100000
00000000
10100000
00000000
,
01000000
00010000
01000000
00000000
,
00001000
00000000
00010100
00000000
,
00001000
00000010
00001000
00000000
,
00000100
00000000
00000010
00000001
,
00000100
00000000
00000010
00000000
,
00010000
00000000
00001000
01000000
,
00010000
00000000
00100000
00000000
,
01000000
00000000
10000000
00010000
,
01000000
00000000
00100000
10000000
,
11000000
00000000
00110000
00000000
,
00001000
00010000
00001000
00010000
00000010
00000000
00001100
00000000
,
00000010
00000000
00000001
00000100
00000001
00000000
00000100
00000010
,
00001000
00000000
00000100
00010000
00001000
00010000
00000000
01001000
,
00000000
00000000
00010000
01000000
00010000
00000000
00100000
01000000
,
10000000
00000000
00100000
01000000
00010000
01000000
00000000
01001000
,
00000000
00000000
00010000
00100000
00010000
00000000
01000000
00001000
,
00010000
00000000
00000010
00001000
00000010
00000100
00000000
00000101
,
00000000
00000000
00000010
00001000
00000100
00000000
00000010
00000100
,
00001000
00000000
00000001
00000000
00000000
00001000
00000000
00000000
00000010
00000000
00000000
00000000
00000000
00000000
00000000
00000000
,
00000100
00000001
00000010
00000000
,
00000100
00001000
00000010
00010000
,
00001000
01000000
00010000
00000000
,
10000000
01000000
00100000
00010000
,
01000000
00001000
00010000
00000000
,
00000010
00001000
00000100
00000010
,
00000011
00000000
00000000
00000000
00001100
00000000
00000000
00000010
,
00000000
00010000
00000000
00001000
01000000
00000000
00000000
00000000
,
10010000
00000000
00000000
00000000
;

//---------------dance-double - M. Emirzian----------------
#NOTES:
     dance-double:
     M. Emirzian:
     Hard:
     9:
     0.643,0.590,0.363,0.000,0.536,525.000,46.000,0.000,0.000,0.000:























00000000
00000000
00000000
00000000
,
00000000
00000000
00000000
00000000
,
00000000
00000000
00000000
00000000
,
00000000
00000000
00000000
00000000
,
00100000
00000000
10000000
00000000
01000000
00000000
00000000
00000000
00100000
00000000
00000000
01000000
00000000
00000000
10000000
00000000
,
00000000
00000000
01000000
00000000
00000000
00100000
00000000
00000000
00001000
00000000
00000000
00010000
00000000
00000000
00001000
00000000
,
01000000
00000000
00001000
00000000
00010000
00000000
00000000
00000000
00000100
00000000
00000000
00000010
00000000
00000000
00000001
00000000
,
00000100
00000010
00001000
00000100
00001001
00000000
00011000
00000000
,
00100000
00000000
10000000
00000000
00000000
01000000
00000000
00000000
00100000
00000000
00000000
00010000
00000000
00000000
00100000
00000000
,
00001000
00000000
01000000
00000000
00000000
00100000
00000000
00000000
00010000
00000000
00000000
00001000
00000000
00000000
00010000
00000000
,
00000010
00000000
00010000
00000000
00000000
00001000
00000000
00000000
00000010
00000000
00000000
00000100
00000000
00000000
00001000
00000000
,
00000001
00000000
00000100
00000000
00001000
00000000
00000100
00000000
00000001
00000000
00000000
00000100
00000000
00000000
00000010
00000000
,
00010000
00000000
00001000
00000000
00000000
00000100
00000000
00000000
00001000
00000000
00000000
00010000
00000000
00000000
00100000
00000000
,
00010000
00000000
00001000
00000000
00000000
01000000
00000000
00000000
00100000
00000000
00000000
10000000
00000000
00000000
00010000
00000000
,
00100000
01000000
10000000
00000000
01000000
00100000
00010000
00100000
,
00000000
11000000
00000000
00100000
01010000
00000000
00010100
00000000
,
00000010
00000000
00000100
00000000
00000000
00000001
00000000
00000000
00000010
00000000
00000000
00000100
00000000
00000000
00001000
00000000
,
00000010
00000000
00010000
00000000
00000000
00001000
00000000
00000000
01000000
00000000
00000000
00001000
00000000
00000000
00010000
00000000
,
00100000
00000000
01000000
00000000
00000000
00010000
00000000
00000000
10000000
00000000
00000000
01000000
00000000
00000000
00100000
00000000
,
01000000
00000000
10000000
00000000
00100000
00000000
01000000
00000000
00010000
00000000
00000000
00100000
00000000
00000000
00001000
00000000
,
00010000
00000000
00000100
00000000
00000000
00010000
00000000
00000000
00000010
00000000
00000000
00000100
00000000
00000000
00000001
00000000
,
00000010
00000000
00000100
00000000
00000000
00001000
00000000
00000000
00000001
00000000
00000000
00000100
00000000
00000000
00000010
00000000
,
00001000
00000100
00000010
00000000
00000001
00000010
00000100
00001000
,
00000000
00010100
00000000
01001000
01010000
00000000
10100000
00000000
,
10000000
01000000
00000000
00000000
01000000
00100000
00000000
00000000
00100000
00001000
00000000
00000000
00001000
00010000
00000000
00000000
,
00010000
00000010
00000000
00000000
00000010
00001000
00000000
00000000
00001000
00000100
00000000
00000010
00000000
00000000
00000011
00000000
,
00000000
00000000
00000010
00000000
00000010
00000100
00000000
00000000
00000100
00010000
00000000
00000000
00010000
00001000
00000000
00000000
,
00001000
01000000
00000000
00000000
01000000
00010000
00000000
00000000
00010000
00100000
00000000
01000000
00000000
00000000
11000000
00000000
,
00000000
00000000
00100000
00000000
00100000
01000000
00000000
00000000
01000000
00001000
00000000
00000000
00001000
00010000
00000000
00000000
,
00010000
00000010
00000000
00000000
00000010
00001000
00000000
00000000
00001000
00000100
00000000
00000010
00000000
00000000
00000011
00000000
,
00000000
00000000
00000001
00000000
00000001
00000100
00000000
00000000
00000100
00001000
00000000
00000000
00001000
00010000
00000000
00000000
,
00010000
00100000
00000000
00000000
00100000
10000000
00000000
00000000
10010000
00000000
00000000
01000000
00100000
00000000
01000000
00000000
,
10000000
00010000
01000000
00000000
00100000
10000000
01000000
00000000
,
00010000
01000000
10000000
01000000
00010000
01000000
00100000
00001000
,
00010000
00000000
00000000
00100000
00000000
00000000
00010000
00000000
00000000
00001000
00000000
00000000
00000100
00000000
00001000
00000000
,
00010000
00000100
00000010
00000000
00000100
00001000
00000001
00000100
,
00000010
00000000
00000000
00001000
00000000
00000000
00000001
00000000
00000000
00000100
00000000
00000000
00001000
00000000
00010000
00000000
,
00001000
00000100
00001000
00010000
00100000
10000000
00010000
10000000
,
01000000
00010000
00001000
00010000
00000010
00010000
00001000
00000100
,
00000001
00000010
00000100
00001000
00000000
00001001
00001100
00000000
,
00000010
00001000
00000100
00000000
00010000
00000000
00001000
00011000
,
00000000
01001000
00000000
00100000
01100000
00000000
10010000
00000000
,
01000000
10000000
00100000
00000000
01000000
00000000
00010000
01010000
,
00000000
00101000
00000000
00001000
00011000
00000000
00010010
00000000
,
00000100
00001000
00000010
00000000
00000100
00000000
00000001
00001001
,
00000000
00000110
00000000
00000100
00010100
00000000
00011000
00000000
,
01000000
00010000
00100000
00000000
01000000
00000000
10000000
00100000
,
01100000
00011000
00000110
00000000
,
00000001
00000000
00000001
00000100
00000000
00000000
00000010
00000000
00000010
00001000
00000000
00000000
,
00000100
00000000
00000100
00010000
00000000
00010000
00001000
00000000
00000000
01000000
00000000
00000000
,
00010000
00000000
00010000
00100000
00000000
00000000
01000000
00000000
01000000
10000000
00000000
00000000
,
00100000
00000000
00100000
01000000
00000000
01000000
00001000
00000000
00000000
00010000
00000000
00000000
,
00001000
00000000
00001000
00010000
00000000
00010000
00000100
00000000
00000100
00000010
00000000
00000000
,
00000001
00000000
00000100
00000010
00000000
00000010
00001000
00000000
00000000
00010100
00000000
00000000
,
00001000
00000000
00001000
00010000
00000000
00010000
01000000
00000000
01000000
10000000
00000000
10000000
,
00100000
01000000
00010000
10000000
01000000
00100000
00010000
00000000
00000000
01000000
00000000
00000000
,
00100000
00000000
00100000
10000000
00000000
00000000
01000000
00000000
01000000
00100000
00000000
00000000
,
00001000
00000000
00001000
00010000
00000000
00010000
00000010
00000000
00000010
00001000
00000000
00000000
,
00000100
00000000
00000100
00000010
00000000
00000010
00000001
00000000
00000001
00000100
00000000
00000100
,
00001000
00000000
00001000
00010000
00000000
00010000
00100000
00000000
00000000
01100000
00000000
00000000
,
10000000
00000000
10000000
01000000
00000000
00000000
00100000
00000000
00100000
00010000
00000000
00000000
,
01000000
00000000
01000000
00100000
00000000
00100000
00010000
00000000
00010000
00001000
00000000
00000000
,
00000010
00000000
00000010
00000001
00000000
00000001
00000100
00000000
00000100
00001000
00000000
00001000
,
00010000
00000100
00010000
00001000
00000000
00000000
01100000
00000000
00000000
11000000
00000000
00000000
,
00010000
00000000
01000000
00000000
00100000
00000000
00000000
00000000
10000000
00000000
00000000
00100000
00000000
00000000
01000000
00000000
,
00000000
00000000
00010000
00000000
00000000
01000000
00000000
00000000
00001000
00000000
00000000
00100000
00000000
00000000
01000000
00000000
,
00010000
00000000
00001000
00000000
00010000
00000000
00000000
00000000
00011000
00000000
00000000
00001000
00000000
00000000
00000100
00000000
,
00000000
00000000
00000010
00000000
00000000
00001000
00000000
00000000
00000001
00000000
00000000
00000010
00000000
00000000
00000100
00000000
,
00000010
00000000
00000001
00000000
00000100
00000000
00000000
00000000
00001000
00000000
00000000
00010000
00000000
00000000
00100000
00000000
,
00000000
00000000
00010000
00000000
00000000
00001000
00000000
00000000
00000100
00000000
00000000
00001000
00000000
00000000
00010000
00000000
,
00100000
00000000
10000000
00000000
01000000
00000000
00100000
00000000
00010000
00000000
00000000
01000000
00000000
00000000
00010000
00000000
,
01000000
00100000
10000000
01000000
10010000
00000000
00011000
00000000
,
00000010
00000001
00000000
00000000
00000001
00000100
00000000
00000000
00000100
00000010
00000000
00000000
00000010
00010000
00000000
00000000
,
00010000
00001000
00000000
00000000
00001000
00000100
00000000
00000000
00000100
00001000
00000000
00010000
00000000
00000000
00011000
00000000
,
00000000
00000000
00010000
00000000
00010000
01000000
00000000
00000000
01000000
10000000
00000000
00000000
10000000
00100000
00000000
00000000
,
00100000
01000000
00000000
00000000
01000000
00001000
00000000
00000000
00001000
00010000
00000000
00001000
00000000
00000000
00010010
00000000
,
00000000
00000000
00000100
00000000
00000000
00000010
00000000
00000000
00000011
00000000
00000000
00000100
00000000
00000000
00000010
00000000
,
00000000
00000000
00001000
00000000
00000000
00000100
00000000
00000000
00010100
00000000
00000000
00010000
00000000
00000000
00001000
00000000
,
00000000
00000000
00010000
00000000
00000000
00100000
00000000
00000000
01100000
00000000
00000000
01000000
00000000
00000000
00010000
00000000
,
00100000
01000000
10000000
00100000
10010000
00000000
01000000
00100000
,
10000000
00000000
01000000
00000000
00010000
00000000
00000000
00000000
00001000
00000000
00000000
00010000
00000000
00000000
00000010
00000000
,
00000000
00001000
00000100
00000010
00000001
00000000
00001100
00000000
,
00000010
00000000
00010000
00000000
00001000
00000000
00000000
00000000
00000100
00000000
00000000
00001000
00000000
00000000
00010000
00000000
,
00000010
00000000
00010000
00000000
00001000
00000000
01000000
00000000
00100000
00000000
00000000
01000000
00000000
00000000
00010000
00000000
,
10000000
00000000
01000000
00000000
00100000
00000000
00000000
00000000
01000000
00000000
00000000
00010000
00000000
00000000
00001000
00000000
,
00000000
01000000
00000000
00001000
00000000
00000010
00000001
00001000
,
00000010
00000000
00000100
00000000
00000010
00001000
00000001
00000010
,
00000000
00000100
00000000
00001000
00010100
00000000
00000000
00000000
,
11000000
00000000
00000000
00000000
;

//---------------dance-double - M. Emirzian----------------
#NOTES:
     dance-double:
     M. Emirzian:
     Challenge:
     10:
     0.783,0.798,0.631,0.016,0.654,613.000,80.000,2.000,0.000,0.000:









00000000
00000000
00000000
00000000
,
00000000
00000000
00000000
00000000
,
00000000
00000000
00000000
00000000
,
00000000
00000000
00000000
00000000
,
00100000
00000000
10000000
00000000
01000000
00000000
00100000
00000000
00010000
00000000
00000000
01000000
00000000
00000000
00010000
00000000
,
00100000
00000000
00010000
00000000
01000000
00000000
00001000
00000000
00010000
00000000
00000000
00000100
00000000
00000000
00000010
00000000
,
00000001
00000100
00000010
00010000
00000100
00000010
00000001
00001000
,
00001001
00001000
00000010
00010010
00011000
00000000
10010000
00000000
,
10000000
00000000
00100000
00000000
01000000
00010000
00000000
00100000
01000000
00000000
10000000
00010000
00000000
00010000
10000000
00000000
,
01000000
00000000
00100000
00000000
01000000
00100000
00000000
00010000
01000000
00000000
00001000
00010000
00000000
00010000
00001000
00000000
,
00000010
00000000
00000100
00000000
00001000
00000001
00000000
00000100
00000010
00000000
00001000
00000100
00000000
00000100
00000010
00000000
,
00000100
00000000
00001000
00000000
00000001
00000100
00000000
00000010
00010000
00000000
00001000
01000000
00000000
01000000
00001000
00000000
,
00100000
00000000
00010000
00000000
00100000
00010000
00000000
00100000
01000000
00000000
10000000
00100000
00000000
00100000
01000000
00000000
,
00010000
00000000
00100000
00000000
00010000
01000000
00000000
00100000
00010000
00000000
00001000
01000000
00000000
01000000
00001000
00000000
,
00010000
00000000
00000010
00000000
00000100
00000010
00000000
00000100
00000010
00000000
00001000
00000100
00000000
00000100
00000010
00000000
,
00000001
00001100
00000000
00000010
00010010
00000000
01001000
00000000
,
00100000
00000000
01000000
00000000
10000000
00010000
00000000
01000000
00100000
00000000
10000000
01000000
00000000
01000000
00100000
00000000
,
00010000
00000000
00100000
00000000
00001000
00010000
00000000
00000100
00000010
00000000
00000100
00001000
00000000
00001000
00000001
00000000
,
00000100
00000000
00000010
00000000
00001000
00000100
00000000
00010000
00001000
00000000
01000000
00001000
00000000
00001000
00010000
00000000
,
00100000
00000000
10000000
00000000
01000000
00100000
00000000
00010000
01000000
00000000
00100000
01000000
00000000
01000000
00001000
00000000
,
00010000
00000000
00001000
00000000
00000010
00000100
00000000
00001000
00000010
00000000
00000100
00000001
00000000
00000001
00000100
00000000
,
00001000
00000000
00010000
00000000
00001000
01000000
00000000
00100000
01000000
00000000
00010000
01000000
00000000
01000000
00010000
00000000
,
10000000
00000000
01000000
00000000
00100000
00001000
00000000
00010000
00000100
00000000
00000010
00000001
00000000
00000001
00000100
00000000
,
00000110
00000000
00000010
00000000
00010000
00000000
00011000
00000000
01001000
00000000
00000000
00000000
00100000
10000000
00010000
10000000
,
00100000
00000000
00000000
11000000
00000000
00000000
00110000
00000000
00000000
01001000
00000000
00000000
00011000
00000000
00000000
00000000
,
00010010
00000000
00000000
00001100
00000000
00000000
00001001
00000000
00000101
00000000
00000000
00001010
00000000
00000000
00001001
00000000
,
00000000
00000000
00001010
00000000
00000000
00010100
00000000
00000000
01001000
00000000
00000000
00011000
00000000
00000000
00110000
00000000
,
00000000
00000000
10100000
00000000
00000000
11000000
00000000
00000000
00110000
00000000
00000000
00101000
00000000
00000000
00011000
00000000
,
00000000
00000000
00010000
00000000
00001000
00000000
00000100
00000000
00000001
00000000
00000000
00000010
00000000
00000000
00000100
00000000
,
00001000
00000000
00000001
00000000
00000100
00000000
00000010
00000000
00010000
00000000
00000000
00000100
00000000
00000000
00010000
00000000
,
00001000
00000000
00010000
00000000
00100000
00000000
01000000
00000000
00010000
00000000
00000000
01000000
00000000
00000000
00100000
00000000
,
10000000
00000000
01000000
00000000
00000000
00100000
00000000
00000000
00110000
00000000
00000000
01000000
10000000
00000000
00010000
00000000
,
01000000
00000000
00100000
10000000
00100000
00000000
01000000
00010000
01000000
00000000
00100000
00000000
10000000
00000000
01000000
00000000
,
00100000
00010000
10000000
01000000
00100000
00001000
00000010
00000001
,
00000100
00000000
00000010
00001000
00000100
00000000
00001000
00000001
00001000
00000000
00001000
00000000
00000100
00000000
00000010
00000000
,
00000001
00010000
00000010
00010000
00001000
01000000
00000100
00010000
,
00001000
00000000
01000000
00000000
00100000
00000000
01000000
00010000
10000000
00000000
00010000
00000000
00100000
00000000
01000000
00000000
,
10000000
00000000
00010000
00000000
10000000
00000000
01000000
00000000
00100000
00010000
00100000
00000000
00001000
00000000
00010000
00000000
,
00000100
00000000
00010000
00001000
00000010
00000000
00000001
00000100
00000010
00000000
00001000
00000100
00000010
00000001
00000100
00000000
,
00000001
00000100
00000000
00000010
00000000
00000000
00001010
00000000
00000000
00000000
00000101
00000000
00001001
00000000
00000000
00000000
,
00000010
00010000
00001000
00000000
01001000
00000000
00000000
10000000
,
01010000
00100000
00000000
10000000
01000000
00100000
00010000
00000000
,
00100000
01000000
10000000
00000000
00110000
00000000
00001000
00011000
,
00000000
00010010
00000000
00001000
00001100
00000000
00000010
00000000
,
00000001
00000100
00000010
00000000
00001010
00000000
00000000
00000100
,
00010100
00001000
00000000
00000100
00001000
00010000
00100000
00000000
,
01000000
00010000
10000000
00000000
11000000
00000000
00100000
00010000
,
01010000
01000000
00001000
00011000
00010010
00000000
00010000
00000000
,
00001000
00000000
00001000
00010000
00000000
00000000
01000000
00000000
01000000
00010000
00000000
00000000
,
00001000
00000000
00001000
00000100
00000000
00000100
00000001
00000000
00000000
00001100
00000000
00000000
,
00000100
00000000
00000100
00001000
00000000
00001000
00000010
00000000
00000010
00010000
00000000
00010000
,
01000000
00000000
01000000
00010000
00000000
00010000
00001000
00000000
01000000
00100000
01000000
00010000
,
01000000
00000000
01000000
00100000
00000000
00100000
10000000
00000000
10000000
01000000
00000000
01000000
,
00100000
00000000
00100000
00001000
00000000
00001000
00000010
00000000
00000010
00000001
00000010
00000100
,
00001000
00000000
00001000
00000010
00000000
00000010
00000100
00000000
00000100
00001000
00000000
00001000
,
00010000
00001000
01000000
00010000
00100000
01000000
10000000
00000000
00000000
00110000
00000000
00000000
,
01000000
00000000
01000000
00100000
00000000
00100000
10000000
00000000
10000000
01000000
00000000
01000000
,
00010000
00000000
00010000
00000100
00000000
00000100
00000010
00000000
00000000
00000011
00000000
00000000
,
00000100
00000000
00000100
00000010
00000000
00000010
00010000
00000000
00010000
00001000
00000000
00001000
,
00000100
00000000
00000100
00001000
00000000
00001000
00100000
00000000
00000000
01010000
00000000
00000000
,
00100000
00000000
00100000
10000000
00000000
10000000
01000000
00000000
01000000
00100000
00000000
00100000
,
00001000
00000000
00001000
00010000
00000000
00010000
00000100
00000000
00000000
00001010
00000000
00000000
,
00000100
00000000
00000100
00000001
00000000
00000001
00000010
00000000
00000010
00000100
00000000
00000100
,
00001000
00000010
00010000
00001000
01000000
00100000
10000000
00000000
00000000
10010000
00000000
00000000
,
00100000
00000000
01000000
00000000
10000000
00000000
00010000
00000000
01000000
00000000
00000000
10000000
00000000
00000000
01000000
00000000
,
00010000
00000000
00100000
00000000
00001000
00000000
00010000
00000000
00000100
00000000
00000000
01000000
00000000
00000000
00001000
00000000
,
00000100
00000000
00000010
00000000
00010000
00000000
00001000
00000000
00000010
00000000
00000000
00000100
00000000
00000000
00001000
00000000
,
00000010
00000000
00000100
00000000
00000001
00000000
00001000
00000000
00000100
00000000
00000000
00010000
00000000
00000000
00001000
00000000
,
01000000
00000000
00100000
00000000
10000000
00000000
01000000
00000000
00100000
00000000
00000000
01000000
00000000
00000000
00010000
00000000
,
00001000
00000000
01000000
00000000
00100000
00000000
00010000
00000000
00001000
00000000
00000000
00000010
00000000
00000000
00000100
00000000
,
00001000
00000000
00000100
00000000
00000010
00000000
00000001
00000000
00000100
00000000
00000000
00000010
00000000
00000000
00010000
00000000
,
00011000
00000000
00001000
00000000
01000000
00000000
00100000
00000000
10100000
00000000
00000000
00000000
10000000
00010000
00100000
01000000
,
10000000
00000000
00000000
01001000
00000000
00000000
00110000
00000000
00000000
00101000
00000000
00000000
00011000
00000000
00000000
00000000
,
00010010
00000000
00000000
00001100
00000000
00000000
00000110
00000000
00000011
00000000
00000000
00001001
00000000
00000000
00001010
00000000
,
00000000
00000000
00010010
00000000
00000000
01001000
00000000
00000000
00110000
00000000
00000000
11000000
00000000
00000000
10100000
00000000
,
00000000
00000000
00110000
00000000
00000000
00011000
00000000
00000000
00001010
00000000
00000000
00000011
00000000
00000000
00000101
00000000
,
00000000
00000000
00000010
00000000
00001000
00000000
00000100
00000000
00000010
00000000
00000000
00000100
00000000
00000000
00001000
00000000
,
00000001
00000000
00000100
00000000
00001000
00000000
00010000
00000000
00001000
00000000
00000000
01000000
00000000
00000000
00010000
00000000
,
00100000
00000000
01000000
00000000
10000000
00000000
00010000
00000000
01000000
00000000
00000000
00100000
00000000
00000000
10000000
00000000
,
01000000
00000000
00100000
00000000
00000000
00010000
00000000
00000000
10010000
00000000
00000000
00000000
00100000
00000000
00000000
00000000
,
00010000
00000000
01000000
00000000
00100000
00000000
00000000
00000000
01000000
00000000
00000000
00001000
00000000
00000000
00100000
00000000
,
00000000
01000000
00000000
00010000
00001000
00000000
00010010
00000000
,
00001000
00000000
00000100
00000000
00000010
00000000
00000000
00000000
00000001
00000000
00000000
00001000
00000000
00000000
00000010
00000000
,
00000100
00000000
00000001
00000000
00000010
00000000
00000100
00000000
00001000
00000000
00000000
00000010
00000000
00000000
00010000
00000000
,
00001000
00000000
01000000
00000000
00010000
00000000
00000000
00000000
00100000
00000000
00000000
01000000
00000000
00000000
10000000
00000000
,
00000000
00010000
00000000
01000000
00000000
00100000
10000000
01000000
,
00100000
00000000
00001000
00000000
00010000
00010100
00000000
00001010
,
00000000
00000100
00000000
00000001
00000220
00000000
00000330
00000000
,
00011000
00000000
00000000
00000000
;

//---------------lights-cabinet - ----------------
#NOTES:
     lights-cabinet:
     :
     Easy:
     1:
     1.000,1.000,1.000,0.000,0.051,410.000,336.000,0.000,0.000,263.000:

00000000
00000000
00000000
00000000
,
00000000
00000000
00000000
00000000
,
11000000
00000000
00110000
00000000
,
11000000
00110000
11000000
11000000
,
00110011
00010000
01100000
10010000
,
01100011
00100000
10010000
00000000
,
00010011
00010000
11000011
00100000
,
11000011
00010011
10000011
00000011
10010011
00000000
00000000
00000000
,
11000011
00100011
01010011
00010011
,
11000011
00000000
00100011
00000000
11000011
01000000
10000011
00000000
,
10100011
01000011
00010011
00100011
,
00010011
00100000
00010011
00100000
00110011
00000000
10000011
00000011
,
11000011
00100011
11000011
00010011
,
01100011
00000000
00100011
00000000
10100011
01000000
10000011
00000000
,
01100011
01000011
01100011
00010011
,
01010011
00000000
00100011
00010000
00110011
00000000
11110000
00000000
,
11110011
01000011
01100011
10000011
,
01100011
00000000
10000011
00000000
11000011
01000000
10000011
00000000
,
00110011
01000011
00010011
00100011
,
00110011
10000000
00010011
10000000
00010011
00000000
00000011
00000011
,
11000011
00100011
01100011
00010011
,
00100011
00000000
00010011
00000000
11000011
00100000
01000011
00000000
,
00110011
00000000
11000011
00000000
,
00000011
00010011
00000011
01000011
00010011
00000000
00000000
00000000
,
11000011
10000011
11000011
10000011
,
10100011
00000000
00100011
00000000
01100011
00010000
00100011
00000000
,
00010011
00010011
00110011
00010011
,
01100011
00000000
01000011
00000000
10100011
01000000
00100011
01000000
,
00010011
00010011
00010011
00010011
,
11000011
00000000
01000011
00000000
00010011
01000000
00000011
00100000
,
11000011
10000011
11000011
10000011
,
00100011
00000000
00100011
00000000
11000011
00010000
00100000
00000000
,
00010011
10000011
01010011
10000011
,
00110011
00000000
01000011
00000000
00100011
01000000
00010011
00000000
,
11000011
00010011
11000011
00010011
,
11000011
00000000
01100011
00000000
00110011
00000000
11000011
00000011
,
10100011
01000011
11000011
00010011
,
00110011
00000000
00010011
00000000
11000011
00100000
10000011
00000000
,
01100011
11000000
00110011
11000000
11110011
11000000
00110011
11000000
,
01100011
00000000
01000011
00000000
10010011
01100000
10010011
00000000
,
11110011
11110000
00000011
11110000
00000011
11110000
00000011
11110000
,
00000011
11110000
00000011
11110000
00000011
11110000
00000011
11110000
,
00000011
11110000
00000011
11110000
00000011
11110000
00000011
11110000
,
00000011
11110000
00000011
01100000
10010011
01100000
10010011
11110000
,
00000011
11110000
00000011
11110000
00000011
11110000
00000011
11110000
,
00000011
11110000
00000011
11110000
00000011
11110000
00000011
11110000
,
00000011
11110000
00000011
11110000
00000011
11110000
00000011
01100000
,
10010011
01100011
10010011
01100011
10010011
00000000
00000000
00000000
,
11001011
00000000
00001000
00000100
00000000
00000100
00101000
00000000
00001000
00000100
00000000
00000100
,
11001000
00000000
00001000
00010100
00000000
00000100
01101000
00000000
00001000
00000100
00000000
00000100
,
01011000
00000000
00001000
00000100
00000000
00000100
00111000
00000000
00001000
00000100
00000000
00000100
,
00011000
00000000
00001000
10010100
00000000
00000000
11111100
00000000
00000000
00000000
00000000
00000000
,
11000011
01000011
10100011
00010011
,
11000011
01000011
00100011
00010011
,
01100011
00010011
01100011
00010011
,
01100011
10010011
01100011
00000000
,
00010011
01000011
11000011
01100011
,
00110011
10000011
11000011
10010011
,
01100011
10000011
00100011
01000011
,
00110011
11000011
00110011
01100000
,
11000011
00100011
00110011
11110011
,
01010011
00010011
00110011
00000011
,
11000011
00100011
11000011
00010011
,
11110011
01100011
11110011
00000000
,
11000011
00000000
00010000
00000000
,
11000000
00000000
00110000
00100000
,
10100011
00000000
11000000
00000000
,
11000000
00000000
00100000
00000000
11000000
00010000
01000000
00010000
,
11000011
00000000
00100000
00000000
,
11000011
00000000
00010000
10000000
,
11000011
00000000
00110011
00000000
,
01010011
00000011
01000011
00000011
11000011
00000000
00000000
00000000
,
00010011
00010011
01010011
00010011
,
01100011
00000000
01000011
00000000
00100011
10000000
01000011
00000000
,
11000011
10000011
11000011
10000011
,
10100011
00000000
00100011
00000000
01100011
00100000
01000011
00100000
,
10100011
10000011
11000011
10000011
,
00110011
00000000
00100011
00000000
11000011
00100000
00000011
01000000
,
00010011
00010000
00100011
00100000
,
10010011
01100011
10010011
01100011
10010011
00000000
00000000
00000000
,
01010011
01000011
00110011
10000000
,
00100000
00000000
01000000
00000000
00110000
00100000
00010000
00000000
,
01100011
00100000
11000000
01000000
,
11000000
01000000
10000000
01000000
10100000
00000011
00010000
00000011
,
00110011
01000000
00110000
10000000
,
10100000
00000000
01000000
00000000
00010000
00100000
00010000
00000000
,
01010011
00000000
01100011
00000000
,
11000000
00000011
01000000
10000011
11000011
00000000
00000000
00000000
,
10010011
00000000
00000000
00000000
;

//---------------dance-single - M. Puls----------------
#NOTES:
     dance-single:
     M. Puls:
     Beginner:
     1:
     0.090,0.139,0.016,0.000,0.000,78.000,2.000,0.000,0.000,0.000:





0000
0000
0000
0000
,
0000
0000
0000
0000
,
0000
0000
0000
0000
,
0000
0000
0000
0000
,
1000
0000
0000
0000
,
0000
0000
0000
0000
,
0001
0000
0000
0000
,
1000
0000
0000
0000
,
0001
0000
0000
0000
,
0100
0000
0000
0000
,
0010
0000
0000
0000
,
0100
0000
0000
0000
,
0001
0000
0000
0000
,
1000
0000
0000
0000
,
0100
0000
0000
0000
,
0010
0000
0000
0000
,
1000
0000
0000
0000
,
0010
0000
0000
0000
,
0100
0000
0000
0000
,
0010
0000
0000
0000
,
1000
0000
0000
0000
,
0001
0000
0000
0000
,
0010
0000
0000
0000
,
0100
0000
0000
1001
,
0000
0000
0000
0000
,
0010
0000
0000
0000
,
0010
0000
0000
0000
,
0100
0000
0000
0000
,
0100
0000
0000
0000
,
0001
0000
0000
0000
,
1000
0000
0000
0000
,
0000
0000
0000
0000
,
0100
0000
0000
0000
,
0000
0000
0000
0000
,
0001
0000
0000
0000
,
1000
0000
0000
0000
,
0010
0000
0000
0000
,
0000
0000
0000
0000
,
0010
0000
0000
0000
,
1000
0000
0000
0000
,
0001
0000
0000
0000
,
1000
0000
0000
0000
,
0010
0000
0000
0000
,
0100
0000
0000
0000
,
0001
0000
0000
0000
,
1000
0000
0000
0000
,
0010
0000
0000
0000
,
0100
0000
0000
0000
,
0100
0000
0000
0000
,
0001
0000
0000
0000
,
1000
0000
0000
0000
,
0001
0000
0000
0000
,
0001
0000
0000
0000
,
0001
0000
0000
0000
,
1000
0000
0000
0000
,
1000
0000
0000
0000
,
1000
0000
0000
0000
,
0100
0000
0000
0000
,
0010
0000
0000
0000
,
0010
0000
0000
0000
,
0001
0000
0000
0000
,
0010
0000
0000
0000
,
0100
0000
0000
0000
,
0100
0000
0000
0000
,
1000
0000
0000
0000
,
0000
0000
0000
0000
,
0001
0000
0000
0000
,
0000
0000
0000
0000
,
1000
0000
0000
0000
,
0001
0000
0000
0000
,
1000
0000
0000
0000
,
0001
0000
0000
0000
,
1000
0000
0000
0000
,
0100
0000
0000
0000
,
1000
0000
0000
0000
,
0001
0000
0000
0000
,
0010
0000
0000
0000
,
0001
0000
0000
0000
,
1000
0000
0000
0000
,
0100
0000
0000
0000
,
0100
0000
0000
0000
,
0010
0000
0000
0000
,
0010
0000
0000
0000
,
0001
0000
0000
0000
,
1000
0000
0000
0000
,
0000
0000
0000
0000
,
1000
0000
0000
0000
,
0001
0000
0000
0000
,
1001
0000
0000
0000
;
