#TITLE:Beyond Abilities;
#SUBTITLE:;
#ARTIST:Warmen;
#TITLETRANSLIT:;
#SUBTITLETRANSLIT:;
#ARTISTTRANSLIT:;
#CREDIT:;
#BANNER:../bn.png;
#BACKGROUND:../veyron.png;
#LYRICSPATH:;
#CDTITLE:;
#MUSIC:warmen - Beyond Abilities.ogg;
#OFFSET:-2.173;
#SAMPLESTART:57.836;
#SAMPLELENGTH:17.660;
#SELECTABLE:YES;
#BPMS:0.000=224.001;
#STOPS:;
#BGCHANGES:;
// cache tags:
#FIRSTBEAT:8.000;
#LASTBEAT:728.000;
#SONGFILENAME:Songs/Cirque du Veyron/Zaia - Beyond Abilities/Beyond Abilities.sm;
#HASMUSIC:1;
#HASBANNER:1;
#MUSICLENGTH:201.472;
// end cache tags

//---------------dance-single - Zaia----------------
#NOTES:
     dance-single:
     Zaia:
     Challenge:
     16:
     1.000,1.000,0.030,0.422,1.000,1817.000,6.000,85.000,0.000,1.000:
0000
0000
0000
0000
,
0000
0000
0000
0000
,
1000
0010
0100
0010
1000
0001
0010
0001
,
1000
0000
0100
0000
1000
0000
0100
0000
0000
0010
0000
0000
0100
0000
1000
0000
0010
0000
0100
0000
0001
0000
0100
0000
,
0010
1000
0010
0100
0001
1000
0001
0010
,
0001
0000
1000
0000
0001
0000
1000
0000
0000
0010
0000
0000
0100
0000
0001
0000
1000
0000
0001
0000
0100
0000
0010
0000
,
1000
0100
1000
0001
0010
0100
0010
0001
,
1000
0000
0010
0000
1000
0000
0010
0000
0000
0100
0000
0000
0001
0000
0010
0000
0100
0000
1000
0000
0001
0000
1000
0000
,
0010
0100
0001
0100
0010
1000
0001
0010
0100
1000
0100
0010
,
0001
1000
0010
0100
0001
1000
0010
0100
0001
0010
0100
1000
,
0001
0010
0001
0100
0010
1000
0001
1000
,
0001
0000
0010
0000
0001
0000
0010
0000
0000
0100
0000
0000
1000
0000
0010
0000
0100
0000
0001
0000
1000
0000
0001
0000
,
0100
0010
1000
0100
1000
0001
0010
0100
,
1000
0000
0001
0000
1000
0000
0001
0000
0000
0100
0000
0000
0010
0000
1000
0000
0001
0000
0010
0000
0100
0000
1000
0000
,
0100
0010
0100
1000
0010
1000
0001
1000
,
0010
0000
0100
0000
0010
0000
0100
0000
0000
0001
0000
0000
0010
0000
0100
0000
0010
0000
0001
0000
1000
0000
0100
0000
,
1000
0010
0100
0001
0100
0010
1000
0100
0010
0001
0010
0100
,
1000
0010
0100
0001
0100
0010
1000
0001
0010
0001
1000
0010
,
0200
0000
0001
0001
0000
0001
0001
0000
,
0302
0000
0000
0000
,
0000
0000
0000
0000
,
0000
0000
0000
0000
0000
0000
1003
0010
0100
0001
1000
0001
0100
0010
1000
0001
,
0020
0000
0000
0000
0130
1000
0001
0100
0010
0100
0001
1000
0100
0010
0001
1000
,
0001
0100
0010
0100
0001
1000
0100
0010
0001
0100
0010
1000
0001
1000
0010
1000
,
0200
0000
0000
0000
,
2300
0000
0000
0000
,
3002
0000
0000
0000
1003
0000
0001
0000
0100
0010
1000
0001
0100
0010
0100
0001
,
1000
0100
1000
0001
0010
0100
1000
0001
0010
0100
0010
0001
0100
0010
1000
0001
,
0020
0000
0000
0000
0000
0000
0230
0000
0000
0000
0000
0000
1300
0001
0010
0001
,
1000
0000
0010
0000
0100
0000
0002
0000
0000
0000
0000
0000
0103
0010
1000
0100
,
0020
0000
0000
0000
0000
0000
0230
0000
0000
0000
0000
0000
1300
0001
0010
0100
,
1000
0000
0001
0000
0100
0000
0020
0000
0000
0000
0130
0001
0100
0010
1000
0010
,
0100
0001
0010
0100
1000
0010
0100
0001
0100
0010
1000
0001
0010
0100
0010
0001
,
1000
0010
1000
0100
0010
0001
1000
0010
0100
0001
1000
0100
0010
0100
1000
0010
,
0100
0000
0001
0000
0000
0000
0100
0000
0001
0000
0000
0000
0000
0000
0100
0010
,
0100
0010
0000
1000
0010
0100
0100
0001
,
1000
0001
0010
0001
0100
0000
0010
1000
0100
1000
0001
0000
0100
0010
1000
0001
,
0010
0000
0100
1000
0010
1000
0001
0000
0100
0001
1000
0001
0100
0000
0010
1000
,
0001
1000
0100
0000
1000
0001
0100
0010
1000
0000
0001
0010
0100
0010
0001
1000
,
0010
0100
0001
1000
0100
0010
0001
1000
0001
0010
0100
1000
0010
0100
0001
0100
,
0020
0000
0000
0000
0000
0000
0130
0001
1000
0000
0100
0000
1000
0000
0010
0000
,
0100
0010
1000
0100
0010
0001
1000
0010
,
0200
0000
0000
0000
0301
1000
0010
0100
0001
1000
0001
1000
0100
0010
0001
0010
,
0100
1000
0010
0100
0001
0100
0010
1000
0002
0000
0000
0000
0013
0000
0100
0000
,
2000
0000
3100
0020
0000
0031
1000
0100
,
0020
0000
0000
0000
0130
0000
1000
0000
0010
0000
0100
0000
0001
0000
1000
0010
,
0100
0001
1000
0010
0100
0010
0100
0001
1000
0001
0100
0010
1000
0001
1000
0010
,
0100
0001
0010
0100
1000
0001
1000
0100
0010
0001
0100
0001
1000
0100
1000
0010
,
0200
0000
0000
0302
0000
0000
2003
0000
,
3002
0000
0013
0100
1000
0001
0010
0100
,
1100
1000
0001
1000
0001
0000
0100
0010
,
0100
0010
0010
0000
1000
0001
0001
0000
,
1000
0100
0010
0100
1000
0001
0100
0001
,
1000
0000
0010
0000
1000
0000
0010
0000
0000
0100
0000
0000
0010
0000
1000
0000
0100
0000
0010
0000
0001
0000
0010
0000
,
0100
1000
0100
0010
0001
1000
0001
0100
,
0001
0000
1000
0000
0001
0000
1000
0000
0000
0100
0000
0000
0010
0000
0001
0000
1000
0000
0001
0000
0010
0000
0100
0000
,
1000
0010
1000
0001
0100
0010
0100
0001
,
1000
0000
0100
0000
1000
0000
0100
0000
0000
0010
0000
0000
0001
0000
0100
0000
0010
0000
1000
0000
0001
0000
1000
0000
,
0100
0010
0001
0010
0100
1000
0001
0100
0010
1000
0010
0100
,
0001
1000
0100
0010
0001
1000
0100
0010
0001
0100
0010
1000
,
0001
0100
0001
0010
0100
1000
0001
1000
,
0001
0000
0100
0000
0001
0000
0100
0000
0000
0010
0000
0000
1000
0000
0100
0000
0010
0000
0001
0000
1000
0000
0001
0000
,
0010
0100
1000
0010
1000
0001
0100
0010
,
1000
0000
0001
0000
1000
0000
0001
0000
0000
0010
0000
0000
0100
0000
1000
0000
0001
0000
0100
0000
0010
0000
1000
0000
,
0010
0100
0010
1000
0100
1000
0001
1000
,
0100
0000
0010
0000
0100
0000
0010
0000
0000
0001
0000
0000
0100
0000
0010
0000
0100
0000
0001
0000
1000
0000
0010
0000
,
1000
0100
0010
0001
0010
0100
1000
0010
0100
0001
0100
0010
,
1000
0100
0010
0001
0010
0100
1000
0001
0100
0001
1000
0001
,
0010
0100
1000
0010
0100
0001
0100
0010
1000
0001
0010
0100
0010
0001
1000
0001
,
0100
0010
1000
0001
1000
0010
0100
0001
1000
0100
1000
0001
0010
0100
1000
0001
,
1000
0100
0010
0100
1000
0010
0100
0010
0100
0001
1000
0100
0010
0100
1000
0001
,
1000
0010
0100
0001
0010
0100
1000
0010
0100
0001
1000
0001
1000
0010
0100
0001
,
1000
0100
0010
0100
1000
0001
0010
0100
1000
0001
0100
0001
1000
0010
1000
0001
,
0010
0100
0010
0001
1000
0010
0100
0001
1000
0001
0100
0010
0100
0001
0010
0100
,
0010
0001
1000
0100
1000
0001
0010
0001
1000
0010
0100
0010
0100
0001
1000
0010
,
0100
0010
0100
0001
1000
0100
0010
0100
1000
0001
0010
0100
1000
0001
0010
0100
,
1000
0001
1000
0100
1000
0001
0010
0100
,
0010
0001
0100
0010
1000
0100
0010
0200
,
0300
1000
0001
0100
0001
1000
0001
0100
,
0010
1000
0001
0100
0010
1000
0001
1000
0010
0100
0001
1000
,
0010
0100
0001
1000
0010
0100
0001
1000
,
0001
0100
0001
0010
0001
1000
0001
0020
,
0030
0100
1000
0010
1000
0100
0010
0002
,
2003
3200
2300
0000
3001
0100
0002
0203
,
0300
0010
0100
0001
1000
0100
0010
0100
,
1000
0001
1000
0001
0010
0100
2000
3002
,
0103
0010
0100
0001
0100
0010
0100
0001
,
0010
0100
1000
0001
0010
0100
0010
0001
0100
0010
1000
0001
,
0100
0001
1000
0010
1000
0100
1000
0001
,
1000
0000
0100
0000
0010
0000
0100
0000
1000
0000
0010
0000
0100
0000
0001
1000
,
0010
0100
0001
1000
0100
0010
0001
1000
0010
0100
0001
1000
0001
0100
0010
1000
,
0100
1000
0001
0010
0100
0010
0001
1000
0010
0100
0001
1000
0100
1000
0001
0100
,
0020
0000
2030
0000
,
3000
0001
0100
0010
1000
0100
1000
0010
,
0100
0001
0010
0100
1000
0010
0100
0002
,
0000
1003
0100
0010
0100
2000
0000
3000
,
0001
0100
0010
0100
0001
1000
0100
0010
0100
1000
0001
0100
,
0010
0100
0001
1000
0100
0010
0100
1000
0010
0100
0001
1000
,
0200
0000
0000
0310
0200
0000
1300
0200
,
0000
0310
0200
0000
0311
0000
0000
0000
,
1000
0001
0100
0010
1000
0001
1000
0010
0100
0001
0010
0100
,
1000
0100
0010
0001
1000
0010
0100
0010
1000
0001
0010
0001
,
1000
0001
1000
0100
1000
0010
0100
0001
1000
0010
0100
0001
,
1000
0100
1000
0001
0010
0100
1000
0001
1000
0100
0010
0001
,
1000
0100
1000
0010
1000
0001
0100
0001
0010
0001
1000
0010
,
0100
0001
0100
0010
1000
0010
0100
0001
1000
0010
0100
0001
,
1000
0010
1000
0001
1000
0010
0100
0001
1000
0100
1000
0001
1000
0100
0010
0001
,
1000
0010
0100
0001
1000
0001
1000
0100
0010
0001
1000
0010
0100
0001
1000
0100
,
0020
0000
0000
0000
,
0000
0000
0000
0000
,
0000
0000
0000
0000
0000
0000
0000
0000
0000
0000
0130
1000
0010
0100
0001
0100
,
0010
1000
0100
1000
0001
0010
0100
1000
0010
1000
0100
0010
0001
0100
0010
1000
,
0200
0000
0000
0000
0000
0000
2300
3200
,
0320
0230
2300
3002
0203
0320
2030
3020
,
0230
0302
2003
3200
0320
0230
2300
3020
,
0230
0302
2003
3020
0230
0302
0203
0320
,
2030
0000
0000
0000
0000
0000
0000
0000
0000
0000
3100
0010
0001
1000
0001
1000
,
0020
0000
0000
0000
0000
0000
0000
0000
0000
0000
0000
0000
0130
0001
1000
0001
,
0100
0010
1000
0001
0010
0100
1000
0100
0020
0000
0000
0000
0000
0000
0032
0000
,
0000
0000
1003
0010
1000
0001
1000
0010
0100
0001
0100
0010
1000
0001
0010
0001
,
2000
0000
0000
0000
0000
0000
3200
0000
0300
0000
0010
0100
1000
0010
0100
0001
,
1000
0010
2000
0000
0000
0000
3001
0010
0100
1000
0001
1000
0100
0010
0100
1000
,
0001
0010
0001
0010
0100
1000
0100
1000
0001
1000
0010
0100
0001
1000
0001
0100
,
0010
1000
0010
0100
0001
1000
0010
0100
0001
1000
0010
1000
0010
0100
0001
0100
,
0001
1000
0001
1000
0010
0100
0001
1000
0100
0010
0100
0010
0001
1000
0010
0100
,
0001
1000
0001
1000
0100
0010
0001
1000
0001
0100
0001
0100
0010
1000
0001
1000
,
0100
0010
0100
0010
0001
1000
0010
0100
0001
1000
0001
1000
0010
0100
0001
1000
,
0100
0010
0100
0010
0001
1000
0100
0010
0001
1000
0001
1000
0010
0100
0010
1000
,
0001
0100
0001
0100
0010
1000
0001
1000
0100
0010
0100
0010
0001
1000
0100
0010
,
0001
1000
0001
1000
0010
0100
0001
1000
0001
0010
0001
0010
0100
1000
0001
1000
,
0010
0100
0010
0100
0001
1000
0100
0010
0001
1000
0001
1000
0100
0010
0001
1000
,
0010
0100
0010
0100
0001
1000
0010
0100
0001
1000
0001
1000
0100
0010
0100
1000
,
0001
0100
0010
1000
0010
0100
0001
1000
0100
1000
0001
0010
0100
1000
0100
0010
,
0001
1000
0001
0100
0001
1000
0100
1000
0010
0100
0001
1000
0100
0010
0100
1000
,
0001
1000
0001
0100
0010
0100
0001
1000
0100
1000
0001
0010
0001
1000
0010
0100
,
0010
1000
0100
0010
0100
1000
0001
0010
0001
1000
0001
0100
0010
1000
0001
1000
,
0001
0010
0100
1000
0001
0010
0100
1000
0001
1000
0010
0100
0001
1000
0010
0100
,
0001
1000
0010
1000
0100
0010
0001
0100
0001
1000
0100
1000
0010
0100
0001
0010
,
0100
0010
0001
1000
0010
0100
0001
0010
0100
1000
0001
0100
0001
1000
0100
0010
,
0001
0100
0010
0100
0001
1000
0100
1000
0010
0100
0001
1000
0001
0100
0010
1000
,
0002
0000
0000
0000
,
0000
0003
0000
0000
,
0000
0000
0000
0000
0000
0000
1000
0100
,
0010
0001
1000
0100
0010
0001
0010
0100
,
2000
0000
3002
0000
,
0203
0000
0302
0000
,
0103
0010
1000
0010
0100
0001
0100
0010
1000
0010
0100
0001
,
1000
0100
0010
0001
0010
0100
1000
0100
0010
0001
0010
0100
,
2000
0000
3002
0000
,
0023
0000
0230
0000
,
1300
0001
1000
0100
1000
0010
1000
0001
1000
0100
1000
0010
,
1000
0001
0100
0001
0010
0001
1000
0001
0100
0001
0010
0001
,
1000
0010
1000
0001
0010
0001
1000
0100
1000
0001
0010
0001
,
1000
0100
0010
0001
1000
0001
0010
0100
0010
0001
1000
0010
,
0100
0001
0010
0001
0010
0100
1000
0001
0100
0010
1000
0100
1000
0100
0010
0100
,
1000
0010
0100
0001
1000
0001
0100
0010
0100
0010
1000
0100
0010
0100
0010
0001
,
1000
0010
0100
0010
1000
0001
0010
0001
,
1000
0000
0100
0000
1000
0000
0100
0000
0000
0010
0000
0000
0100
0000
1000
0000
0010
0000
0100
0000
0001
0000
0100
0000
,
0010
1000
0010
0100
0001
1000
0001
0010
,
0001
0000
1000
0000
0001
0000
1000
0000
0000
0010
0000
0000
0100
0000
0001
0000
1000
0000
0001
0000
0100
0000
0010
0000
,
1000
0100
1000
0001
0010
0100
0010
0001
,
1000
0000
0010
0000
1000
0000
0010
0000
0000
0100
0000
0000
0001
0000
0010
0000
0100
0000
1000
0000
0001
0000
1000
0000
,
0010
0100
0001
0100
0010
1000
0001
0010
0100
1000
0100
0010
,
0001
1000
0010
0100
0001
1000
0010
0100
0001
0010
0100
1000
,
0001
0000
0000
0000
,
1001
0000
1000
1100
0000
0001
0011
0000
,
1001
0000
0000
0000
,
1000
0001
0100
0010
1000
0001
1000
0010
0100
0001
0010
0100
1000
0001
0010
0001
,
1000
0000
0000
0000
,
0001
0000
0000
0000
0000
0000
1000
0000
0000
0100
0000
0000
1000
0000
0000
0000
0000
0000
0001
0000
0000
0000
0000
0000
0100
0000
0000
0000
0010
0000
0000
0000
1000
0000
0000
0000
0001
0000
0000
0000
0010
0000
0000
0000
0100
0000
0000
0000
,
1000
0001
0100
0010
1000
0001
0100
0001
0010
0100
1000
0001
,
0010
0001
1000
0001
0100
0010
1000
0001
0010
0100
0010
0001
1000
0010
0100
0001
,
1000
0100
1000
0001
1000
0010
0100
0001
,
1000
0000
0010
0000
1000
0000
0001
0000
0000
0100
0000
0000
0001
0000
0010
0000
0100
0000
1000
0000
0100
0000
0010
0000
,
0001
1000
0001
0010
0001
0100
0010
1000
,
0100
0000
0010
0000
0100
0000
1000
0000
0000
0010
0000
0000
0100
0000
0001
0000
0100
0000
0010
0000
1000
0000
0001
0000
,
1000
0100
0010
0001
0100
0001
1000
0001
,
0100
0000
0010
0000
0100
0000
0010
0000
0000
1000
0000
0000
0100
0000
0010
0000
0100
0000
1000
0000
0001
0000
0010
0000
,
0001
0100
0010
1000
0010
0100
0001
0010
0100
1000
0100
0010
,
0001
0100
0010
1000
0010
0100
0001
1000
0100
1000
0001
0100
,
0020
0000
0000
0000
,
0000
0000
0000
0000
,
0030
0000
0000
0000
;
