#TITLE:Princess Peach's Castle;
#SUBTITLE:;
#ARTIST:From Super Smash Bros Melee;
#TITLETRANSLIT:;
#SUBTITLETRANSLIT:;
#ARTISTTRANSLIT:;
#CREDIT:;
#BANNER:Castle-bn.bmp;
#BACKGROUND:Castle-bg.bmp;
#LYRICSPATH:;
#CDTITLE:!3rdMix.png;
#MUSIC:01 - Princess Peach's Castle.MP3;
#OFFSET:-0.420;
#SAMPLESTART:20.829;
#SAMPLELENGTH:24.000;
#SELECTABLE:YES;
#BPMS:0.000=107.110,80.000=102.410,83.000=102.550,92.000=102.570,102.000=110.150,108.000=107.170,112.000=107.170,115.000=107.170;
#STOPS:;
#BGCHANGES:6.000=-random-=1.000=0=0=1,
139.500=Castle-bg.bmp=1.000=1=0=1,
99999=-nosongbg-=1.000=0=0=0 // don't automatically add -songbackground-
;
// cache tags:
#FIRSTBEAT:6.500;
#LASTBEAT:143.000;
#SONGFILENAME:Songs/mike songs/Princess Peach's Castle/Castle.sm;
#HASMUSIC:1;
#HASBANNER:1;
#MUSICLENGTH:84.486;
// end cache tags

//---------------dance-single - ----------------
#NOTES:
     dance-single:
     :
     Easy:
     3:
     0.194,0.275,0.201,0.071,0.000,92.000,17.000,6.000,0.000,0.000:
0000
0000
0000
0000
,
0000
0000
0000
0000
0000
1001
0000
1001
,
0000
0000
0010
0100
,
0000
0000
0000
1001
,
1001
0010
0000
0000
,
0002
0000
0003
0000
,
1000
0001
0100
0010
,
1000
0001
0100
0001
,
1000
0101
0010
1100
,
0010
0101
1000
0110
,
1000
0001
0100
0110
,
1000
0001
1000
0101
,
0001
1000
0010
0101
,
0000
1000
0010
0101
,
0000
0100
0001
1100
,
0000
0000
0101
0000
,
1000
0010
0100
0001
,
1000
0001
0100
0001
,
1000
0010
1000
0001
,
0000
0000
0101
0000
,
1000
0000
0001
0000
,
0100
0000
0010
0000
,
0010
0000
0100
0000
,
0001
0000
0200
0000
,
0000
0000
0000
0000
,
0310
1000
0001
0000
,
0000
0000
0000
0000
,
1000
0010
1000
0010
,
0100
0001
1000
1010
,
0001
0101
1000
0001
,
0100
0010
1000
0001
,
0100
0010
0000
1000
,
0000
0001
0000
0100
,
0000
0020
0000
2030
,
0000
3002
0000
0203
,
0000
0000
0000
0300
;

//---------------dance-single - Copied from----------------
#NOTES:
     dance-single:
     Copied from:
     Beginner:
     2:
     0.098,0.148,0.047,0.012,0.000,53.000,4.000,1.000,0.000,0.000:
0000
0000
0000
0000
,
0000
0000
0000
0000
,
1001
0000
0000
0000
,
0000
0000
0000
0000
,
1001
0000
0000
0000
,
0001
0000
0000
0000
,
1000
0000
0100
0000
,
1000
0000
0100
0000
,
1000
0000
0010
0000
,
0010
0000
1000
0000
,
1000
0000
0100
0000
,
1000
0000
1000
0000
,
0001
0000
0010
0000
,
0000
1000
0010
0000
,
0000
0100
0001
0000
,
0000
0000
0000
0000
,
1000
0000
0100
0000
,
1000
0000
0100
0000
,
1000
0000
1000
0000
,
0000
0000
0000
0000
,
1000
0000
0001
0000
,
0000
0001
0000
0001
,
0000
0001
0000
0001
,
0000
0100
0000
0010
,
0000
1000
0000
0001
,
0100
0000
0010
0000
,
0000
0000
0000
0000
,
1000
0000
0010
0000
,
1000
0000
1001
0000
,
1001
0000
0001
0000
,
0010
0000
0001
0000
,
0000
0010
0000
0000
,
0000
0000
0000
0000
,
0000
0010
0000
1000
,
0000
0000
0001
0000
0000
0000
0100
0200
,
0000
0000
0000
0300
;

//---------------dance-single - Copied from----------------
#NOTES:
     dance-single:
     Copied from:
     Medium:
     4:
     0.279,0.306,0.178,0.142,0.000,138.000,15.000,12.000,0.000,0.000:
0000
0000
0000
0000
,
0000
0000
0000
0000
0000
1000
0001
1000
,
0001
0000
1010
0101
,
0000
0000
0000
0000
0000
0000
1000
0010
,
1000
0010
0100
0001
2000
0000
0000
0000
,
0002
0000
0000
0000
0000
3003
0000
0000
,
1000
0100
0001
0000
0001
0000
0100
0000
,
0010
0000
1000
0100
1000
0000
0110
0000
,
1001
0000
1000
0100
1000
0000
0010
0000
,
1100
0000
0010
0100
0010
0000
1000
0000
,
0110
0000
1000
0100
1000
0000
0100
0000
,
0110
0000
1000
0001
1000
0000
1000
0000
,
0101
0001
0100
0001
0100
0010
0100
0010
,
0000
0100
1000
0100
1000
0100
1000
0000
,
0000
0100
0001
0100
0001
0100
0001
0000
,
0000
1010
0000
0000
1001
0000
0000
0000
,
1000
0010
1000
0000
0100
0001
0100
0000
,
1000
0010
1000
0000
0100
0010
0100
0000
,
1000
0001
1000
0000
0001
0100
0001
0000
,
0000
1001
0000
0000
1001
0000
0000
0000
,
2000
0000
3002
0000
,
0203
0000
0320
0000
,
2030
0000
3200
0000
,
0310
0001
1000
0010
0200
0000
0000
0000
,
0000
0000
0000
0000
,
0310
1000
0010
1000
0010
0000
0000
0000
,
0000
0000
0000
0000
,
1000
0001
1000
0000
0001
0100
0001
0000
,
1000
0010
1000
0010
1000
0010
0100
0010
,
0001
0000
1000
0000
0001
1000
0001
0000
,
0100
0010
0100
0000
1001
0000
0110
0000
,
1001
0010
0100
0001
,
1000
0010
0100
0001
,
2000
0000
3020
0000
,
0230
0000
0301
0000
;

//---------------dance-single - Copied from----------------
#NOTES:
     dance-single:
     Copied from:
     Hard:
     8:
     0.391,0.452,0.296,0.130,0.438,195.000,25.000,11.000,0.000,0.000:
0000
0000
0000
0000
,
0000
0000
0000
0000
0000
0000
0000
0000
0000
0000
1000
0010
1000
0000
0001
0100
,
0001
0000
1000
0000
0001
1000
1010
0000
,
0101
0000
1010
0000
0001
1000
0100
0010
,
0001
0000
0100
0000
0010
0000
1000
0000
0001
1000
0000
1000
0000
1000
0010
0000
,
0100
0000
0000
0000
0101
0000
0000
1010
0000
0000
0101
0000
1001
0000
0000
0000
,
1000
0010
1100
0000
0010
0000
1000
0000
,
0001
0100
0010
1000
0001
1000
0100
0010
,
0101
0000
0000
0110
0000
0000
1001
0000
0000
0010
0000
0100
0000
0001
1000
0000
,
0010
0000
0000
0000
1000
0000
0000
0000
0010
0000
0000
0000
1000
0000
0000
0000
0000
0000
0001
0000
0000
0100
0000
0000
0000
0000
0000
0001
0000
0000
0000
0000
0000
1000
0000
0000
0010
0000
0000
1000
0000
0000
0000
0000
0000
0000
0000
0000
,
0110
0000
0000
1001
0000
0000
0101
0000
0000
1000
0000
0001
0000
0100
0010
0000
,
1000
0000
0000
0000
0010
0000
0000
0000
1000
0000
0000
0000
0010
0000
0000
0000
0000
0000
0100
0000
0000
0001
0000
0000
0000
0000
0000
1000
0000
0000
0000
0000
0000
0010
0000
0000
0100
0000
0000
0010
0000
0000
0000
0000
0000
0000
0000
0000
,
1000
0000
0001
0100
0010
1000
0000
0001
0000
1000
0000
0010
0000
0000
0100
0000
,
0000
0000
0001
1000
0010
0100
0000
0001
0000
1000
0000
0000
0010
0000
0000
0000
,
0000
0000
0001
1000
0010
0100
0000
0001
0000
1000
0000
0010
0000
0000
0100
0000
,
0000
0000
1001
0000
0000
0101
0000
0000
1010
0000
0000
0000
0000
0000
0000
0000
,
0001
1000
0100
0000
0000
0000
1001
0000
,
0001
1000
0010
0000
0000
0000
1001
0000
,
0100
0001
1000
0000
0000
0000
1001
0000
,
0000
0000
1001
0000
0000
0110
0000
0000
1100
0000
0000
0000
0001
0000
0000
0000
,
2000
0000
3002
0000
,
0203
0000
0320
0000
,
2030
0000
0000
0000
0000
0000
0000
0000
3002
0000
0000
0000
0000
0000
0000
1000
,
0013
0000
0000
0100
0000
0001
1000
0000
0010
0000
1000
0000
0010
0000
0100
0000
,
0001
0100
0002
0000
0000
0000
0000
0000
,
0003
0000
0000
0000
,
0000
0000
0000
0000
,
1000
0001
0000
0100
0000
0000
0010
0000
1000
0001
0000
0001
0100
0000
0000
0000
,
1000
0000
0000
0000
0010
0000
0000
0000
1000
0000
0000
0000
0010
0000
0000
0000
0100
0000
0000
0000
0001
0000
0000
0000
0100
0000
0000
0010
0000
0000
0000
0000
0000
0010
0000
0000
0100
0000
0000
0000
0000
0000
0000
0000
0000
0000
0000
0000
,
0001
1000
0000
0010
0000
0000
0100
0000
0001
1000
0000
1000
0001
0000
0000
0000
,
1000
0000
0000
0000
0100
0000
0000
0000
0010
0000
0000
0000
0001
0000
0000
0000
0100
0000
0000
0000
0010
0000
0000
0000
1000
0000
0000
0000
0000
0000
0000
0000
0000
0001
0000
0000
0100
0000
0000
0000
0000
0000
0000
0000
0000
0100
0000
0000
,
0002
0000
2003
0000
,
3020
0000
0230
0000
,
0301
1000
0000
0010
0000
0100
0001
0000
1000
0100
0000
0010
0000
0001
0100
0000
,
0010
1000
0000
0001
0000
0100
0010
0000
1100
0000
0000
0000
1001
0000
0000
0000
;

//---------------dance-single - Copied from Copied f----------------
#NOTES:
     dance-single:
     Copied from Copied f:
     Challenge:
     9:
     0.497,0.490,0.154,0.095,0.722,273.000,13.000,8.000,0.000,0.000:
0000
0000
0000
0000
,
0000
0000
0000
0000
0000
0000
0000
0000
0000
0000
0000
0000
0000
0000
0000
1000
0010
1000
0010
0000
0000
0100
0001
0100
,
0001
0000
0000
0000
1000
0000
0000
0000
0001
1000
0100
0010
0001
1000
0000
0000
,
0101
0000
0000
0000
1001
0000
0000
0000
0001
0000
1000
0010
1000
0000
0001
0000
,
0100
0010
1000
0000
0001
0000
1000
0100
0010
0001
0000
0100
0000
0010
1000
0000
,
0100
0000
0000
0000
0101
0000
0000
1010
0000
0000
0001
0100
0101
0000
0000
0000
,
1000
0010
1000
0010
0100
0001
0000
0000
1000
0000
0010
0000
0100
0000
0001
0000
,
0100
0010
0100
0000
0010
0000
1000
0001
1000
0000
0010
0000
0100
0001
0100
0000
,
0010
0000
0000
1000
0000
0000
0001
0000
0000
0010
0000
0100
0000
1000
0010
0000
,
0100
0000
0000
0000
0010
0000
0000
0000
1000
0000
0000
0000
0001
0000
0000
0000
0000
0000
1000
0000
0000
0100
0000
0000
0000
0000
0000
0010
0000
0000
0000
0000
0000
0001
0000
0000
1000
0000
0000
0001
0000
0000
0000
0000
0000
0000
0000
0000
,
0010
0000
0000
1000
0000
0000
0001
0000
0000
1000
0000
0001
0000
0100
0010
0000
,
1000
0000
0000
0000
0010
0000
0000
0000
1000
0000
0000
0000
0010
0000
0000
0000
0000
0000
0100
0000
0000
0001
0000
0000
0000
0000
0000
1000
0000
0000
0000
0000
0000
0010
0000
0000
0100
0000
0000
0010
0000
0000
0000
0000
0000
0000
0000
0000
,
1000
0000
0001
0100
0010
1000
0000
1001
0000
1000
0010
0100
0000
0001
0100
0010
,
0000
0000
1000
0100
0010
0001
0000
1001
0000
0001
0000
1000
0010
0000
0100
0000
,
0001
0000
1000
0100
1000
0100
0000
0010
0000
0001
1000
0100
0000
0010
0001
0100
,
0000
0000
1001
0000
0000
0101
0000
0000
1010
0000
0000
0000
0000
0000
0000
0000
,
0001
0100
0001
0100
0010
1000
0000
0001
0000
0100
0010
1000
0000
0001
0100
0001
,
0000
0000
1000
0010
0100
0001
0000
0100
0000
0010
0000
1000
0001
0000
0100
0000
,
0010
0000
1000
0100
0010
0001
0000
0100
0000
0010
1000
0001
0000
0100
0010
1000
,
0000
0000
1001
0000
0000
0110
0000
0000
1100
0000
0000
0000
0001
0000
0000
0000
,
1000
0000
0010
0000
1000
0000
0010
0000
0100
0001
0000
0001
0200
0000
0000
0000
,
0301
1000
0010
0100
0002
0000
0000
0000
,
1003
0000
0100
0000
0010
0000
0001
0000
1000
0010
0000
0010
0100
0000
0001
0000
,
1000
0010
0000
0100
0000
0001
1000
0000
0010
0000
1000
0000
0010
0000
1000
0000
,
0001
0000
0000
0100
0000
0000
0002
0000
0000
0000
0000
0000
1003
0000
0010
0000
0100
0000
0001
0000
0100
0000
0010
0000
,
1000
0001
0100
0010
2000
0000
0000
0000
,
0000
0000
3000
0000
,
0001
1000
0000
0010
0000
0000
0100
0000
0001
1000
0000
1000
0010
0000
0100
0000
,
0001
0000
0000
0000
0100
0000
0000
0000
0010
0000
0000
0000
1000
0000
0000
0000
0100
0000
0000
0000
0010
0000
0000
0000
0001
0000
0000
1000
0000
0000
0000
0000
0000
1000
0000
0000
0001
0000
0000
0000
0000
0000
0100
0000
0000
0000
0000
0000
,
0010
1000
0000
0001
0000
0000
0100
0000
0001
1000
0000
1000
0001
0000
0100
0000
,
0010
0000
0000
0000
1000
0000
0000
0000
0001
0000
0000
0000
0010
0000
0000
0000
0100
0000
0000
0000
1000
0000
0000
0000
0001
0000
0000
0000
0000
0000
0000
0000
0000
1000
0000
0000
0001
0000
0000
0000
0000
0000
0000
0000
0000
0001
0000
0000
,
2000
0000
3002
0000
,
0203
0000
0000
0000
0320
0000
0000
1030
,
0001
0100
0000
0010
0000
1000
0001
0000
0100
0010
0000
1000
0000
0001
0100
0000
,
0010
1000
0000
0001
0000
0100
0010
0000
1000
0000
0000
0000
0000
0000
0000
0000
;
