#TITLE:VE;
#SUBTITLE:;
#ARTIST:LOLIPO;
#TITLETRANSLIT:;
#SUBTITLETRANSLIT:;
#ARTISTTRANSLIT:;
#CREDIT:Rynker;
#BANNER:ve bn.png;
#BACKGROUND:ve bg.png;
#LYRICSPATH:;
#CDTITLE:;
#MUSIC:13 - LOLIPO - VE.ogg;
#OFFSET:0.044;
#SAMPLESTART:89.419;
#SAMPLELENGTH:12.000;
#SELECTABLE:YES;
#DISPLAYBPM:260.000;
#BPMS:0.000=260.000,116.500=500.000,117.500=260.000,300.000=260.400,308.000=260.000,376.000=260.400,380.000=260.000,643.250=130.000,643.750=260.000;
#STOPS:;
#BGCHANGES:;
// cache tags:
#FIRSTBEAT:24.000;
#LASTBEAT:730.750;
#SONGFILENAME:Songs/SPEEEDCOOOORE 2/VE - [Rynker]/ve.sm;
#HASMUSIC:1;
#HASBANNER:1;
#MUSICLENGTH:169.358;
// end cache tags

//---------------dance-single - Rynker----------------
#NOTES:
     dance-single:
     Rynker:
     Challenge:
     14:
     0.982,1.000,0.289,0.283,0.422,1058.000,49.000,48.000,18.000,0.000:

0000
0000
0000
0000
,
0000
0000
0000
0000
,
0000
0000
0000
0000
,
0000
0000
0000
0000
,
0000
0000
0000
0000
,
0000
0000
0000
0000
,
1000
0010
0100
0001
1000
0100
0010
0100
,
1000
0000
0001
0000
0100
0000
0010
0000
0100
0000
0001
0000
1000
0001
1000
0001
,
0100
0000
0010
0000
1000
0000
0001
0000
0010
0000
0100
0000
1000
0000
0001
0100
,
0010
0100
0001
1000
0100
0010
0001
0000
,
0001
0100
0010
1000
0100
0010
0100
1000
,
0010
0000
0100
0000
0001
0000
1000
0000
0100
0000
1000
0000
0001
0010
0001
0010
,
0100
0010
0001
1000
0010
0100
0001
1000
,
0001
0010
0001
0000
1000
0000
0001
0000
,
0100
0010
1000
0001
1000
0100
0010
0001
,
1000
0000
0001
0000
0100
0000
0010
0000
0100
0000
0001
0000
1000
0001
1000
0001
,
0010
0000
0100
0000
1000
0000
0001
0000
0100
0000
0010
0000
0100
0000
0001
1000
,
0001
0000
1000
0100
1000
0000
0100
0010
0100
0000
0000
0000
2000
0000
0000
0000
,
0001
3000
0200
0000
0001
0300
0200
0000
0001
0300
0001
0000
0020
0000
0000
0030
,
0100
0000
0100
0000
2000
0000
0001
3000
0100
0000
0001
0000
1000
0100
1000
0100
,
2000
0000
0000
0000
3001
0000
0010
0000
0002
0000
1000
0003
0020
0000
0000
0030
,
1000
0000
0100
0000
1000
0100
1000
0100
0010
0000
0001
0000
2000
0000
3020
0000
,
0130
0000
0001
0000
0100
0001
0100
0001
1000
0000
0001
0000
1000
0001
1000
0001
,
0010
0000
0200
0000
1000
0300
0004
0000
0010
0003
0100
0000
1000
0000
0000
0000
,
0001
0100
0001
1000
0001
0100
0010
0100
0001
1000
0010
0100
0001
1000
0001
1000
,
0002
0000
0000
0000
0000
0000
0000
0000
0000
0000
0000
0000
0000
0000
0000
0003
,
0000
0000
0000
0000
0000
0000
0000
MM00
,
0000
0000
0000
0000
0000
0000
MM00
0000
0000
0000
0000
0000
0000
M000
0000
0M00
,
0000
0000
M000
0000
0000
0M00
0000
M000
0000
0M00
0000
M000
0000
000M
0000
0000
,
0MM0
0000
0000
0000
0000
0MM0
0000
0000
,
1001
0000
1000
0100
0010
0000
0001
0010
,
0100
1000
0001
0100
0010
0000
0100
0001
,
1000
0000
0010
1000
0001
0000
0100
0001
,
1000
0100
0010
0100
1000
0000
0001
0010
,
0100
0000
1000
0100
0010
0000
0100
1000
,
0001
0100
0010
0100
0001
0000
1000
0000
,
0010
0000
0010
0000
,
0010
0100
0001
1000
0100
0010
0001
0000
,
1000
0000
0000
0000
1000
0000
0001
0100
,
0010
1000
0010
0000
0100
0000
0010
0000
,
0100
0000
0100
0000
,
0100
0000
0001
0010
,
0100
0000
1000
0100
0010
0000
0100
1000
,
0001
0100
0010
0000
0100
0000
0001
1000
,
0100
0000
0000
0000
1000
0100
0010
0100
,
1000
0001
0100
0010
0100
0000
0000
0000
,
0000
0000
0000
0000
,
1001
0000
0001
0010
0100
0000
1000
0100
,
0010
0001
1000
0000
1100
0000
0000
0000
,
1001
0000
0001
0100
0010
0000
0100
0001
,
1000
0010
0100
0000
0101
0000
0000
0000
,
1001
0000
1000
0100
0010
0000
0100
0010
,
0001
1000
0010
0000
0110
0000
0000
0000
,
0001
0000
0001
1000
0001
0000
0001
0010
,
0001
0000
0001
0100
0001
0000
0000
0000
,
1001
0000
0001
0100
0010
0000
0100
0001
,
1000
0100
0010
0000
0110
0000
0000
0000
,
1001
0000
1000
0100
0010
0000
0100
1000
,
0010
0100
0001
0000
1001
0000
0000
0000
,
1001
0000
0001
0100
0010
0000
0100
0001
,
0010
0100
1000
0000
1100
0000
0000
0000
,
0000
0100
0000
0010
0000
0001
1000
0001
,
1000
0001
0000
1000
0000
0000
0000
0000
,
0010
0000
0000
0000
,
0000
0000
0000
0000
,
0000
0000
0000
0000
,
0000
0000
0000
0000
,
0000
0000
0000
0000
,
0000
0000
0000
0000
,
0000
0000
0000
0000
,
0000
0000
0000
0000
,
0000
0000
0000
0000
,
0000
0000
0000
0000
,
0000
0000
0000
0000
,
0000
0000
0000
0000
,
0000
0000
0000
0000
,
0000
0000
0000
0000
,
0020
0000
0000
0000
,
0000
0000
0000
0030
M000
0000
000M
0000
,
1000
0100
0010
0001
2000
0000
3001
0100
,
0010
0100
0001
1000
0002
0000
1003
0100
,
0010
0100
1000
0001
0200
0000
0310
1000
,
0001
0010
0100
1000
0100
0010
0001
1000
,
0010
0100
0001
1000
0200
0000
0310
0100
,
1000
0001
0100
0010
0200
0000
0301
1000
,
0100
0010
0100
1000
0010
0100
0001
1000
,
0001
0100
0010
1000
0001
0100
0010
1000
,
0001
0000
0001
0100
0001
0000
0000
0000
,
1000
0010
0100
0001
2000
0000
3100
1000
,
0100
0000
0100
1000
0100
0000
0000
0000
,
1000
0100
0010
0001
1000
0010
0100
0001
,
0010
0000
0010
0001
0010
0000
0000
0000
,
0001
0100
0010
1000
0200
0000
0310
0001
,
0200
0000
0300
0000
,
0002
0000
0000
0000
0000
0000
0000
0003
,
0001
0100
0010
0000
1010
0000
0000
0000
,
1000
0000
0000
0010
0100
0000
0000
0000
,
1001
0000
0000
0000
0001
0000
0010
0100
4000
0000
0000
0000
3001
0000
0000
0000
,
0100
0100
0000
0001
0001
1000
0100
0000
,
0010
0000
0001
1000
0100
0000
0000
0000
1000
0000
0004
0000
0103
0000
0010
0000
,
1000
0001
1000
0001
0100
0000
0000
0000
0002
0000
1003
0000
0020
0000
0130
0000
,
0002
0000
1003
0000
0002
0000
1003
0100
1000
0100
1000
0000
0001
0000
0000
0000
,
1000
0001
0100
0010
0100
0000
0001
1000
,
0100
0010
0100
1000
0002
0013
0100
1000
,
0001
1000
0001
1000
0001
0000
0000
0000
1001
0000
0000
0000
0000
0000
0000
0000
,
1000
0100
0010
0001
2000
3001
0100
0000
,
0001
0010
0100
1000
0001
0000
1000
0000
,
0001
0000
0100
0000
0010
0000
1000
0000
0100
0000
0010
0000
0100
0000
1000
0010
,
1000
0001
0100
0001
1000
0000
1001
0000
,
0001
0010
0100
0000
1000
0010
0100
0001
,
0010
0000
0010
0000
0010
0100
1000
0000
,
0001
0100
0001
0100
0001
0000
0100
0000
0001
0000
0000
0000
1000
0000
0000
0000
,
0020
0000
0000
0030
,
1000
0100
0010
0100
1000
0001
0100
0010
,
0100
0000
0001
0000
1000
0000
0100
0000
0010
0000
0100
0000
1000
0001
1000
0001
,
0010
0100
1000
0010
0100
0001
0100
0001
,
1000
0100
0010
0001
0100
0000
0100
0000
,
0110
0000
0010
1000
0001
0010
0100
1000
,
0001
0100
0001
0010
0100
1000
0001
0100
,
0010
1000
0010
0000
0100
0000
0001
0000
0010
0001
0010
0000
0100
0000
1000
0000
,
0010
1000
0010
0000
0100
0010
0100
0000
0010
0100
0010
0000
0200
0300
0002
0003
,
1000
0000
0001
0000
0010
0000
0100
0000
1000
0000
0001
0000
0100
0001
0100
0010
,
1000
0001
1000
0001
1000
0000
0001
0000
0100
0000
0001
0000
0010
0000
0100
0000
,
1000
0100
1000
0001
0010
0001
0010
0001
1000
0000
0001
0000
0100
0001
0100
0001
,
1000
0010
0100
0001
1000
0100
0010
0000
,
0001
1000
0010
0000
0100
0000
0001
1000
0010
0000
0100
0000
0001
0000
0010
0000
,
0100
0000
4000
3000
0001
0000
0400
0300
0001
0000
0040
0030
0001
0000
4000
3000
,
0001
0100
0001
1000
0010
0100
0001
1000
0001
1000
0001
0100
0010
1000
0002
0000
,
0000
0000
0000
0000
0000
0000
0000
0000
0000
0000
0003
0000
0000
0000
0000
0001
0000
0000
0000
0000
0000
0000
0000
0000
0000
0000
0000
0000
0000
0000
0001
0000
0000
0000
0000
0000
0000
0000
0000
0000
0000
0000
0000
0000
0000
0000
0000
0000
,
1100
0110
0011
1001
,
0101
0000
0110
0000
0101
0000
1001
1000
,
1100
0110
0011
1001
,
0001
0100
0010
0100
0001
0000
1000
0000
0100
0000
0000
0000
1000
0000
0000
0000
,
1100
0110
0011
1001
,
0101
0110
1010
1001
,
0001
0001
1000
0000
0001
0001
1000
0001
,
1000
0200
0310
0010
,
0001
0100
0010
0100
0001
1000
0010
0100
,
0001
1000
0100
0010
0100
1000
0001
0010
,
0010
0001
1000
0001
0100
0010
0100
0001
,
1000
0001
1000
0001
0100
0000
0001
0000
1000
0000
0100
0000
0020
0000
0000
0000
,
0031
1000
0100
0010
0100
1000
0001
1000
,
0010
1000
0001
0100
0010
1000
0010
1000
,
1010
0000
0011
0000
,
1001
0110
1001
0000
,
1000
0100
0010
0001
2000
0000
3001
0100
,
0010
0100
0001
0100
0002
0000
1003
0100
,
0010
0100
1000
0001
0200
0000
0310
0100
,
0001
1000
0100
0010
0100
0010
0100
1000
,
0001
0100
0010
0100
0001
1000
0100
0010
,
0100
0000
1000
0000
0001
0000
0010
0000
0100
0000
1000
0000
0001
0100
0001
0100
,
0010
0100
0001
1000
0100
0010
0100
1000
,
0001
0100
0010
0100
0002
0000
0003
0000
,
1000
0100
1000
0000
0001
0100
0001
0000
1000
0010
1000
0001
0100
0000
0000
0000
,
0001
1000
0100
1000
0001
0000
1000
0001
0010
0001
1000
0000
0001
0000
0100
0001
,
1000
0000
0001
1000
0001
0100
0010
0100
0010
0000
1000
0001
0100
0001
0100
0010
,
1000
0000
0001
0010
0100
0000
1000
0100
0010
0000
0001
1000
0100
0000
1000
0100
,
1000
0100
0010
0001
1000
0000
0001
0000
0100
0001
0100
0010
1000
0000
0001
0000
,
0100
0001
1000
0001
0100
0001
1000
0001
1000
0010
0100
0010
1000
0001
1000
0001
,
0100
0010
0100
0001
4000
0004
0000
0000
0000
0000
0000
0000
0000
0000
0000
0000
,
3003
0000
0000
0000
,
0000
0000
0000
0000
,
0000
0000
0000
0000
0000
0000
0001
1000
,
0100
1100
0000
1000
,
0000
0001
0100
0000
0000
0000
0001
0010
,
0100
1000
0001
0100
0010
0100
0001
1000
,
0001
0000
0010
0000
0100
0000
1000
0000
0001
0100
0001
0100
0010
0000
0100
0000
,
0010
0000
1000
0000
0100
0000
0010
0000
0100
0000
1000
0001
1000
0000
0001
0000
,
0100
0010
0100
0001
1000
0000
0001
0100
,
0001
0010
0100
1000
0010
0100
0001
1000
,
0100
0000
0010
0000
0100
0000
1000
0000
0001
0100
0001
1000
0100
0000
1000
0000
,
0001
0000
0010
0000
0100
0000
1000
0000
0001
0000
0100
0000
0010
0000
0100
0010
,
0100
0000
0010
0100
0010
0000
1000
0000
0002
0000
0003
0000
1000
0000
0100
0000
,
2000
3010
2000
3100
0020
0030
0001
0100
,
0002
0000
1003
0000
0001
0000
0010
0001
0010
0001
1000
0000
0020
0000
0030
0000
,
1000
0000
0100
0000
0020
0000
0031
0000
2000
3010
1000
0001
0010
0000
0001
0000
,
0010
0001
0010
0001
1000
0000
0100
0000
4000
3000
0040
0030
0100
0000
0001
0000
,
1000
0001
1000
0001
0100
0000
0001
0000
1000
0001
1000
0001
0020
0000
0031
0000
,
0020
0000
0430
0000
1300
0000
0001
0000
0000
0000
0000
0000
1000
0001
0010
0001
,
1000
0100
0010
0001
1000
0001
1000
0100
1000
0001
0010
0001
4000
0004
0000
0000
,
0000
0000
0000
0000
,
0000
0000
0000
0000
,
0000
0000
0000
0000
0000
0000
0000
0000
0000
0000
0000
3003
0000
0000
0000
0000
;
