#TITLE:NITRO PANIC!;
#SUBTITLE:;
#ARTIST:Kommisar;
#TITLETRANSLIT:;
#SUBTITLETRANSLIT:;
#ARTISTTRANSLIT:;
#CREDIT:Roar176;
#BANNER:hccustom-bn.png;
#BACKGROUND:motivator7017891.jpg;
#LYRICSPATH:;
#CDTITLE:!roar176title.png;
#MUSIC:nitropanic.MP3;
#OFFSET:-0.080;
#SAMPLESTART:31.794;
#SAMPLELENGTH:12.000;
#SELECTABLE:YES;
#BPMS:0.000=140.000,48.000=280.000,112.000=140.000,148.000=280.000,276.000=140.000,348.000=280.000,476.000=5.139,477.000=140.000;
#STOPS:;
#BGCHANGES:;
// cache tags:
#FIRSTBEAT:0.000;
#LASTBEAT:481.000;
#SONGFILENAME:Songs/Hard Songs Megapack Volume 9/Nitro Panic/rainbow_hyperquasar.sm;
#HASMUSIC:1;
#HASBANNER:1;
#MUSICLENGTH:148.976;
// end cache tags

//---------------dance-single - ----------------
#NOTES:
     dance-single:
     :
     Hard:
     14:
     1.000,1.000,1.000,0.490,0.836,1108.000,512.000,73.000,55.000,29.000:
1000
0100
1000
0100
0001
0100
1000
0100
1000
0100
1000
0100
0001
1000
0100
0010
,
1000
0100
1000
0100
0001
0100
1000
0100
1000
0100
1000
0100
0001
1000
0100
0010
,
1000
0100
1000
0100
0001
0100
1000
0100
1000
0100
1000
0100
0001
1000
0100
0010
,
1000
0100
1000
0100
0001
0100
1000
0100
1000
0100
1000
0100
0001
1000
0100
0010
,
1000
0100
1000
0100
0001
0100
1000
0100
1000
0100
1000
0100
0001
1000
0100
0010
,
1000
0100
1000
0100
0001
0100
1000
0100
1000
0100
1000
0100
0001
1000
0100
0010
,
1000
0100
1000
0100
0001
0100
1000
0100
1000
0100
1000
0100
0001
1000
0100
0010
,
1000
0100
1000
0100
0001
0100
1000
0100
1000
0100
1000
0100
0001
1000
0100
0010
,
1002
0003
0100
0000
1002
0003
0100
0000
2001
3000
0120
0030
1000
0000
0120
0030
1000
0000
0102
0003
1000
0000
0120
0030
0001
0000
1020
0030
0102
0003
0010
0000
,
1002
0003
0100
0000
1002
0003
0100
0000
2001
3000
0120
0030
1000
0000
0102
0003
1000
0000
0120
0030
1000
0000
0120
0030
0021
0030
1000
0000
0100
0000
0010
0000
,
1002
0003
0100
0000
1002
0003
0100
0000
2001
3000
0120
0030
1000
0000
0120
0030
1000
0000
0102
0003
1000
0000
0120
0030
0001
0000
1020
0030
0102
0003
0010
0000
,
1002
0003
0100
0000
1002
0003
0100
0000
2001
3000
0120
0030
1000
0000
0102
0003
1000
0000
0120
0030
1000
0000
0120
0030
0021
0030
1000
0000
0100
0000
0010
0000
,
0101
1000
0110
1000
0101
1000
0110
1000
,
0101
1000
0110
1000
0101
1000
0110
0001
,
0110
1000
0011
1000
0110
1000
0011
1000
,
0110
1000
0011
1000
0110
1000
0110
0001
,
1010
0100
0011
0100
1010
0100
0011
0100
,
1010
0100
0011
0100
0011
1000
0110
0001
,
0110
1000
0101
1000
0110
1000
0101
1000
,
0110
1000
0101
1000
0110
1000
0101
0010
,
1001
0100
0011
0100
1001
0100
0011
0100
,
1001
0100
0011
0100
1001
0100
1001
0010
,
1100
0001
1010
0001
1100
0001
1010
0001
,
1100
0001
1010
0001
1100
0001
0110
1000
,
0101
0010
1001
0010
0101
0010
1001
0010
,
0101
0010
1001
0010
0101
1000
0110
0001
,
1010
0100
0011
0100
1010
0100
0011
0100
,
1010
0100
0011
0100
1010
0100
1010
0001
,
2100
0000
0000
0100
0000
0000
0100
0000
3210
0000
0000
0010
0000
0000
0010
0000
,
1320
0000
0000
1000
0000
0000
1000
0000
1230
0000
0000
1000
0000
0000
1000
0000
,
0312
0000
0000
0010
0000
0000
0010
0000
0123
0000
0000
0100
0000
0000
0100
0000
,
1230
0000
0000
1000
0000
0000
1000
0000
2301
0000
0000
0001
0000
0000
0001
0000
,
3110
1000
0100
1010
0100
1000
0110
1000
0110
1000
0010
1100
0010
1000
0110
1000
,
0011
0100
0010
1100
0010
0100
1010
0100
0110
1000
0010
1100
0010
1000
0110
1000
,
0101
0010
0001
0110
0001
0010
0101
1000
0011
0100
0010
0101
0010
0100
0011
0100
,
0011
1000
0010
1001
0010
1000
0011
1000
0101
1000
0100
1001
0100
1000
0101
1000
,
0110
0000
0010
0000
0110
0000
0010
0000
0110
0001
0110
1000
0110
0001
0110
1000
,
0101
1000
0110
1000
0101
1000
0110
1000
,
0101
1000
0110
1000
0101
1000
0110
0001
,
0110
1000
0011
1000
0110
1000
0011
1000
,
0110
1000
0011
1000
0110
1000
0110
0001
,
1010
0100
0011
0100
1010
0100
0011
0100
,
1010
0100
0011
0100
0011
1000
0110
0001
,
0110
1000
0101
1000
0110
1000
0101
1000
,
0110
1000
0101
1000
0110
1000
0101
0010
,
1001
0100
0011
0100
1001
0100
0011
0100
,
1001
0100
0011
0100
1001
0100
1001
0010
,
1100
0001
1010
0001
1100
0001
1010
0001
,
1100
0001
1010
0001
1100
0001
0110
1000
,
0101
0010
1001
0010
0101
0010
1001
0010
,
0101
0010
1001
0010
0101
1000
0110
0001
,
1010
0100
0011
0100
1010
0100
0011
0100
,
1010
0100
0011
0100
1010
0100
1010
0001
,
0110
0001
1100
0001
0110
0001
1100
0001
,
0110
0001
1100
0001
0110
0001
1010
0001
,
0011
0100
1010
0100
0011
0100
1010
0100
,
0011
1000
0110
1000
0011
1000
0110
1000
,
0011
1000
0101
1000
0011
1000
0101
1000
,
0011
1000
0110
1000
0011
1000
0110
1000
,
0011
1000
1100
0001
1010
1000
0101
1000
,
0011
1000
1100
0001
1010
1000
0101
1000
,
0011
1000
0110
1000
0011
1000
0110
1000
,
0011
1000
0110
1000
0101
1000
0110
1000
,
0101
0010
1100
0010
0101
0010
1100
0010
,
1100
0001
0110
0001
1100
0001
0110
0001
,
1100
0001
1010
0001
1100
0001
1010
0001
,
1100
0001
0110
0001
1100
0001
0110
0001
,
1100
0001
0011
1000
0101
0001
1010
0001
,
1100
0001
0011
1000
0101
0001
1010
0000
,
1200
1000
0001
1000
1000
1000
0312
1000
,
0123
0100
0001
0100
2130
0100
0001
0100
,
3012
0000
0023
0000
2030
0000
3210
0000
0000
2300
0000
0000
,
3011
1000
1000
0001
1000
1000
0101
1000
0011
1000
1000
0001
1000
1000
0011
1000
,
0021
0001
1000
0001
0001
0001
2130
0001
,
3210
0010
1000
0010
0312
0010
1000
0010
,
2103
0000
3200
0000
0302
0000
0123
0000
0000
0032
0000
0000
,
1103
0001
0001
1000
0001
0001
1000
0001
1000
0001
0001
1000
0001
0001
1000
0001
,
0220
0000
0000
0000
0000
0000
0000
0000
0000
0000
0000
0000
0000
0000
0000
0000
0000
0000
0000
0000
0000
0000
0000
0000
0000
0000
0000
0000
0000
0000
0000
0000
0000
0000
0000
0000
0000
0000
0000
0000
0000
0000
0000
0000
0000
0000
0000
0000
0000
0000
0000
0000
0000
0000
0000
0000
0000
0000
0000
0000
0000
0000
0000
0000
0000
0000
0000
0000
0000
0000
0000
0000
0000
0000
0000
0000
0000
0000
0000
0000
0000
0000
0000
0000
0000
0000
0000
0000
0000
0000
0000
0000
0000
0000
0000
0000
0000
0000
0000
0000
0000
0000
0000
0000
0000
0000
0000
0000
0000
0000
0000
0000
0000
0000
0000
0000
0000
0000
0000
0000
0000
0000
0000
0000
0000
0000
0000
0000
0000
0000
0000
0000
0000
0000
0000
0000
0000
0000
0000
0000
0000
0000
0000
0000
0000
0000
0000
0000
0000
0000
0000
0000
0000
0000
0000
0000
0000
0000
0000
0000
0000
0000
0000
0000
0000
0000
0000
0000
0000
0000
0000
0000
0000
0000
0000
0000
0000
0000
0000
0000
0000
0000
0000
0000
0000
0000
0000
0000
0000
0000
0000
0330
,
2100
0000
0000
0100
0000
0000
0100
0000
3210
0000
0000
0010
0000
0000
0010
0000
,
1320
0000
0000
1000
0000
0000
1000
0000
1230
0000
0000
1000
0000
0000
1000
0000
,
0312
0000
0000
0010
0000
0000
0010
0000
0123
0000
0000
0100
0000
0000
0100
0000
,
1230
0000
0000
1000
0000
0000
1000
0000
2301
0000
0000
0001
0000
0000
0001
0000
,
3110
1000
0100
1010
0100
1000
0110
1000
0110
1000
0010
1100
0010
1000
0110
1000
,
0011
0100
0010
1100
0010
0100
1010
0100
0110
1000
0010
1100
0010
1000
0110
1000
,
0101
0010
0001
0110
0001
0010
0101
1000
0011
0100
0010
0101
0010
0100
0011
0100
,
0011
1000
0010
1001
0010
1000
0011
1000
0101
1000
0100
1001
0100
1000
0101
1000
,
0110
0000
0010
0000
0110
0000
0010
0000
0110
0001
0110
1000
0110
0001
0110
1000
,
0101
1000
0110
1000
0101
1000
0110
1000
,
0101
1000
0110
1000
0101
1000
0110
0001
,
0110
1000
0011
1000
0110
1000
0011
1000
,
0110
1000
0011
1000
0110
1000
0110
0001
,
1010
0100
0011
0100
1010
0100
0011
0100
,
1010
0100
0011
0100
0011
1000
0110
0001
,
0110
1000
0101
1000
0110
1000
0101
1000
,
0110
1000
0101
1000
0110
1000
0101
0010
,
1001
0100
0011
0100
1001
0100
0011
0100
,
1001
0100
0011
0100
1001
0100
1001
0010
,
1100
0001
1010
0001
1100
0001
1010
0001
,
1100
0001
1010
0001
1100
0001
0110
1000
,
0101
0010
1001
0010
0101
0010
1001
0010
,
0101
0010
1001
0010
0101
1000
0110
0001
,
1010
0100
0011
0100
1010
0100
0011
0100
,
1010
0100
0011
0100
1010
0100
1010
0001
,
0101
1010
0110
1001
0101
1010
0110
1001
,
0101
1010
0110
1001
0101
1010
0110
1001
,
0110
1100
0011
1010
0110
1001
0011
1010
,
0110
1100
0011
1010
0110
1001
0110
0101
,
1010
0101
0011
0110
1010
1100
0011
0110
,
1010
0101
0011
1100
0011
1100
0110
0011
,
0110
1001
0101
1010
0110
1100
0101
1010
,
0110
1001
0101
1010
0110
1100
0101
0010
,
1100
0011
1100
0011
1100
0011
1100
0011
,
1100
0011
1100
0011
1100
0011
1100
0011
,
1010
0101
1010
0101
1010
0101
1010
0101
,
1010
0101
1010
0101
1010
0101
1010
0101
,
0110
1001
0110
1001
0110
1001
0110
1001
,
0110
1001
0110
1001
0110
1001
0110
1001
,
1010
0101
1010
0101
1010
0101
1010
0101
,
1010
0101
1010
0101
1010
0101
1010
0101
,
0020
000M
0M00
M000
000M
0M00
M000
000M
0M00
M000
000M
0M00
M000
000M
0M00
M000
000M
0M00
M000
000M
0000
0M00
M000
000M
0M00
M000
000M
0M00
M000
000M
0M00
M000
000M
0M00
M000
000M
0M00
M000
000M
0M00
M000
000M
0M00
M000
000M
0M00
M000
000M
2M32
0000
0000
0000
0000
0000
0000
0000
0000
0000
0000
0000
0000
0000
0000
0000
0000
0000
0000
0000
0000
0000
0000
0000
00M0
0000
0000
0000
0000
0000
0000
0000
0000
0000
0000
0000
0000
0000
0000
0000
0000
0000
0000
0000
0000
0000
0000
0000
0M00
0000
0000
0000
0000
0000
0000
0000
0000
0000
0000
0000
0000
0000
0000
0000
0000
0000
0000
0000
0000
0000
0000
0000
00M0
0000
0000
0000
0000
0000
0000
0000
0000
0000
0000
0000
0000
0000
0000
0000
0000
0000
0000
0000
0000
0000
0000
0000
0M00
0000
0000
0000
0000
0000
0000
0000
0000
0000
0000
0000
0000
0000
0000
0000
0000
0000
0000
0000
0000
0000
0000
0000
00M0
0000
0000
0000
0000
0000
0000
0000
0000
0000
0000
0000
0000
0000
0000
0000
0000
0000
0000
0000
0000
0000
0000
0000
,
0M00
00M0
3M03
0000
0000
0000
0000
0000
;

//---------------dance-single - ----------------
#NOTES:
     dance-single:
     :
     Challenge:
     20:
     1.000,1.000,1.000,0.342,1.000,1466.000,541.000,51.000,46.000,47.000:
1000
1000
1000
1000
0001
1000
1000
1000
1000
1000
1000
1000
0001
1000
0100
0010
,
1000
1000
1000
1000
0001
1000
1000
1000
1000
1000
1000
1000
0001
1000
0100
0010
,
1000
1000
1000
1000
0001
1000
1000
1000
1000
1000
1000
1000
0001
1000
0100
0010
,
1000
1000
1000
1000
0001
1000
1000
1000
1000
1000
1000
1000
0001
1000
0100
0010
,
1001
1000
1000
1000
0011
1000
1000
1000
1001
1000
1000
1000
0011
1000
0100
0010
,
1001
1000
1000
1000
0011
1000
1000
1000
1001
1000
1000
1000
0011
1000
0100
0010
,
1001
1000
1000
1000
0011
1000
1000
1000
1001
1000
1000
1000
0011
1000
0100
0010
,
1001
1000
1000
1000
0011
1000
1000
1000
1001
1000
1000
1000
0011
1000
0100
0010
,
1201
0300
1000
0000
1200
0300
1000
0000
0112
0003
1020
0030
1000
0000
1200
0300
1001
0000
1020
0030
1000
0000
1200
0300
0011
0000
1002
0003
0102
0003
0010
0000
,
1201
0300
1000
0000
1200
0300
1000
0000
0121
0030
1200
0300
1000
0000
1020
0030
1001
0000
1200
0300
1000
0000
1200
0300
0211
0300
1000
0000
0100
0000
0010
0000
,
1201
0300
1000
0000
1200
0300
1000
0000
0112
0003
1020
0030
1000
0000
1200
0300
1001
0000
1020
0030
1000
0000
1200
0300
0011
0000
1002
0003
0102
0003
0010
0000
,
1201
0300
1000
0000
1200
0300
1000
0000
0121
0030
1200
0300
1000
0000
1020
0030
1101
0000
1200
0300
1010
0000
1200
0300
1211
0300
1000
0000
0101
0000
0010
0000
,
0101
1000
0110
1000
0101
1000
0110
1000
,
0101
1000
0110
1000
0101
1000
0110
0001
,
0110
1000
0011
1000
0110
1000
0011
1000
,
0110
1000
0011
1000
0110
1000
0110
0001
,
1010
0100
0011
0100
1010
0100
0011
0100
,
1010
0100
0011
0100
0011
1000
0110
0001
,
0110
1000
0101
1000
0110
1000
0101
1000
,
0110
1000
0101
1000
0110
1000
0101
0010
,
1001
0100
0011
0100
1001
0100
0011
0100
,
1001
0100
0011
0100
1001
0100
1001
0010
,
1100
0001
1010
0001
1100
0001
1010
0001
,
1100
0001
1010
0001
1100
0001
0110
1000
,
0101
0010
1001
0010
0101
0010
1001
0010
,
0101
0010
1001
0010
0101
1000
0110
0001
,
1010
0100
0011
0100
1010
0100
0011
0100
,
1010
0100
0011
0100
1010
0100
1010
0001
,
2110
0000
0000
0100
0000
0000
0100
0001
3210
0001
0000
0011
0000
0000
0010
0000
,
1321
0000
0000
1000
0000
0000
1000
0001
1230
0001
0000
1001
0000
0000
1000
0000
,
1312
0000
0000
0010
0000
0000
0010
1000
0123
1000
0000
1100
0000
0000
0100
0000
,
1231
0000
0000
1000
0000
0000
1000
0010
2301
0010
0000
0011
0000
0000
0001
0000
,
3111
1000
0100
1010
0100
1000
0110
1001
0110
1001
0010
1101
0010
1000
0110
1000
,
1011
0100
0010
1100
0010
0100
1010
0101
0110
1001
0010
1101
0010
1000
0110
1000
,
1101
0010
0001
0110
0001
0010
0101
1010
0011
1100
0010
1101
0010
0100
0011
0100
,
1011
1000
0010
1001
0010
1000
0011
1010
0101
1010
0100
1011
0100
1000
0101
1000
,
0110
0000
0010
0000
0110
0000
0010
0000
0110
0010
0110
0010
0110
0010
0110
0010
,
0101
1000
0110
1000
0101
1000
0110
1000
,
0101
1000
0110
1000
0101
1000
0110
0001
,
0110
1000
0011
1000
0110
1000
0011
1000
,
0110
1000
0011
1000
0110
1000
0110
0001
,
1010
0100
0011
0100
1010
0100
0011
0100
,
1010
0100
0011
0100
0011
1000
0110
0001
,
0110
1000
0101
1000
0110
1000
0101
1000
,
0110
1000
0101
1000
0110
1000
0101
0010
,
1001
0100
0011
0100
1001
0100
0011
0100
,
1001
0100
0011
0100
1001
0100
1001
0010
,
1100
0001
1010
0001
1100
0001
1010
0001
,
1100
0001
1010
0001
1100
0001
0110
1000
,
0101
0010
1001
0010
0101
0010
1001
0010
,
0101
0010
1001
0010
0101
1000
0110
0001
,
1010
0100
0011
0100
1010
0100
0011
0100
,
1010
0100
0011
0100
1010
0100
1010
0001
,
0110
0001
1100
0001
0110
0001
1100
0001
,
0110
0001
1100
0001
0110
0001
1010
0001
,
0011
0100
1010
0100
0011
0100
1010
0100
,
0011
1000
0110
1000
0011
1000
0110
1000
,
0011
1000
0101
1000
0011
1000
0101
1000
,
0011
1000
0110
1000
0011
1000
0110
1000
,
0011
1000
1100
0001
1010
1000
0101
1000
,
0011
1000
1100
0001
1010
1000
0101
1000
,
0011
1000
0110
1000
0011
1000
0110
1000
,
0011
1000
0110
1000
0101
1000
0110
1000
,
0101
0010
1100
0010
0101
0010
1100
0010
,
1100
0001
0110
0001
1100
0001
0110
0001
,
1100
0001
1010
0001
1100
0001
1010
0001
,
1100
0001
0110
0001
1100
0001
0110
0001
,
1100
0001
0011
1000
0101
0001
1010
0001
,
1100
0001
0011
1000
0101
0001
1010
0001
,
1000
0100
1000
0100
1000
0100
1000
0100
1000
0100
1000
0100
1000
0100
1000
0100
1000
0100
1000
0100
1000
0100
1000
0100
1000
0100
1000
0100
1000
0100
1000
0100
1000
0100
1000
0100
0001
0010
0001
0010
0001
0010
0001
0010
0001
0010
0001
0010
,
0001
0100
0010
0100
0010
0100
0010
0100
0010
0100
0010
0100
0010
0100
0010
0100
0010
0100
0010
0100
0010
0100
0010
0100
1000
0100
1000
0100
1000
0100
1000
0100
1000
0100
1000
0100
1000
0100
1000
0100
1000
0100
1000
0100
1000
0100
1000
0100
,
0001
0100
0001
0100
0001
0100
0001
0100
0001
0100
0010
0100
0010
0100
0010
0100
0010
0100
1000
0010
1000
0010
1000
0010
0100
0010
0100
0010
0100
0010
0100
0010
0100
0010
0100
0010
0100
1000
0100
1000
0100
1000
0100
1000
0100
1000
0100
1000
,
0001
1000
1000
0001
1000
1000
0001
1000
0001
1000
1000
0001
1000
1000
0001
1000
,
0001
0010
0001
0010
0001
0010
0001
0010
0001
0010
0001
0010
0001
0010
0001
0010
0001
0010
0001
0010
0001
0010
0001
0010
0001
0010
0001
0010
0001
0010
0001
0010
0001
0010
0001
0010
1000
0100
1000
0100
1000
0100
1000
0100
1000
0100
1000
0100
,
1000
0010
0100
0010
0100
0010
0100
0010
0100
0010
0100
0010
0100
0010
0100
0010
0100
0010
0100
0010
0100
0010
0100
0010
0001
0010
0001
0010
0001
0010
0001
0010
0001
0010
0001
0010
0001
0010
0001
0010
0001
0010
0001
0010
0001
0010
0001
0010
,
1000
0010
1000
0010
1000
0010
1000
0010
1000
0010
0100
0010
0100
0010
0100
0010
0100
0010
0001
0100
0001
0100
0001
0100
0010
0100
0010
0100
0010
0100
0010
0100
0010
0100
0010
0100
0010
0001
0010
0001
0010
0001
0010
0001
0010
0001
0010
0001
,
1000
0001
0001
1000
0001
0001
1000
0001
1000
0001
0001
1000
0001
0001
1000
0001
,
1000
0001
1000
0001
1000
0001
1000
0001
1000
0001
1000
0001
1000
0001
1000
0001
1000
0001
1000
0001
1000
0001
1000
0001
1000
0001
1000
0001
1000
0001
1000
0001
1000
0001
1000
0001
1000
0001
1000
0001
1000
0001
1000
0001
1000
0001
1000
0001
,
2110
0000
0000
0100
0000
0000
0100
0001
3210
0001
0000
0011
0000
0000
0010
0000
,
1321
0000
0000
1000
0000
0000
1000
0001
1230
0001
0000
1001
0000
0000
1000
0000
,
1312
0000
0000
0010
0000
0000
0010
1000
0123
1000
0000
1100
0000
0000
0100
0000
,
1231
0000
0000
1000
0000
0000
1000
0010
2301
0010
0000
0011
0000
0000
0001
0000
,
3111
1000
0100
1010
0100
1000
0110
1001
0110
1001
0010
1100
0010
1000
0110
1000
,
1011
0100
0010
1100
0010
0100
1010
0101
0110
1001
0010
1100
0010
1000
0110
1000
,
1101
0010
0001
0110
0001
0010
0101
1010
0011
1100
0010
0101
0010
0100
0011
0100
,
1011
1000
0010
1001
0010
1000
0011
1010
0101
1010
0100
1001
0100
1000
0101
1000
,
0110
0000
0010
0000
0110
0000
0010
0000
0110
0010
0110
0010
0110
0010
0110
0010
,
0101
1000
0110
1000
0101
1000
0110
1000
,
0101
1000
0110
1000
0101
1000
0110
0001
,
0110
1000
0011
1000
0110
1000
0011
1000
,
0110
1000
0011
1000
0110
1000
0110
0001
,
1010
0100
0011
0100
1010
0100
0011
0100
,
1010
0100
0011
0100
0011
1000
0110
0001
,
0110
1000
0101
1000
0110
1000
0101
1000
,
0110
1000
0101
1000
0110
1000
0101
0010
,
1001
0100
0011
0100
1001
0100
0011
0100
,
1001
0100
0011
0100
1001
0100
1001
0010
,
1100
0001
1010
0001
1100
0001
1010
0001
,
1100
0001
1010
0001
1100
0001
0110
1000
,
0101
0010
1001
0010
0101
0010
1001
0010
,
0101
0010
1001
0010
0101
1000
0110
0001
,
1010
0100
0011
0100
1010
0100
0011
0100
,
1010
0100
0011
0100
1010
0100
1010
0001
,
0101
1010
0110
1001
0101
1010
0110
1001
,
0101
1010
0110
1001
0101
1010
0110
1001
,
0110
1100
0011
1010
0110
1001
0011
1010
,
0110
1100
0011
1010
0110
1001
0110
0101
,
1010
0101
0011
0110
1010
1100
0011
0110
,
1010
0101
0011
1100
0011
1100
0110
0011
,
0110
1001
0101
1010
0110
1100
0101
1010
,
0110
1001
0101
1010
0110
1100
0101
0010
,
1100
0011
1100
0011
1100
0011
1100
0011
,
1100
0011
1100
0011
1100
0011
1100
0011
,
1010
0101
1010
0101
1010
0101
1010
0101
,
1010
0101
1010
0101
1010
0101
1010
0101
,
0110
1001
0110
1001
0110
1001
0110
1001
,
0110
1001
0110
1001
0110
1001
0110
1001
,
1010
0101
1010
0101
1010
0101
1010
0101
,
1010
0101
1010
0101
1010
0101
1010
0101
,
0020
000M
0M00
M000
000M
0M00
M000
000M
0M00
M000
000M
0M00
M000
000M
0M00
M000
000M
0M00
M000
000M
0000
0M00
M000
000M
0M00
M000
000M
0M00
M000
000M
0M00
M000
000M
0M00
M000
000M
0M00
M000
000M
0M00
M000
000M
0M00
M000
000M
0M00
M000
000M
1030
0000
0000
0000
0001
0000
0000
0000
1000
0000
0000
0000
0001
0000
0000
0000
1000
0000
0000
0000
0001
0000
0000
0000
1000
0000
0000
0000
0001
0000
0000
0000
1000
0000
0000
0000
0001
0000
0000
0000
1000
0000
0000
0000
0001
0000
0000
0000
1000
0000
0000
0000
0001
0000
0000
0000
1000
0000
0000
0000
0001
0000
0000
0000
1000
0000
0000
0000
0001
0000
0000
0000
1000
0000
0000
0000
0001
0000
0000
0000
1000
0000
0000
0000
0001
0000
0000
0000
1000
0000
0000
0000
0001
0000
0000
0000
1000
0000
0000
0000
0001
0000
0000
0000
1000
0000
0000
0000
0001
0000
0000
0000
1000
0000
0000
0000
0001
0000
0000
0000
1000
0000
0000
0000
0001
0000
0000
0000
1000
0000
0000
0000
0001
0000
0000
0000
1000
0000
0000
0000
0001
0000
0000
0000
,
1000
0001
1000
0001
1000
0001
1000
0001
1000
0001
1000
0001
1000
0000
0000
0000
0000
0000
0000
0000
0000
0000
0000
0000
0000
0000
0000
0000
0000
0000
0000
0000
0000
0000
0000
0000
0000
0000
0000
0000
0000
0000
0000
0000
0000
0000
0000
0000
;
