#TITLE:Mercury And Solace;
#SUBTITLE:;
#ARTIST:BT;
#TITLETRANSLIT:;
#SUBTITLETRANSLIT:;
#ARTISTTRANSLIT:;
#CREDIT:;
#BANNER:mercuryandsolace-bn.png;
#BACKGROUND:mercuryandsolace-bg.png;
#LYRICSPATH:;
#CDTITLE:;
#MUSIC:Mercury & Solace.mp3;
#OFFSET:-0.480;
#SAMPLESTART:42.179;
#SAMPLELENGTH:12.000;
#SELECTABLE:YES;
#BPMS:0.000=141.780,288.000=70.890,316.000=141.780;
#STOPS:;
#BGCHANGES:;
// cache tags:
#FIRSTBEAT:0.750;
#LASTBEAT:307.750;
#SONGFILENAME:Songs/toune/Mercury And Solace/mercury.sm;
#HASMUSIC:1;
#HASBANNER:1;
#MUSICLENGTH:144.770;
// end cache tags

//---------------dance-single - ----------------
#NOTES:
     dance-single:
     :
     Hard:
     8:
     0.536,0.664,0.553,0.159,1.000,440.000,80.000,23.000,0.000,1.000:
0000
0000
0000
1001
0000
0000
0000
0110
0000
0000
0000
0000
0000
0000
0000
0000
,
0000
1000
0000
0000
0100
0000
0000
0110
0000
0000
0000
0000
0000
0000
0000
0000
,
0001
0100
0000
0000
0100
0000
0000
1010
0000
0000
0000
0000
0000
0000
0000
0000
,
0010
1000
0000
0000
0001
0000
0000
0101
0000
0000
0000
0000
0000
0000
0000
0000
,
0001
0100
0000
0000
0010
0000
0000
1010
0000
0000
0000
0000
0000
0000
0000
0000
,
1000
0001
0000
0000
0010
0000
0000
1001
0000
0000
0000
0000
0000
0000
0000
0000
,
0000
0010
0000
1000
0000
0100
0000
0001
0000
0010
0000
0000
0000
0000
0000
0000
,
0000
1000
0000
0000
0100
0000
0000
1001
0000
0000
0000
0000
0000
0000
0000
0000
,
0001
0100
0000
0010
0000
1000
0000
1000
0000
0010
0000
0100
0000
0001
0000
0100
,
0000
0010
0000
0100
0000
0001
0000
0100
0000
0010
0000
1000
0000
0010
0000
1000
,
0000
0010
0000
0100
0000
0001
0000
0100
0000
0010
0000
0100
0000
0001
0000
0100
,
0000
1000
0000
0100
0000
1000
0000
0100
0000
1000
0000
0100
0000
1000
0000
0100
,
0000
1000
0000
0100
0000
0001
0000
0100
0000
1000
0000
0100
0000
0010
0000
0100
,
0000
0001
0000
0100
0000
0010
0000
0100
0000
0001
0000
0100
0000
0010
0000
1000
,
0000
0100
0000
1000
0000
0010
0000
0100
0000
0001
0000
0100
0000
0010
0000
1000
,
0000
0100
0000
0001
0000
0100
0000
0010
0000
0100
0000
1000
0000
0001
0000
1000
,
0000
1001
0000
0000
0000
0101
0000
0000
0000
0100
0010
0000
0000
1010
0000
0000
,
0000
1010
0000
0000
0000
0110
0000
0000
0000
0001
0100
0000
0000
0110
0000
0000
,
0000
1100
0000
0000
0000
0101
0000
0000
0000
0001
0010
0000
0000
0100
0000
0000
,
0000
1100
0000
0000
0000
0101
0000
0000
0000
0100
0010
0000
0000
1100
0000
0000
,
0000
0101
0000
0000
0000
0110
0000
0000
0000
0100
1000
0000
0000
0100
0000
0000
,
0000
0110
0000
0000
0000
0001
0000
0000
0000
0001
0010
0000
0000
0100
0000
0000
,
0000
1100
0000
0000
0000
0101
0000
0000
0000
0100
0010
0000
0000
1010
0000
0000
,
0000
0110
0000
0000
0000
0101
0000
0000
0000
0001
0100
0000
0000
0100
0000
0000
,
0000
0100
1000
0000
0000
0010
0100
0000
0000
0001
0000
0100
0000
0010
0000
0100
,
0000
0001
0000
0100
0000
1000
0000
0100
0000
0001
0000
0100
0000
0001
0000
0100
,
0000
0001
0000
0000
0000
0200
0000
0000
0000
0000
0000
0001
0000
0000
0000
0010
,
0000
0000
0000
0001
0000
0000
0000
0000
1000
0000
0000
1000
0000
0000
0000
1000
,
0000
0000
0000
1000
0000
0000
0300
0010
0000
0000
0000
0100
0000
0000
0000
0001
,
0000
0100
0000
0010
0000
0100
0000
2000
0000
0000
0000
0100
0000
3000
0000
0001
,
0000
0100
0000
0001
0000
0100
0000
1100
0000
0000
0000
1100
0000
0000
0000
0001
,
0000
0100
0000
0010
0000
0100
0000
0110
0000
0000
0000
0101
0000
0000
0000
0000
,
0000
0001
0100
0000
0000
0010
1000
0000
0000
1000
0010
0000
0000
0100
0010
0000
,
0000
0001
0100
0000
0000
0010
0000
1100
0000
1000
0100
0000
0000
0001
0000
0100
,
0000
0010
0000
0100
0000
1000
0100
0001
0000
0100
0000
0101
0000
0000
0000
0000
,
1010
0000
0000
1010
0000
0000
0000
0110
0000
0000
0000
0101
0000
0000
0000
0001
,
0000
0100
0000
0010
0000
0100
0000
1000
0100
0000
0000
0001
0000
0100
0000
0010
,
0000
0100
0000
1000
0000
0100
0000
0001
0000
0000
0000
0001
0100
0010
0000
1000
,
0010
0100
0000
0010
0100
0001
0000
0100
0010
0000
0000
1000
0100
0000
0000
0001
,
0000
0000
0000
0001
0000
0000
0000
0100
0000
0000
0000
2000
0000
0000
0000
0100
,
0000
0010
0000
0001
0000
3001
0000
0010
0000
1000
0000
0000
0000
0110
0000
0000
,
0000
0101
0000
0000
0000
1100
0000
0000
0000
0101
0000
0000
0000
0110
0000
0000
,
0000
0001
0000
0100
0000
0010
0000
1000
0000
0010
0000
0100
0000
0001
0000
1000
,
0000
1001
0000
0000
0000
0101
0000
0000
0000
0110
0000
0000
0000
1010
0000
0000
,
0000
1000
0100
0000
0000
0001
0000
0100
0000
0010
0000
0100
0000
0001
0000
0100
,
0000
0001
0100
0000
0000
0100
0000
1000
0000
0100
0000
1000
0000
0010
0000
0100
,
0000
0010
0100
0000
0000
0001
0000
0100
0000
0010
0000
1000
0000
0000
0000
1100
,
0000
0000
0000
0101
0000
0000
0000
0110
0000
0000
0000
1100
0000
0000
0000
0001
,
0000
0100
0000
0010
0000
0100
0000
0000
0000
0101
0000
0000
0000
1100
0000
0000
,
0000
0001
0000
0100
0000
0010
0000
0000
0000
1010
0000
0000
0000
0110
0000
0000
,
0000
1000
0000
0100
0000
0001
0000
0000
0000
0100
0000
0000
0000
1100
0000
0000
,
0000
0001
0000
0100
0000
0010
0000
0000
0000
1000
0000
0000
0000
1010
0000
0000
,
0000
1000
0000
0100
0000
0001
0000
0000
0000
0001
0000
0000
0000
0100
0000
0000
,
0000
0001
0000
0010
0000
1000
0000
0000
0000
0100
0000
0000
0000
0001
0000
0000
,
0000
0001
0000
0010
0000
1000
0000
0010
0000
0001
0000
0010
0000
1000
0000
0010
,
0000
0001
0000
0010
0000
1000
0000
0100
0000
0001
0000
0100
0000
1000
0000
0100
,
0000
0002
0000
0000
0000
0100
0000
0000
0000
0010
0000
0000
0000
0100
0003
0000
,
0000
1100
0000
0000
0000
0101
0000
0000
0000
0110
0000
0000
0000
1010
0000
0000
,
0000
0000
0000
0000
0000
0000
0000
0000
0010
0000
0000
0202
0000
0000
0000
0000
,
0000
0000
0000
0000
0303
0000
0000
0000
0000
0100
0000
0100
0000
0010
0000
0100
,
0000
0001
0000
1000
0000
0100
0000
1100
0000
0000
0000
0101
0000
0000
0000
0110
,
0000
0000
0000
2200
0000
0000
0000
0000
0000
3300
0000
0002
0000
0000
0000
0100
,
0003
0000
0000
0020
0000
0000
0000
0200
0030
0000
0300
2000
0000
0000
0000
0200
,
3000
0000
0000
0302
0000
0000
0000
0203
0000
0000
0000
0311
0000
0000
0000
0100
,
0000
0000
0000
1100
0000
0000
0000
0101
0000
0000
0000
0220
0000
0000
0000
0000
,
0000
0000
0000
0300
0000
1000
0000
0000
0000
1000
0000
0000
0000
1000
0000
0000
,
0000
1000
0000
0130
0000
0010
0000
0200
0000
0000
0000
0001
0000
0000
0000
0010
,
0000
0000
0000
0001
0000
0000
0000
0010
0000
0000
0000
0001
0000
0000
0000
0010
,
0300
0001
0000
0100
0000
0010
0000
0200
0000
0000
0000
0001
0000
0000
0000
1000
,
0000
0000
0000
0010
0000
0000
0000
0001
0000
0000
0000
0010
0000
0300
0000
0001
,
0000
0100
0000
0010
0000
1000
0000
1100
0000
0000
0000
0101
0000
0000
0000
1100
,
0000
0000
0000
0101
0000
0000
0000
0110
0000
0000
0000
1100
0000
0000
0000
0000
,
0000
1000
0000
0100
0000
0010
0000
0100
0000
0001
0000
0100
0000
0010
0000
0000
0100
0000
0000
0100
0000
0000
0000
0000
0100
0000
0000
0100
0000
0000
0000
0001
,
0000
0000
0000
0010
0000
0100
0000
1000
0000
0000
0000
1100
0000
0000
0000
0101
0000
0000
0000
0110
0000
0000
0000
1100
0000
0000
0000
0001
0000
0000
0000
0001
,
0000
0100
0000
0010
0000
0100
0000
2000
0000
0000
0000
0100
0000
0000
0000
0001
0000
0000
0000
0100
0000
0000
0000
0010
0000
0000
0000
0100
3000
0000
0000
0001
,
0000
0100
0000
0010
0000
0100
0000
0002
0000
0000
0000
0100
0000
0000
0000
0010
0000
0000
0000
0100
0000
0000
0000
1000
0003
0000
0000
0001
0000
0000
0000
1000
,
0000
2002
0000
0000
0000
0000
0000
0000
0000
0000
0000
0000
0000
0000
0000
0000
0000
0000
0000
0000
0000
0000
0000
0000
0000
0000
0000
0000
0000
0000
3003
0000
;
